osu file format v13

[General]
AudioFilename: ED.mp3
AudioLeadIn: 0
PreviewTime: 56975
Countdown: 0
SampleSet: Soft
StackLeniency: 0.7
Mode: 0
LetterboxInBreaks: 1
WidescreenStoryboard: 1

[Editor]
DistanceSpacing: 1
BeatDivisor: 4
GridSize: 32
TimelineZoom: 2.2

[Metadata]
Title:You Gotta Love Me!
TitleUnicode:You Gotta Love Me!
Artist:Kato*Fuku
ArtistUnicode:かと*ふく
Creator:Hyasalia
Version:Easy
Source:Inou Battle wa Nichijoukei no Naka de
Tags:ending tv size 異能バトルは日常系のなかで Fukuhara Kaori Kato Emiri
BeatmapID:539482
BeatmapSetID:222983

[Difficulty]
HPDrainRate:2
CircleSize:3
OverallDifficulty:2
ApproachRate:3
SliderMultiplier:0.9
SliderTickRate:1

[Events]
//Background and Video events
Video,0,"ED.flv"
0,0,"ED BG.jpg",0,0
//Break Periods
//Storyboard Layer 0 (Background)
//Storyboard Layer 1 (Fail)
//Storyboard Layer 2 (Pass)
//Storyboard Layer 3 (Foreground)
//Storyboard Sound Samples
//Background Colour Transformations
3,100,163,162,255

[TimingPoints]
2399,338.983050847458,4,2,1,60,1,0
8839,-100,4,2,1,65,0,0
14602,-100,4,2,1,55,0,0
35280,-100,4,2,1,60,0,0
38839,-100,4,2,1,65,0,0
57992,-100,4,2,1,65,0,1
67822,-100,4,2,1,5,0,1
68500,-100,4,2,1,65,0,1
83754,-100,4,2,1,65,0,0

[HitObjects]
275,166,2399,6,0,P|354:206|432:157,1,180,6|0,0:0|0:0,0:0:0:0:
351,115,3415,1,2,0:0:0:0:
274,67,3754,2,0,P|216:88|184:200,1,180,0|0,0:0|0:0,0:0:0:0:
246,256,4771,1,2,0:0:0:0:
158,279,5110,2,0,L|133:337,1,45,4|0,0:0|0:0,0:0:0:0:
46,223,5788,6,0,P|44:156|122:70,1,180,0|0,0:0|0:0,0:0:0:0:
188,124,6805,1,2,0:0:0:0:
245,55,7144,2,0,P|319:87|420:62,1,180,0|0,0:0|0:0,0:0:0:0:
499,39,8161,1,2,0:0:0:0:
480,126,8500,2,0,P|482:169|496:231,1,90,8|10,0:0|0:0,0:0:0:0:
401,223,9178,6,0,P|414:313|403:366,2,135,0|0|0,0:0|0:0|0:0,0:0:0:0:
356,212,10365,2,0,P|244:237|206:229,1,135,0|0,0:0|0:0,0:0:0:0:
144,196,11212,2,0,L|113:103,1,90
170,39,11890,2,0,P|257:59|345:39,2,180,0|0|0,0:0|0:0|0:0,0:0:0:0:
78,138,13754,2,0,P|112:220|109:277,1,135
56,337,14602,5,0,0:0:0:0:
144,350,14941,2,0,P|210:358|286:348,1,135,2|0,0:0|0:0,0:0:0:0:
279,260,15788,2,0,P|277:151|289:118,1,135,0|2,0:0|0:0,0:0:0:0:
348,64,16636,2,0,B|369:56|369:56|410:65|448:47,2,90,0|0|0,0:0|0:0|0:0,0:0:0:0:
284,127,17653,2,0,B|196:131|170:71|170:71|123:81|79:59,2,225,2|0|0,0:0|0:0|0:0,0:0:0:0:
369,158,19687,6,0,P|322:211|300:218,1,90,0|0,0:0|0:0,0:0:0:0:
175,251,20534,2,0,P|94:233|1:272,1,180,0|0,0:0|0:0,0:0:0:0:
72,329,21551,2,0,P|184:348|284:285,1,225,0|0,0:0|0:0,0:0:0:0:
362,320,22737,2,0,P|391:355|442:384,2,90,0|0|0,0:0|0:0|0:0,0:0:0:0:
481,255,23924,6,0,P|484:183|474:158,2,90,2|2|2,0:0|0:0|0:0,0:0:0:0:
403,213,24941,2,0,B|346:226|346:226|313:205|262:204,1,135,2|2,0:0|0:0,0:0:0:0:
203,260,25788,6,0,P|188:184|224:132,1,135,0|2,0:0|0:0,0:0:0:0:
296,93,26636,2,0,P|233:47|168:59,1,135,0|2,0:0|0:0,0:0:0:0:
105,102,27483,1,0,0:0:0:0:
62,23,27822,2,0,P|33:50|17:110,1,90,0|2,0:0|0:0,0:0:0:0:
55,178,28500,2,0,B|115:210|167:168|167:168|189:185|170:234,1,180,0|2,0:0|0:0,0:0:0:0:
117,293,29517,2,0,B|174:333|229:294|229:294|277:345|339:336,1,225,0|2,0:0|0:0,0:0:0:0:
455,310,30873,6,0,P|409:261|344:250,1,135,0|2,0:0|0:0,0:0:0:0:
275,192,31721,1,2,0:0:0:0:
344,134,32060,2,0,P|360:55|474:91,1,225,2|0,0:0|0:0,0:0:0:0:
501,170,33246,5,2,0:0:0:0:
446,240,33585,2,0,P|372:227|349:211,1,90,0|2,0:0|0:0,0:0:0:0:
275,191,34263,2,0,P|267:251|273:286,2,90,0|0|6,0:0|0:0|0:0,0:0:0:0:
437,110,35619,2,0,P|382:125|330:119,1,90,2|0,0:0|0:0,0:0:0:0:
263,97,36297,1,6,0:0:0:0:
256,192,36636,12,0,38839,0:0:0:0:
256,310,40534,6,0,P|303:312|354:293,2,90,0|0|4,0:0|0:0|0:0,0:0:0:0:
172,203,41721,6,0,B|101:178|48:215|48:215|-10:194,2,180,8|8|8,0:0|0:0|0:0,0:0:0:0:
260,219,43415,1,0,0:0:0:0:
256,310,43754,2,0,P|317:289|337:265,1,90,8|0,0:0|0:0,0:0:0:0:
343,181,44432,6,0,B|367:109|428:90|428:90|447:32,2,180,8|8|8,0:0|0:0|0:0,0:0:0:0:
260,219,46127,1,0,0:0:0:0:
192,159,46466,2,0,P|184:103|159:71,1,90,8|0,0:0|0:0,0:0:0:0:
105,143,47144,6,0,B|68:206|68:206|90:261|90:261|83:311,2,180,8|8|8,0:0|0:0|0:0,0:0:0:0:
192,159,48839,2,0,L|243:71,2,90,0|8|0,0:0|0:0|0:0,0:0:0:0:
230,240,49856,2,0,B|277:228|305:237|305:237|359:211|418:252,1,180,8|0,0:0|0:0,0:0:0:0:
349,314,50873,1,8,0:0:0:0:
262,338,51212,2,0,P|147:301|196:141,1,315,2|0,0:0|0:0,0:0:0:0:
304,213,52907,6,0,P|323:149|309:84,2,135,8|8|8,0:0|0:0|0:0,0:0:0:0:
188,144,54432,2,0,P|128:124|98:129,1,90,8|2,0:0|0:0,0:0:0:0:
256,192,55110,12,0,56636,0:0:0:0:
127,152,57992,6,0,P|133:68|229:58,1,180
265,124,59009,1,8,0:0:0:0:
328,59,59348,2,0,B|366:46|366:46|418:66|471:50,2,135,0|0|8,0:0|0:0|0:0,0:0:0:0:
265,124,60704,2,0,B|261:166|261:166|286:205|277:259,2,135,0|0|8,0:0|0:0|0:0,0:0:0:0:
190,72,62060,2,0,L|87:84,1,90,0|8,0:0|0:0,0:0:0:0:
24,33,62737,6,0,B|8:102|8:102|37:147|20:211,1,180
17,297,63754,1,8,0:0:0:0:
97,337,64093,2,0,L|207:325,2,90,0|8|0,0:0|0:0|0:0,0:0:0:0:
17,297,65110,5,8,0:0:0:0:
92,247,65449,2,0,L|202:235,1,90,0|8,0:0|0:0,0:0:0:0:
262,277,66127,2,0,P|285:214|265:132,1,135,4|0,0:0|0:0,0:0:0:0:
206,88,66975,1,0,0:0:0:0:
292,62,67314,2,0,B|368:72|368:72|453:59,2,157.5,4|0|0,0:0|0:0|0:0,0:0:0:0:
206,88,68839,6,0,B|112:73|112:73|64:100,2,135,8|0|8,0:0|0:0|0:0,0:0:0:0:
273,148,70195,2,0,P|284:214|262:277,2,135,0|0|8,0:0|0:0|0:0,0:0:0:0:
292,62,71551,2,0,B|323:56|323:56|365:97|426:84,1,135
486,26,72399,2,0,B|536:84|477:171|477:171|490:257,1,225,0|8,0:0|0:0,0:0:0:0:
431,308,73585,2,0,L|323:296,1,90,0|8,0:0|0:0,0:0:0:0:
265,248,74263,6,0,B|194:227|194:227|148:263|79:260,2,180,0|8|0,0:0|0:0|0:0,0:0:0:0:
355,253,75958,2,0,P|354:297|339:340,2,90,0|0|0,0:0|0:0|0:0,0:0:0:0:
312,173,76975,6,0,B|349:105|431:124|431:124|474:89,2,180,8|0|0,0:0|0:0|0:0,0:0:0:0:
265,248,78670,1,8,0:0:0:0:
221,168,79009,2,0,L|187:123,1,45,0|0,0:0|0:0,0:0:0:0:
149,54,79517,2,0,B|203:19|270:82|334:43,2,180,8|0|8,0:0|0:0|0:0,0:0:0:0:
84,116,81212,2,0,P|70:188|84:254,2,135,0|0|8,0:0|0:0|0:0,0:0:0:0:
425,136,83754,6,0,P|439:201|428:268,1,135,2|0,0:0|0:0,0:0:0:0:
339,248,84602,2,0,P|332:204|339:160,1,90,2|2,0:0|0:0,0:0:0:0:
168,119,86297,5,4,0:0:0:0:
90,73,86636,2,0,P|80:128|93:170,1,90,0|4,0:0|0:0,0:0:0:0:
165,207,87314,2,0,P|217:188|247:155,1,90,0|4,0:0|0:0,0:0:0:0:
245,74,87992,2,0,P|202:37|159:28,2,90,2|0|2,0:0|0:0|0:0,0:0:0:0:
