osu file format v14

[General]
AudioFilename: -Battle Theme- Extended -Mirai Nikki OST-.mp3
AudioLeadIn: 0
PreviewTime: 19188
Countdown: 0
SampleSet: None
StackLeniency: 0.7
Mode: 2
LetterboxInBreaks: 1
WidescreenStoryboard: 0

[Editor]
Bookmarks: 38578,57163,66529
DistanceSpacing: 1
BeatDivisor: 4
GridSize: 8
TimelineZoom: 1.9

[Metadata]
Title:Mirai Nikki Battle Theme
TitleUnicode:Mirai Nikki Battle Theme
Artist:Kato Tatsuya
ArtistUnicode:Kato Tatsuya
Creator:Kiwi-P
Version:AR9
Source:Mirai Nikki
Tags:
BeatmapID:917663
BeatmapSetID:424854

[Difficulty]
HPDrainRate:0
CircleSize:5
OverallDifficulty:9
ApproachRate:9
SliderMultiplier:2.2
SliderTickRate:2

[Events]
//Background and Video events
0,0,"yunokowai.jpg",0,0
//Break Periods
2,66729,70758
//Storyboard Layer 0 (Background)
//Storyboard Layer 1 (Fail)
//Storyboard Layer 2 (Pass)
//Storyboard Layer 3 (Foreground)
//Storyboard Sound Samples

[TimingPoints]
1115,292.681499114638,4,1,0,65,1,0
17358,-200,4,1,0,65,0,0
19261,-66.6666666666667,4,1,0,65,0,0
19700,-100,4,1,0,65,0,0
57602,-200,4,1,0,65,0,0
62285,-166.666666666667,4,1,0,65,0,0
62578,-142.857142857143,4,1,0,65,0,0
62870,-125,4,1,0,65,0,0
63163,-100,4,1,0,65,0,0
63456,-90.9090909090909,4,1,0,65,0,0
63748,-83.3333333333333,4,1,0,65,0,0
64041,-76.9230769230769,4,1,0,65,0,0
64334,-66.6666666666667,4,1,0,65,0,0
64626,-62.5,4,1,0,65,0,0
64919,-58.8235294117647,4,1,0,65,0,0
65212,-55.5555555555556,4,1,0,65,0,0
65504,-50,4,1,0,65,0,0
66529,-133.333333333333,4,1,0,65,0,0
76041,-100,4,1,0,65,0,0
241998,292.681700468019,4,1,0,65,1,0
242164,292.681700468019,4,1,0,65,1,0

[HitObjects]
256,192,7993,12,0,10188,0:0:0:0:
32,64,10334,6,0,B|32:120|88:64|144:120|104:280,1,220,4|0,0:0|0:0,0:0:0:0:
152,320,10773,2,0,L|192:216,1,110
224,112,11066,2,0,L|263:214,1,110
296,328,11358,2,0,L|336:224,1,110
472,160,11651,2,0,L|360:160,1,110
200,128,11944,2,0,L|310:128,1,110
472,88,12236,1,0,0:0:0:0:
256,48,12383,1,4,0:0:0:0:
136,80,12529,1,4,0:0:0:0:
32,152,12675,6,0,B|160:336,1,220,4|0,0:0|0:0,0:0:0:0:
208,160,13114,2,0,B|256:112|304:160,1,110
312,272,13407,2,0,B|360:320|408:272,1,110
360,88,13700,2,0,B|312:40|264:88,1,110
256,200,13993,2,0,B|208:248|160:200,1,110
152,64,14285,2,0,B|104:112|56:64,1,110
32,192,14578,1,4,0:0:0:0:
256,192,14724,1,4,0:0:0:0:
480,192,14871,1,4,0:0:0:0:
480,112,15017,6,0,L|208:112,1,220,4|0,0:0|0:0,0:0:0:0:
56,80,15456,2,0,L|56:200,1,110
192,80,15749,2,0,L|192:200,1,110
456,80,16041,2,0,L|456:200,1,110
320,80,16334,2,0,L|320:200,1,110
192,80,16627,2,0,L|192:208,1,110
296,288,16919,2,4,L|424:288,2,110
232,288,17358,2,0,B|16:288|16:288|32:248|88:168|256:96|416:144,1,660,4|0,0:0|0:0,0:0:0:0:
352,248,19261,2,0,L|176:248,3,165.000006294251,4|4|4|4,0:0|0:0|0:0|0:0,0:0:0:0:
80,256,20431,6,0,L|192:256,2,110
144,168,20871,1,0,0:0:0:0:
368,168,21163,1,0,0:0:0:0:
432,256,21602,2,0,L|320:256,2,110
368,168,22041,1,0,0:0:0:0:
144,168,22334,1,0,0:0:0:0:
80,256,22773,2,0,L|192:256,2,110
144,168,23212,1,2,0:0:0:0:
432,256,23505,2,0,L|320:256,2,110,2|0|2,0:0|0:0|0:0,0:0:0:0:
72,168,24090,1,2,0:0:0:0:
176,168,24236,1,0,0:0:0:0:
272,168,24383,5,2,0:0:0:0:
472,168,24675,1,2,0:0:0:0:
384,264,25114,1,0,0:0:0:0:
248,264,25261,1,0,0:0:0:0:
248,264,25334,1,0,0:0:0:0:
208,264,25407,1,0,0:0:0:0:
64,264,25553,1,0,0:0:0:0:
448,264,25846,1,0,0:0:0:0:
480,136,26139,2,0,L|424:32,1,110
320,136,26431,2,0,L|264:32,1,110
112,48,26724,2,0,P|104:128|472:256,1,550
216,208,27602,1,0,0:0:0:0:
120,208,27749,1,0,0:0:0:0:
48,64,27895,2,0,P|40:144|224:344,1,330
352,248,28480,2,4,L|192:248,3,110
32,248,29066,1,4,0:0:0:0:
32,80,29797,6,0,L|152:80,1,110
144,144,30090,2,0,L|264:144,1,110
472,64,30529,1,0,0:0:0:0:
472,64,30822,1,0,0:0:0:0:
480,80,30968,2,0,L|360:80,1,110
368,144,31261,2,0,L|248:144,1,110
40,64,31700,1,0,0:0:0:0:
32,80,32139,2,0,L|152:80,1,110
144,144,32432,2,0,L|264:144,1,110,0|2,0:0|0:0,0:0:0:0:
472,64,32871,5,2,0:0:0:0:
256,64,33017,2,0,L|136:64,1,110,0|2,0:0|0:0,0:0:0:0:
40,64,33456,1,2,0:0:0:0:
256,64,33602,2,0,L|376:64,1,110,0|2,0:0|0:0,0:0:0:0:
472,64,34041,5,2,0:0:0:0:
480,80,34480,2,0,L|360:80,1,110
368,144,34773,2,0,L|248:144,1,110
40,64,35212,1,0,0:0:0:0:
32,80,35505,2,0,L|152:80,1,110
328,80,35798,2,0,L|400:192,1,110
400,48,36090,2,0,P|408:128|40:256,1,550
296,208,36968,1,0,0:0:0:0:
392,208,37115,1,0,0:0:0:0:
256,192,37261,12,0,38139,0:0:0:0:
256,192,38285,5,4,0:0:0:0:
256,192,38431,1,4,0:0:0:0:
192,192,39456,1,4,0:0:0:0:
320,192,39602,1,4,0:0:0:0:
128,192,40919,1,4,0:0:0:0:
384,192,41066,1,4,0:0:0:0:
64,192,41797,1,4,0:0:0:0:
448,192,41944,1,4,0:0:0:0:
384,192,42236,1,0,0:0:0:0:
320,192,42529,1,0,0:0:0:0:
256,192,42822,1,0,0:0:0:0:
64,192,43261,5,4,0:0:0:0:
448,192,43408,1,4,0:0:0:0:
128,192,44139,1,4,0:0:0:0:
384,192,44286,1,4,0:0:0:0:
368,56,45017,2,0,L|480:56,2,110
400,48,45456,2,0,P|408:128|40:256,1,550
296,208,46334,1,0,0:0:0:0:
392,208,46481,1,0,0:0:0:0:
256,192,46627,12,0,47505,0:0:0:0:
256,192,47651,5,4,0:0:0:0:
256,192,47797,1,4,0:0:0:0:
320,192,48822,1,4,0:0:0:0:
192,192,48968,1,4,0:0:0:0:
384,192,50285,1,4,0:0:0:0:
128,192,50432,1,4,0:0:0:0:
448,192,51163,1,4,0:0:0:0:
64,192,51310,1,4,0:0:0:0:
128,192,51602,1,0,0:0:0:0:
192,192,51895,1,0,0:0:0:0:
256,192,52188,1,0,0:0:0:0:
448,192,52627,5,4,0:0:0:0:
64,192,52774,1,4,0:0:0:0:
384,192,53505,1,4,0:0:0:0:
128,192,53652,1,4,0:0:0:0:
352,48,54383,2,0,L|480:48,2,110
288,48,54822,2,0,B|8:48|8:48|488:48|488:48|24:48|24:48|480:48|480:48|384:48,1,1760,0|4,0:0|0:0,0:0:0:0:
32,32,57602,2,0,B|72:192|72:192|112:32|112:32|152:192|152:192|192:32|192:32,1,660,0|4,0:0|0:0,0:0:0:0:
480,32,59504,1,4,0:0:0:0:
480,32,59944,2,0,B|440:192|440:192|400:32|400:32|360:192|360:192|336:120|336:120,1,550,0|4,0:0|0:0,0:0:0:0:
160,32,61553,1,4,0:0:0:0:
96,32,61700,1,4,0:0:0:0:
32,32,61846,1,4,0:0:0:0:
24,344,62285,5,0,0:0:0:0:
57,344,62358,1,0,0:0:0:0:
90,344,62431,1,0,0:0:0:0:
123,344,62504,1,0,0:0:0:0:
184,344,62578,1,0,0:0:0:0:
222,344,62651,1,0,0:0:0:0:
261,344,62724,1,0,0:0:0:0:
299,344,62797,1,0,0:0:0:0:
360,344,62870,1,0,0:0:0:0:
404,344,62943,1,0,0:0:0:0:
448,344,63016,1,0,0:0:0:0:
492,344,63089,1,0,0:0:0:0:
480,280,63163,1,0,0:0:0:0:
425,280,63236,1,0,0:0:0:0:
370,280,63309,1,0,0:0:0:0:
315,280,63382,1,0,0:0:0:0:
248,280,63456,1,0,0:0:0:0:
187,280,63529,1,0,0:0:0:0:
127,280,63602,1,0,0:0:0:0:
66,280,63675,1,0,0:0:0:0:
32,216,63748,1,0,0:0:0:0:
98,216,63821,1,0,0:0:0:0:
164,216,63894,1,0,0:0:0:0:
230,216,63967,1,0,0:0:0:0:
296,216,64041,1,4,0:0:0:0:
367,216,64114,1,0,0:0:0:0:
439,216,64187,1,4,0:0:0:0:
510,216,64260,1,0,0:0:0:0:
480,152,64334,1,0,0:0:0:0:
397,152,64407,1,0,0:0:0:0:
315,152,64480,1,0,0:0:0:0:
232,152,64553,1,0,0:0:0:0:
168,152,64626,1,0,0:0:0:0:
80,152,64699,1,0,0:0:0:0:
32,112,64772,1,0,0:0:0:0:
95,88,64845,1,0,0:0:0:0:
160,88,64919,1,0,0:0:0:0:
253,88,64992,1,0,0:0:0:0:
347,88,65065,1,0,0:0:0:0:
440,88,65138,1,0,0:0:0:0:
480,152,65212,1,0,0:0:0:0:
381,152,65285,1,0,0:0:0:0:
282,152,65358,1,0,0:0:0:0:
183,152,65431,1,0,0:0:0:0:
120,152,65504,1,0,0:0:0:0:
10,152,65577,1,0,0:0:0:0:
52,216,65650,1,0,0:0:0:0:
162,216,65723,1,0,0:0:0:0:
224,216,65797,1,0,0:0:0:0:
334,216,65870,1,0,0:0:0:0:
444,216,65943,1,0,0:0:0:0:
480,290,66016,1,0,0:0:0:0:
416,280,66090,1,4,0:0:0:0:
306,280,66163,1,0,0:0:0:0:
196,280,66236,1,4,0:0:0:0:
86,280,66309,1,0,0:0:0:0:
104,216,66383,1,4,0:0:0:0:
214,216,66456,1,0,0:0:0:0:
480,152,66529,5,4,0:0:0:0:
256,192,71358,12,0,75895,0:0:0:0:
464,72,76626,6,0,L|328:72,2,110
256,72,77065,1,0,0:0:0:0:
32,72,77358,1,0,0:0:0:0:
48,72,77797,6,0,L|184:72,2,110
256,72,78236,1,0,0:0:0:0:
480,72,78529,1,0,0:0:0:0:
344,192,78968,1,0,0:0:0:0:
288,192,79114,1,0,0:0:0:0:
224,192,79261,1,0,0:0:0:0:
160,192,79407,1,2,0:0:0:0:
96,192,79700,1,2,0:0:0:0:
256,192,79846,1,0,0:0:0:0:
408,192,79992,1,2,0:0:0:0:
472,192,80285,1,2,0:0:0:0:
256,192,80431,1,0,0:0:0:0:
32,192,80578,5,2,0:0:0:0:
80,120,80870,1,2,0:0:0:0:
216,120,81309,1,0,0:0:0:0:
232,120,81382,1,0,0:0:0:0:
248,120,81456,1,0,0:0:0:0:
264,120,81529,1,0,0:0:0:0:
280,120,81602,1,0,0:0:0:0:
448,120,81748,1,0,0:0:0:0:
160,120,82041,1,0,0:0:0:0:
56,224,82334,2,0,L|104:112,1,110
256,224,82626,2,0,L|304:112,1,110
376,72,82919,6,0,B|288:56|216:160|216:160|120:88|128:336|128:336|264:336,1,550
472,96,83797,1,0,0:0:0:0:
424,88,83943,1,0,0:0:0:0:
376,72,84090,2,0,B|168:144|128:264|128:264|128:256,1,330
120,320,84675,2,4,L|48:232,1,110,6|4,0:0|0:0,0:0:0:0:
392,320,84968,2,4,L|464:232,1,110,6|4,0:0|0:0,0:0:0:0:
120,320,85260,1,4,0:0:0:0:
480,320,85992,6,0,L|440:192,1,110
384,216,86285,2,0,L|344:88,1,110
40,48,86724,1,0,0:0:0:0:
40,48,87017,1,0,0:0:0:0:
32,320,87163,2,0,L|64:215,1,110
128,216,87456,2,0,L|160:111,1,110
472,48,87895,1,0,0:0:0:0:
480,320,88334,6,0,L|440:192,1,110
384,216,88627,2,0,L|344:88,1,110,0|2,0:0|0:0,0:0:0:0:
160,112,89065,2,0,L|32:112,2,110,2|0|2,0:0|0:0|0:0,0:0:0:0:
352,112,89651,2,0,L|480:112,2,110,2|0|2,0:0|0:0|0:0,0:0:0:0:
48,112,90236,1,2,0:0:0:0:
288,176,90675,2,0,L|160:176,2,110
376,176,91114,1,0,0:0:0:0:
48,112,91407,1,0,0:0:0:0:
256,112,91699,2,0,L|368:112|368:112,1,110
256,112,91992,2,0,L|144:112|144:112,1,110
48,112,92285,2,0,P|72:216|432:184,1,550
384,184,93163,1,0,0:0:0:0:
336,176,93309,1,0,0:0:0:0:
48,112,93456,2,0,L|80:112,28,27.5,0|0|0|0|0|0|0|0|0|0|0|0|0|0|0|0|0|0|0|0|0|0|0|0|0|0|0|0|4,0:0|0:0|0:0|0:0|0:0|0:0|0:0|0:0|0:0|0:0|0:0|0:0|0:0|0:0|0:0|0:0|0:0|0:0|0:0|0:0|0:0|0:0|0:0|0:0|0:0|0:0|0:0|0:0|0:0,0:0:0:0:
448,120,94626,1,4,0:0:0:0:
192,192,95651,5,4,0:0:0:0:
320,192,95797,1,4,0:0:0:0:
128,192,97114,1,4,0:0:0:0:
384,192,97261,1,4,0:0:0:0:
64,192,97992,1,4,0:0:0:0:
448,192,98139,1,4,0:0:0:0:
128,192,98431,1,0,0:0:0:0:
320,192,98724,1,0,0:0:0:0:
192,192,99017,1,0,0:0:0:0:
64,192,99456,5,4,0:0:0:0:
448,192,99603,1,4,0:0:0:0:
128,192,100334,1,4,0:0:0:0:
384,192,100481,1,4,0:0:0:0:
368,56,101212,2,0,L|480:56,2,110
400,48,101651,2,0,P|408:128|40:256,1,550,4|0,0:0|0:0,0:0:0:0:
296,208,102529,1,0,0:0:0:0:
392,208,102676,1,0,0:0:0:0:
256,192,102822,12,0,103700,0:0:0:0:
256,192,103846,5,4,0:0:0:0:
256,192,103992,1,4,0:0:0:0:
320,192,105017,1,4,0:0:0:0:
192,192,105163,1,4,0:0:0:0:
384,192,106480,1,4,0:0:0:0:
128,192,106627,1,4,0:0:0:0:
448,192,107358,1,4,0:0:0:0:
64,192,107505,1,4,0:0:0:0:
384,192,107797,1,0,0:0:0:0:
192,192,108090,1,0,0:0:0:0:
320,192,108383,1,0,0:0:0:0:
448,192,108822,5,4,0:0:0:0:
64,192,108969,1,4,0:0:0:0:
384,192,109700,1,4,0:0:0:0:
128,192,109847,1,4,0:0:0:0:
280,152,110577,2,0,L|368:24,2,110
256,192,111016,12,0,113358,0:0:0:0:
64,128,113651,5,0,0:0:0:0:
144,176,113797,2,0,L|200:288,1,110
256,272,114090,2,0,L|305:173,1,110
480,176,114382,2,0,L|424:288,1,110
368,272,114675,2,0,L|318:173,1,110
256,176,114968,2,0,L|200:288,1,110
144,272,115261,2,0,L|94:173,1,110
64,120,115553,1,4,0:0:0:0:
416,112,115699,1,4,0:0:0:0:
432,112,115992,5,0,0:0:0:0:
368,112,116138,2,0,L|368:232,1,110
264,112,116431,2,0,L|264:232,1,110
152,112,116724,2,0,L|152:232,1,110
264,112,117017,2,0,L|424:112,1,110
200,112,117309,2,0,L|40:112,1,110
368,112,117602,1,4,0:0:0:0:
304,112,117748,1,4,0:0:0:0:
416,112,117894,1,4,0:0:0:0:
480,112,118041,1,4,0:0:0:0:
376,48,118333,5,0,0:0:0:0:
464,48,118480,2,0,L|464:184,1,110
48,48,118772,2,0,L|48:184,1,110
424,48,119065,2,0,L|464:184,1,110
88,48,119358,2,0,L|48:184,1,110
384,48,119651,2,0,L|464:184,1,110
128,48,119943,2,0,L|48:184,1,110
312,184,120236,2,0,L|464:184,1,110,0|4,0:0|0:0,0:0:0:0:
400,104,120675,5,0,0:0:0:0:
399,296,120821,1,0,0:0:0:0:
430,251,120894,1,0,0:0:0:0:
438,197,120967,1,0,0:0:0:0:
424,145,121040,1,0,0:0:0:0:
112,296,121114,1,0,0:0:0:0:
81,251,121187,1,0,0:0:0:0:
73,197,121260,1,0,0:0:0:0:
87,145,121333,1,0,0:0:0:0:
399,296,121407,1,0,0:0:0:0:
430,251,121480,1,0,0:0:0:0:
438,197,121553,1,0,0:0:0:0:
424,145,121626,1,0,0:0:0:0:
128,184,121699,2,0,L|56:184,1,55,4|0,0:0|0:0,0:0:0:0:
384,184,121846,2,0,L|456:184,1,55,4|0,0:0|0:0,0:0:0:0:
128,184,121992,2,0,L|56:184,1,55,4|0,0:0|0:0,0:0:0:0:
384,184,122139,2,0,L|456:184,1,55,4|0,0:0|0:0,0:0:0:0:
128,184,122285,2,0,L|56:184,1,55,4|0,0:0|0:0,0:0:0:0:
384,184,122432,2,0,L|456:184,1,55,4|0,0:0|0:0,0:0:0:0:
384,184,122577,1,4,0:0:0:0:
128,184,122724,1,4,0:0:0:0:
