osu file format v9

[General]
AudioFilename: Love Forever (Serious Remix).mp3
AudioLeadIn: 0
PreviewTime: 90000
Countdown: 1
SampleSet: Normal
StackLeniency: 0.7
Mode: 0
LetterboxInBreaks: 1

[Editor]
Bookmarks: 60000,90000,105000,120000
DistanceSpacing: 0.8
BeatDivisor: 4
GridSize: 8

[Metadata]
Title:Love Forever (Serious Mix)
Artist:Kato Miliyah x Shota Shimizu
Creator:dkun
Version:Forever!
Source:
Tags:mint_bunny nekoroll MMzz Charles445

[Difficulty]
HPDrainRate:7
CircleSize:4
OverallDifficulty:7
ApproachRate:8
SliderMultiplier:2.1
SliderTickRate:2

[Events]
//Background and Video events
0,0,"pw2wulg38l-beach-love-couple-silhouette.jpg"
//Break Periods
//Storyboard Layer 0 (Background)
//Storyboard Layer 1 (Fail)
//Storyboard Layer 2 (Pass)
//Storyboard Layer 3 (Foreground)
Sprite,Foreground,Centre,"dkun.png",320,240 F,0,89531,90000,0,1 M,0,89531,105000,109,54,107,424 F,0,104531,105000,1,0
Sprite,Foreground,Centre,"nekoroll.png",320,240 F,0,104531,105000,0,1 M,0,104531,120000,519,424,519,54 F,0,118125,120000,1,0
Sprite,Foreground,Centre,"dkun.png",320,240 M,0,14531,,315,423 S,0,14531,15000,0.1,1 M,0,30000,60000,315,423,89,424 F,0,59531,60000,1,0
Sprite,Foreground,Centre,"nekoroll.png",320,240 F,0,59531,60000,0,1 M,0,59531,90000,131,54,530,54 F,0,89531,90000,1,0
//Storyboard Sound Samples
//Background Colour Transformations
3,100,163,162,255

[TimingPoints]
15000,468.75,4,1,0,100,1,0
15000,-100,4,2,0,60,0,0

[Colours]
Combo1 : 128,0,255
Combo2 : 128,64,64
Combo3 : 128,64,0

[HitObjects]
168,108,15000,1,0
336,108,15468,1,8
336,276,15937,1,0
168,276,16406,1,8
256,72,16875,5,0
374,190,17343,1,8
256,309,17812,1,0
137,190,18281,1,8
352,96,18750,5,0
296,40,18984,1,8
216,40,19218,1,0
160,96,19453,1,8
256,120,19687,1,0
256,160,19804,1,0
256,200,19921,1,8
160,288,20156,2,8,B|264:336|376:280,1,210,0|8
384,136,21093,5,0
328,72,21328,1,8
256,40,21562,1,0
176,72,21796,1,8
120,136,22031,1,0
377,189,22500,5,0
258,307,22968,1,8
140,189,23437,1,0
258,70,23906,1,8
340,276,24375,5,0
173,276,24843,1,8
173,109,25312,1,0
341,109,25781,1,8
128,248,26250,5,0
184,312,26485,1,8
256,344,26719,1,0
336,312,26953,1,8
392,248,27188,1,0
328,96,27656,5,0
256,48,27890,1,8
184,96,28125,1,0
120,152,28359,5,0
184,208,28593,1,8
256,256,28828,1,0
320,208,29062,1,8
384,152,29296,1,0
408,232,29531,2,8,B|304:328,1,105,0|8
104,232,30000,6,8,B|208:328,1,105,0|8
256,240,30468,2,8,B|256:112,1,105,0|8
152,80,30937,2,0,B|264:16|384:96,2,210,0|8|0
104,144,32109,1,0
128,224,32343,1,8
200,264,32578,1,0
256,328,32812,1,8
312,264,33046,1,0
384,224,33281,1,8
416,144,33515,5,0
360,80,33750,2,0,B|248:16|128:96,2,210,0|8|0
432,128,34921,1,8
488,192,35156,2,0,B|392:288|280:176,1,210,0|8
256,120,35859,1,8
24,192,36093,2,0,B|120:288|232:176,1,210,0|8
144,144,36796,5,0
176,64,37031,1,8
256,32,37265,1,0
336,64,37500,1,8
368,144,37734,1,0
368,144,37968,1,8
256,192,38203,1,0
256,192,38320,1,0
256,192,38437,1,8
208,272,38671,1,0
304,272,38906,1,8
392,128,39375,5,0
320,80,39609,1,8
256,24,39843,1,0
192,80,40078,1,8
120,128,40312,1,0
256,224,40781,1,8
256,192,41015,12,8,43593
144,288,44062,5,0
208,344,44296,1,8
296,344,44531,1,0
360,288,44765,1,8
256,240,45000,2,0,B|256:112,1,105,0|8
152,80,45468,2,0,B|232:32|280:32|384:96,2,210,0|8|0
88,136,46640,1,0
72,216,46875,1,8
136,264,47109,1,0
192,320,47343,1,8
256,264,47578,1,0
320,320,47812,5,8
376,264,48046,1,0
440,216,48281,1,8
424,136,48515,1,0
360,80,48750,2,0,B|280:32|232:32|128:96,2,210,0|8|0
424,136,49921,1,8
352,184,50156,2,8,B|240:240,1,105,0|8
168,184,50625,2,8,B|280:240,1,105,0|8
256,312,51093,1,0
256,312,51210,1,0
256,312,51328,1,8
336,312,51562,6,0,B|416:232,1,105,0|8
408,152,52031,2,0,B|328:72,1,105,0|8
256,56,52500,2,0,B|256:120,4,52.5
176,72,53203,6,0,B|96:152,1,105,0|8
104,232,53671,2,0,B|184:312,1,105,0|8
256,328,54140,2,0,B|256:264,6,52.5
432,136,55312,5,0
368,80,55546,1,8
296,128,55781,1,0
216,128,56015,1,8
144,80,56250,1,0
80,136,56484,1,8
80,136,56718,1,0
128,296,57187,5,0
200,336,57421,1,8
256,272,57656,1,0
312,336,57890,1,8
384,296,58125,1,8
408,128,58593,1,8
256,56,59062,1,8
104,128,59531,1,8
256,200,60000,5,8
208,272,60234,2,0,B|208:352|128:352,1,105,0|8
304,272,60703,2,0,B|304:352|384:352,1,105,0|8
416,288,61171,1,8
432,208,61406,1,0
424,128,61640,1,8
256,112,62109,6,2,B|256:56,2,52.5
216,184,62578,2,8,B|184:232,2,52.5
296,184,63046,2,2,B|328:232,2,52.5
256,256,63515,2,0,B|256:368,1,105,0|8
344,216,64218,6,0,B|304:152|208:152|168:216,1,210,0|8
256,72,65156,1,8
120,168,65625,2,0,B|176:192|176:264,1,105,0|8
256,175,66093,2,0,B|256:280,1,105,0|8
392,168,66562,2,0,B|336:192|336:264,1,105,0|8
304,328,67031,2,0,B|256:368|208:328,2,105,0|8|0
328,248,67734,5,0
352,168,67968,1,8
298,99,68203,2,2,B|322:51,2,52.5
218,99,68671,2,8,B|194:51,2,52.5
160,168,69140,1,8
184,248,69375,2,0,B|160:352|64:352,2,157.5,0|0|8
256,200,70312,5,8
256,280,70546,1,0
256,320,70664,1,0
256,360,70781,1,8
336,336,71015,1,8
336,248,71250,2,0,B|344:184|408:152,1,105,0|8
256,200,71718,2,0,B|256:96,1,105,0|8
176,248,72187,2,0,B|168:184|104:152,2,105,0|8|8
200,328,72890,2,0,B|256:352|304:328,1,105,0|8
336,312,73242,5,0
368,288,73359,1,8
424,224,73593,1,0
368,160,73828,1,8
296,200,74062,1,0
256,208,74179,1,0
216,200,74296,1,8
144,160,74531,1,0
96,88,74765,1,8
176,80,75000,6,0,B|224:112|280:96,1,105,0|8
328,160,75468,2,0,B|280:192|224:176,1,105,0|8
176,240,75937,2,0,B|224:272|280:256,1,105,0|8
328,320,76406,2,0,B|280:352|224:336,1,105,0|8
184,328,76757,1,0
144,312,76875,1,8
208,160,77343,2,0,B|256:200|304:160,1,105,0|8
368,104,77812,1,0
304,48,78046,1,8
216,48,78281,1,0
152,104,78515,5,8
104,176,78750,2,0,B|80:240|144:272,1,105,0|8
176,192,79218,2,0,B|204:254|272:231,1,105,0|8
240,152,79687,2,0,B|301:181|339:120,2,105,0|8|8
272,72,80390,6,0,B|312:32|408:32|432:120|400:168,1,210,0|8
384,224,81093,1,0
320,280,81328,1,8
256,224,81562,2,8,B|256:152,2,52.5
192,280,82031,1,0
128,224,82265,1,8
96,144,82500,6,0,B|176:64,1,105,0|8
256,88,82968,2,0,B|176:168,1,105,0|8
208,240,83437,2,0,B|288:160,1,105,0|8
360,192,83906,2,0,B|280:272,1,105,0|8
312,344,84375,2,0,B|392:264,2,105,0|8|0
224,344,85078,1,8
160,288,85312,1,0
136,256,85429,1,0
128,216,85546,1,8
136,128,85781,5,8
136,48,86015,2,0,B|200:48|216:112,1,105,0|8
256,176,86484,1,0
376,128,86718,1,8
376,48,86953,2,0,B|312:48|296:112,1,105,0|8
256,176,87421,5,0
200,232,87656,1,8
312,232,87890,1,0
144,288,88125,1,8
360,288,88359,1,0
96,344,88593,1,8
408,344,88828,1,0
440,272,89062,5,0
416,232,89179,1,8
392,192,89296,1,0
360,160,89414,1,8
328,128,89531,1,0
256,64,89765,1,0
256,64,90000,5,8
56,192,90468,1,8
256,336,90937,1,8
456,192,91406,1,8
416,120,91640,1,0
336,88,91875,1,8
256,120,92109,1,0
176,88,92343,1,8
96,120,92578,1,0
48,192,92812,5,8
104,256,93046,2,0,B|192:320,1,105,0|8
256,272,93515,1,8
408,256,93750,2,0,B|320:320,1,105,0|8
256,272,94218,2,0,B|256:152,1,105,0|8
160,104,94687,2,0,B|264:48|384:112,2,210,0|8|0
96,160,95859,1,8
128,240,96093,1,0
184,304,96328,1,8
256,264,96562,1,0
328,304,96796,1,8
384,240,97031,1,0
400,160,97265,1,8
256,192,97500,12,8,98906
208,48,99140,5,0
304,48,99375,1,8
256,192,99843,1,8
152,288,100312,1,8
208,352,100546,1,0
296,352,100781,1,0
352,288,101015,1,8
256,192,101250,12,8,103125
72,216,103359,5,0
104,296,103593,1,8
184,328,103828,1,0
256,288,104062,1,8
328,328,104296,1,0
408,296,104531,1,8
440,216,104765,1,0
448,136,105000,6,0,B|464:88|448:16|352:16|320:64,1,210,0|8
256,104,105703,1,8
189,59,105937,2,0,B|160:16|64:16|48:88|64:136,2,210,0|8|0
256,104,107109,1,8
216,176,107343,1,0
256,192,107460,1,0
296,176,107578,1,8
376,200,107812,6,0,B|352:264|296:264,1,105,0|8
136,200,108281,2,0,B|160:264|216:264,1,105,0|8
152,328,108750,2,0,B|256:360|368:328,2,210,0|8|0
200,264,109921,1,8
256,200,110156,1,0
312,136,110390,1,8
360,64,110625,2,0,B|256:34|152:66,1,210,0|8
136,232,111562,6,0,B|160:300|235:290,1,105,0|8
376,232,112031,2,0,B|351:300|276:290,1,105,0|8
256,216,112500,1,8
256,136,112734,2,0,B|256:80,2,52.5
168,328,113437,6,0,B|168:256|216:232,1,105,0|8
344,328,113906,2,0,B|344:256|296:232,1,105,0|8
256,144,114375,1,8
208,56,114609,1,0
256,48,114726,1,0
304,56,114843,1,8
136,184,115312,6,0,B|160:232|232:232,1,105,0|8
376,184,115781,2,0,B|352:232|280:232,1,105,0|8
256,336,116250,1,8
256,128,116718,1,8
416,184,117187,5,0
256,224,117421,1,8
328,144,117656,1,0
416,280,117890,1,8
312,304,118125,1,0
256,192,118359,12,8,120000
