osu file format v9

[General]
AudioFilename: Love Forever (Serious Remix).mp3
AudioLeadIn: 0
PreviewTime: 90000
Countdown: 1
SampleSet: Normal
StackLeniency: 0.7
Mode: 1
LetterboxInBreaks: 1

[Editor]
Bookmarks: 60000,90000,105000,120000
DistanceSpacing: 1
BeatDivisor: 4
GridSize: 8

[Metadata]
Title:Love Forever (Serious Mix)
Artist:Kato Miliyah x Shota Shimizu
Creator:dkun
Version:Everlasting Drums!
Source:
Tags:mint_bunny nekoroll MMzz Charles445

[Difficulty]
HPDrainRate:8
CircleSize:5
OverallDifficulty:5
ApproachRate:5
SliderMultiplier:1.4
SliderTickRate:1

[Events]
//Background and Video events
0,0,"pw2wulg38l-beach-love-couple-silhouette.jpg"
//Break Periods
//Storyboard Layer 0 (Background)
//Storyboard Layer 1 (Fail)
//Storyboard Layer 2 (Pass)
//Storyboard Layer 3 (Foreground)
//Storyboard Sound Samples
//Background Colour Transformations
3,100,163,162,255

[TimingPoints]
15000,468.75,4,1,0,100,1,0
30000,-100,4,1,0,100,0,1
60000,-100,4,1,0,100,0,0
105000,-100,4,1,0,100,0,1
135000,-100,4,1,0,100,0,0

[Colours]
Combo1 : 128,0,255
Combo2 : 128,64,64
Combo3 : 128,64,0

[HitObjects]
248,192,15000,1,4
248,192,15468,1,8
248,192,15703,1,0
248,192,16171,1,0
248,192,16406,1,8
248,192,16640,1,0
264,248,16875,1,0
248,192,17343,1,8
248,192,17578,1,0
248,192,18046,1,0
248,192,18281,1,8
248,192,18515,1,0
224,184,18632,1,0
248,192,18750,1,0
248,192,19218,1,8
248,192,19453,1,0
248,192,19921,1,0
248,192,20156,1,8
248,192,20625,1,0
248,192,21093,1,8
248,192,21328,1,0
248,192,21796,1,8
248,192,22031,1,0
248,192,22265,1,0
248,192,22500,1,4
248,192,22968,1,8
248,192,23203,1,0
248,192,23671,1,0
248,192,23906,1,8
248,192,24140,1,0
248,192,24375,1,0
248,192,24843,1,8
248,192,25078,1,0
248,192,25546,1,0
248,192,25781,1,8
248,192,26015,1,0
248,192,26132,1,0
248,192,26250,1,0
248,192,26718,1,8
248,192,26953,1,0
248,192,27421,1,8
248,192,27656,1,0
248,192,27890,1,0
256,192,28125,12,0,29765
256,192,30000,5,4
256,192,30234,1,8
256,192,30468,1,0
256,192,30585,1,0
256,192,30703,1,8
256,192,30937,1,0
256,192,31054,1,0
256,192,31171,1,8
256,192,31406,1,0
256,192,31640,1,8
256,192,32109,1,8
256,192,32343,1,0
256,192,32578,1,8
256,192,32812,1,0
256,192,33046,1,8
256,192,33281,1,0
256,192,33398,1,0
256,192,33515,1,8
256,192,33632,1,8
256,192,33750,5,0
256,192,33984,1,8
256,192,34218,1,0
256,192,34335,1,0
256,192,34453,1,8
256,192,34687,1,0
256,192,34804,1,0
256,192,34921,1,8
256,192,35156,1,0
256,192,35390,1,8
256,192,35859,1,8
256,192,36093,1,0
256,192,36328,1,8
256,192,36562,1,0
256,192,36679,1,8
256,192,36914,1,8
256,192,37031,1,0
256,192,37148,1,0
256,192,37265,1,8
256,192,37500,5,0
256,192,37734,1,8
256,192,37968,1,0
256,192,38085,1,0
256,192,38203,1,8
256,192,38437,1,0
256,192,38671,1,8
232,184,38789,1,8
256,192,38906,1,0
256,192,39140,1,8
256,192,39375,1,0
256,192,39609,1,8
256,192,39726,1,8
256,192,39843,1,0
256,192,39960,1,0
256,192,40078,1,8
256,192,40312,1,0
256,192,40546,1,8
256,192,40664,1,0
256,192,40898,1,0
256,192,41015,1,8
256,192,41250,1,0
256,192,41484,1,8
256,192,41718,1,0
256,192,41835,1,0
256,192,41953,1,8
256,192,42187,1,0
256,192,42421,1,8
256,192,42656,1,0
312,176,42890,2,0,B|392:304|136:344,1,280
192,296,44062,1,4
216,248,44296,1,4
248,200,44531,1,12
216,248,44765,1,12
256,192,45000,5,4
256,192,45234,1,8
256,192,45468,1,0
256,192,45585,1,0
256,192,45703,1,8
256,192,45937,1,0
256,192,46054,1,0
256,192,46171,1,8
256,192,46406,1,0
256,192,46640,1,8
256,192,47109,1,8
256,192,47343,1,0
256,192,47578,1,8
256,192,47812,1,0
256,192,48046,1,8
256,192,48281,1,0
256,192,48398,1,0
256,192,48515,1,8
256,192,48632,1,8
256,192,48750,5,0
256,192,48984,1,8
256,192,49218,1,0
256,192,49335,1,0
256,192,49453,1,8
256,192,49687,1,0
256,192,49804,1,0
256,192,49921,1,8
256,192,50156,1,0
256,192,50390,1,8
256,192,50859,1,8
256,192,51093,1,0
256,192,51328,1,8
256,192,51562,1,0
256,192,51679,1,8
256,192,51914,1,8
256,192,52031,1,0
256,192,52148,1,0
256,192,52265,1,8
256,192,52500,5,0
256,192,52734,1,8
256,192,52968,1,0
256,192,53085,1,0
256,192,53203,1,8
256,192,53437,1,0
256,192,53671,1,8
232,184,53789,1,8
256,192,53906,1,0
256,192,54140,1,8
256,192,54375,1,0
256,192,54609,1,8
256,192,54726,1,8
256,192,54843,1,0
256,192,54960,1,0
256,192,55078,1,8
256,192,55312,1,0
256,192,55546,1,8
256,192,55664,1,0
256,192,55898,1,0
256,192,56015,1,8
256,192,56250,1,0
256,192,56484,1,8
256,192,56718,1,0
256,192,56835,1,0
256,192,56953,1,8
256,192,57187,1,0
256,192,57421,1,8
256,192,57656,1,0
200,184,57890,1,8
152,160,58125,2,0,B|520:328|520:328|480:224,1,490
440,224,60000,1,4
384,216,60234,1,8
328,208,60468,1,0
352,208,60585,1,0
272,192,60703,1,8
216,184,60937,1,0
296,200,61171,1,8
248,176,61406,1,0
352,208,61523,1,0
248,176,61640,1,8
256,64,62109,1,8
248,120,62343,1,0
352,208,62460,1,0
256,64,62578,1,8
248,120,62812,1,0
256,64,63046,1,8
352,208,63164,1,8
248,120,63281,1,0
256,64,63515,1,8
256,64,63984,1,8
248,120,64218,1,0
256,64,64453,1,8
248,88,64570,1,8
248,120,64687,1,0
256,64,64921,1,8
248,88,65039,1,8
248,120,65156,1,0
256,64,65390,1,8
256,64,65859,1,8
248,120,66093,1,0
256,64,66328,1,8
248,120,66562,1,0
248,120,66679,1,0
256,64,66796,1,8
248,120,66914,1,8
248,120,67031,1,0
256,64,67265,1,8
440,224,67500,1,0
384,216,67734,1,8
328,208,67968,1,0
352,208,68085,1,0
272,192,68203,1,8
216,184,68437,1,0
296,200,68671,1,8
248,176,68906,1,0
352,208,69023,1,0
248,176,69140,1,8
256,64,69609,1,8
248,120,69843,1,0
352,208,69960,1,0
256,64,70078,1,8
248,120,70312,1,0
256,64,70546,1,8
352,208,70664,1,8
248,120,70781,1,0
256,64,71015,1,8
256,64,71484,1,8
248,120,71718,1,0
256,64,71953,1,8
248,88,72070,1,8
248,120,72187,1,0
256,64,72421,1,8
248,88,72539,1,8
248,120,72656,1,0
256,64,72890,1,8
240,120,73125,1,4
256,192,75000,1,4
256,192,75234,1,0
256,192,75468,1,8
256,192,75703,1,0
256,192,75820,1,0
256,192,75937,1,0
256,192,76171,1,0
256,192,76406,1,8
256,192,76640,1,0
256,192,76757,1,0
256,192,76875,1,0
256,192,77109,1,0
256,192,77343,1,8
256,192,77578,1,0
256,192,77695,1,8
256,192,77812,1,0
256,192,78046,1,0
256,192,78281,1,8
256,192,78515,1,8
256,192,78750,1,0
256,192,78984,1,0
256,192,79218,1,8
256,192,79453,1,0
264,216,79570,1,0
256,192,79687,1,0
256,192,79921,1,0
256,192,80156,1,8
256,192,80390,5,0
256,192,80507,1,8
256,192,80625,1,0
256,192,80859,1,0
256,192,81093,1,8
256,192,81328,1,8
256,192,81562,5,0
256,192,81679,1,8
256,192,81914,1,8
256,192,82031,1,0
256,192,82148,1,0
256,192,82265,1,8
256,192,82382,1,8
248,168,82500,1,0
256,192,82734,1,0
256,192,82968,1,8
256,192,83203,1,0
256,192,83320,1,0
256,192,83437,1,0
256,192,83671,1,0
256,192,83906,1,8
256,192,84140,1,0
256,192,84257,1,0
256,192,84375,1,0
256,192,84609,1,0
256,192,84843,1,8
256,192,85078,1,0
256,192,85195,1,8
256,192,85312,1,0
256,192,85546,1,0
256,192,85781,1,8
256,192,86015,1,8
256,192,86250,1,0
256,192,86484,1,0
256,192,86718,1,8
256,192,86953,1,0
264,216,87070,1,0
256,192,87187,1,0
256,192,87421,1,0
256,192,87656,1,8
256,192,87890,5,0
256,192,88007,1,8
256,192,88125,1,0
256,192,88359,1,0
264,216,88593,1,0
256,192,88828,1,0
256,192,89062,1,0
256,192,89296,1,0
256,192,89531,1,0
256,192,89648,1,0
256,192,89765,1,0
256,192,89882,1,0
264,216,90000,1,0
256,192,91875,1,0
256,192,93515,1,0
256,192,93750,1,0
264,192,95625,1,0
264,192,97265,1,0
264,192,97500,1,0
256,184,99375,1,0
256,192,101015,1,0
256,192,101250,1,0
256,184,102890,1,0
256,184,103125,1,4
256,184,103359,1,0
256,184,103593,1,0
256,184,103828,1,0
256,184,104062,1,4
256,184,104296,1,0
256,184,104531,1,0
256,184,104648,1,0
256,184,104765,1,0
256,184,104882,1,0
256,192,105000,5,0
256,192,105234,1,8
256,192,105468,1,0
256,192,105585,1,0
256,192,105703,1,8
256,192,105937,1,0
256,192,106054,1,0
256,192,106171,1,8
256,192,106406,1,0
256,192,106640,1,8
256,192,107109,1,8
256,192,107343,1,0
256,192,107578,1,8
256,192,107812,1,0
256,192,108046,1,8
256,192,108281,1,0
256,192,108398,1,0
256,192,108515,1,8
256,192,108632,1,8
256,192,108750,5,0
256,192,108984,1,8
256,192,109218,1,0
256,192,109335,1,0
256,192,109453,1,8
256,192,109687,1,0
256,192,109804,1,0
256,192,109921,1,8
256,192,110156,1,0
256,192,110390,1,8
256,192,110859,1,8
256,192,111093,1,0
256,192,111328,1,8
256,192,111562,1,0
256,192,111679,1,8
256,192,111914,1,8
256,192,112031,1,0
256,192,112148,1,0
256,192,112265,1,8
256,192,112500,5,0
256,192,112734,1,8
256,192,112968,1,0
256,192,113085,1,0
256,192,113203,1,8
256,192,113437,1,0
256,192,113671,1,8
232,184,113789,1,8
256,192,113906,1,0
256,192,114140,1,8
256,192,114375,1,0
256,192,114609,1,8
256,192,114726,1,8
256,192,114843,1,0
256,192,114960,1,0
256,192,115078,1,8
256,192,115312,1,0
256,192,115546,1,8
256,192,115664,1,0
256,192,115898,1,0
256,192,116015,1,8
256,192,116250,1,0
256,192,116484,1,8
256,192,116718,1,0
256,192,116835,1,0
256,192,116953,1,8
256,192,117187,1,0
256,192,117421,1,8
256,192,117656,1,0
200,184,117890,1,8
152,160,118125,2,0,B|520:328|520:328|480:224,1,490
440,232,120000,1,4
384,216,120234,1,8
336,192,120468,1,0
312,184,120585,1,0
288,176,120703,1,8
288,176,120937,1,0
288,176,121171,1,8
288,176,121289,1,8
288,176,121406,1,0
288,176,121523,1,0
288,176,121640,1,8
248,144,121875,1,0
296,176,122109,1,8
248,152,122343,1,0
248,152,122460,1,0
248,152,122578,1,8
248,152,122812,1,0
248,152,123046,1,8
248,144,123164,1,8
248,144,123281,1,0
248,152,123515,1,8
248,152,123750,1,0
248,152,123984,1,8
248,152,124218,1,0
248,152,124335,1,0
248,152,124453,1,8
248,144,124687,1,0
248,152,124921,1,8
248,152,125156,1,0
248,152,125273,1,0
248,152,125390,1,8
248,152,125625,1,0
248,152,125859,1,8
248,152,125976,1,0
248,144,126210,1,0
248,152,126328,1,8
248,152,126562,1,0
248,152,126796,1,8
248,152,126914,1,8
248,152,127031,1,0
248,152,127148,1,0
248,152,127265,1,8
248,152,127500,1,0
248,144,127734,1,8
248,152,127851,1,8
248,152,127968,1,0
248,152,128203,1,8
248,152,128320,1,8
248,152,128437,1,0
248,152,128671,1,8
248,152,128906,1,0
248,144,129140,1,8
248,152,129375,1,0
248,152,129492,1,0
248,152,129609,1,8
248,152,129843,1,0
248,152,129960,1,0
248,152,130078,1,8
248,152,130312,1,0
248,144,130546,1,8
248,144,130664,1,0
248,152,130898,1,0
248,152,131015,1,8
248,152,131132,1,8
248,152,131250,1,0
248,152,131484,1,8
248,152,131718,1,0
248,152,131835,1,0
248,144,131953,1,8
248,144,132070,1,8
248,144,132187,1,0
248,152,132421,1,8
248,152,132656,1,0
248,152,132890,1,8
248,152,133007,1,8
248,152,133125,1,0
248,152,133359,1,8
248,144,133593,1,0
248,144,133710,1,0
248,152,133828,1,8
248,152,134062,1,0
248,152,134296,1,8
248,152,134414,1,8
248,152,134531,1,0
248,152,134765,1,0
248,144,135000,1,4
