osu file format v12

[General]
AudioFilename: happy bites.mp3
AudioLeadIn: 2000
PreviewTime: 54087
Countdown: 0
SampleSet: Soft
StackLeniency: 0.7
Mode: 0
LetterboxInBreaks: 1
WidescreenStoryboard: 1

[Editor]
Bookmarks: 25678,40224,54769,82042
DistanceSpacing: 1
BeatDivisor: 4
GridSize: 4
TimelineZoom: 1

[Metadata]
Title:happy bite (TV Size)
TitleUnicode:happy bite (TV Size)
Artist:Kato Emiri
ArtistUnicode:加藤 英美里
Creator:NoHitter
Version:Hard
Source:Monogatari Series: Second Season
Tags:Hachikuji Mayoi Jiangshi meg rock undermine Kabuki Kabukimonogatari
BeatmapID:301960
BeatmapSetID:113219

[Difficulty]
HPDrainRate:6
CircleSize:4
OverallDifficulty:6
ApproachRate:7
SliderMultiplier:1.72
SliderTickRate:2

[Events]
//Background and Video events
0,0,"mayoibg.png",0,0
Video,0,"candy.avi"
//Break Periods
//Storyboard Layer 0 (Background)
//Storyboard Layer 1 (Fail)
//Storyboard Layer 2 (Pass)
//Storyboard Layer 3 (Foreground)
//Storyboard Sound Samples
//Background Colour Transformations
3,100,163,162,255

[TimingPoints]
250,454.545454545455,4,2,0,60,1,0
931,-100,4,2,0,30,0,0
1044,-100,4,2,0,60,0,0
2750,-100,4,2,0,30,0,0
2863,-100,4,2,0,60,0,0
4568,-100,4,2,0,30,0,0
4681,-100,4,2,0,60,0,0
10477,-100,4,2,0,45,0,0
10931,-100,4,2,0,30,0,0
11044,-100,4,2,0,45,0,0
54568,-100,4,2,0,45,0,1
68431,-100,4,2,0,60,0,0
69113,-100,4,2,0,60,0,1
74113,-100,4,2,0,30,0,1
74226,-100,4,2,0,60,0,1
82068,-100,4,2,0,60,0,0
82750,-100,4,1,0,30,0,0
82863,-100,4,2,0,60,0,0
84568,-100,4,1,0,30,0,0
84681,-100,4,2,0,60,0,0

[Colours]
Combo1 : 32,156,166
Combo2 : 213,99,30
Combo3 : 72,181,26
Combo4 : 130,9,27

[HitObjects]
176,64,250,6,0,P|256:36|336:64,1,172,4|2,1:2|1:3,0:0:0:0:
404,100,931,1,0,1:0:0:0:
452,160,1159,2,0,P|472:200|460:272,1,86,0|4,1:0|0:2,0:0:0:0:
416,296,1613,2,0,P|396:256|408:184,1,86,2|4,1:3|0:2,0:0:0:0:
319,175,2068,6,0,P|239:143|159:175,1,172,0|2,1:0|1:3,0:0:0:0:
99,219,2750,1,0,1:3:0:0:
47,278,2977,2,0,P|42:320|60:359,1,86,0|4,1:0|0:0,0:0:0:0:
119,311,3431,2,0,L|204:300,1,86,2|4,1:3|0:0,0:0:0:0:
280,304,3886,6,0,P|344:352|432:340,1,172,0|2,1:0|1:3,0:0:0:0:
492,292,4568,1,0,1:0:0:0:
468,220,4795,2,0,P|462:177|467:134,1,86,0|4,1:0|0:0,0:0:0:0:
427,63,5250,2,0,P|470:55|512:66,1,86,2|4,1:3|0:0,0:0:0:0:
376,120,5704,5,0,1:0:0:0:
316,72,5931,1,0,0:0:0:0:
240,84,6159,2,0,L|140:80,1,86,4|0,1:2|3:0,0:0:0:0:
80,64,6613,1,2,1:3:0:0:
36,212,7068,1,0,1:0:0:0:
148,320,7522,6,0,L|120:356,2,43,0|0|0,1:0|0:0|0:0,0:0:0:0:
228,316,7977,2,0,L|256:368,2,43,0|0|0,1:0|0:0|0:0,0:0:0:0:
268,252,8431,2,0,L|324:272,2,43,0|2|2,1:0|0:0|0:0,0:0:0:0:
252,176,8886,2,0,L|308:168,2,43,0|2|2,1:0|0:0|0:0,0:0:0:0:
156,56,9568,5,4,1:2:0:0:
256,24,9795,1,4,1:2:0:0:
356,40,10022,1,4,1:2:0:0:
432,112,10250,1,4,1:2:0:0:
468,264,10704,5,2,3:0:0:0:
440,336,10931,1,0,1:0:0:0:
388,280,11159,2,0,P|308:256|236:300,1,172,4|2,1:2|1:3,0:0:0:0:
188,360,11840,1,0,3:0:0:0:
112,340,12068,2,0,P|68:348|16:336,1,86,0|0,1:0|0:0,0:0:0:0:
28,264,12522,2,0,P|72:256|124:268,1,86,2|0,1:3|0:0,0:0:0:0:
152,196,12977,6,0,P|132:120|200:72,1,172,2|2,1:2|1:3,0:0:0:0:
276,56,13659,2,0,L|384:48,1,86,0|0,3:0|1:0,0:0:0:0:
388,124,14113,2,0,L|280:132,1,86,0|2,0:0|1:3,0:0:0:0:
224,136,14568,1,0,0:0:0:0:
176,196,14795,6,0,P|140:248|192:336,1,172,4|2,1:2|1:3,0:0:0:0:
264,320,15477,1,0,3:0:0:0:
328,360,15704,2,0,P|368:368|412:360,1,86,0|0,1:3|0:0,0:0:0:0:
456,292,16159,2,0,P|416:284|372:292,1,86,0|0,1:3|0:0,0:0:0:0:
340,224,16613,5,2,1:2:0:0:
372,152,16840,1,0,0:0:0:0:
344,80,17068,2,0,P|312:51|270:44,1,86,0|0,1:0|3:0,0:0:0:0:
196,68,17522,1,0,1:0:0:0:
164,140,17750,1,0,3:0:0:0:
184,216,17977,2,0,P|215:244|257:251,1,86,0|0,1:0|3:0,0:0:0:0:
248,176,18431,6,0,L|168:332,1,172,4|2,1:2|1:3,0:0:0:0:
102,364,19113,1,0,3:0:0:0:
32,336,19340,2,0,P|24:296|40:248,1,86,0|0,1:0|0:0,0:0:0:0:
63,180,19795,2,0,P|76:139|65:98,1,86,2|0,1:3|0:0,0:0:0:0:
24,28,20250,6,0,P|108:28|148:100,1,172,2|2,1:2|1:3,0:0:0:0:
148,176,20931,1,0,3:0:0:0:
200,232,21159,1,0,1:0:0:0:
272,204,21386,2,0,P|316:196|360:208,1,86,0|2,0:0|1:3,0:0:0:0:
428,232,21840,1,2,2:0:0:0:
332,356,22295,5,0,0:0:0:0:
256,376,22522,1,2,1:3:0:0:
180,356,22750,1,0,3:0:0:0:
140,292,22977,2,0,P|60:272|12:340,1,172,2|0,1:3|1:2,0:0:0:0:
88,348,23659,1,2,0:2:0:0:
228,284,24113,5,4,1:0:0:0:
324,240,24340,1,4,1:0:0:0:
256,16,24795,1,0,1:0:0:0:
184,40,25022,6,0,L|88:32,1,86,0|0,3:3|1:0,0:0:0:0:
28,64,25477,1,0,3:3:0:0:
88,112,25704,2,0,P|112:188|68:276,1,172,4|2,1:0|1:3,0:0:0:0:
36,336,26386,1,0,3:0:0:0:
112,336,26613,2,0,L|216:344,1,86,0|0,1:0|0:0,0:0:0:0:
276,344,27068,2,0,L|376:340,1,86,2|0,1:3|0:0,0:0:0:0:
436,324,27522,6,0,P|500:260|476:184,1,172,2|2,1:2|1:3,0:0:0:0:
428,132,28204,2,0,P|404:80|408:36,1,86,0|2,3:0|1:2,0:0:0:0:
480,74,28659,1,2,0:0:0:0:
428,132,28886,1,2,1:3:0:0:
356,156,29113,1,2,0:0:0:0:
279,140,29340,6,0,P|211:117|129:165,1,172,4|2,1:2|1:3,0:0:0:0:
100,236,30022,1,0,0:0:0:0:
136,304,30250,2,0,L|244:328,1,86,0|0,1:0|0:0,0:0:0:0:
300,328,30704,2,0,L|404:320,1,86,2|0,1:3|0:0,0:0:0:0:
460,304,31159,22,0,P|488:268|492:224,1,86,2|0,1:2|0:0,0:0:0:0:
452,164,31613,2,0,P|424:200|420:244,1,86,2|0,1:3|3:0,0:0:0:0:
460,304,32068,1,0,1:0:0:0:
400,352,32295,2,0,L|304:360,2,86,2|2|2,0:0|1:3|0:0,0:0:0:0:
460,304,32977,6,0,P|496:200|460:140,1,172,4|2,1:0|1:3,0:0:0:0:
416,96,33659,1,0,3:0:0:0:
380,164,33886,2,0,L|268:172,1,86,0|0,1:0|0:0,0:0:0:0:
224,136,34340,2,0,L|128:136,1,86,2|0,1:3|0:0,0:0:0:0:
95,70,34795,6,0,P|54:142|105:208,1,172,2|2,1:2|1:3,0:0:0:0:
180,216,35477,2,0,P|227:282|187:353,1,172,2|0,0:0|0:0,0:0:0:0:
108,360,36159,1,2,1:3:0:0:
144,288,36386,6,0,L|336:276,1,172,2|0,0:0|0:0,0:0:0:0:
380,236,37068,1,2,1:3:0:0:
412,164,37295,1,0,3:0:0:0:
380,92,37522,1,0,1:0:0:0:
308,64,37750,1,2,0:0:0:0:
244,104,37977,2,0,P|200:112|148:112,1,86,2|2,1:3|0:0,0:0:0:0:
28,32,38659,5,4,1:2:0:0:
4,132,38886,1,4,1:2:0:0:
92,184,39113,1,4,1:2:0:0:
68,284,39340,2,0,P|132:328|224:320,1,172,4|0,1:2|1:0,0:0:0:0:
256,116,40250,6,0,P|336:68|416:80,1,172,4|0,1:0|1:0,0:0:0:0:
484,104,40931,1,0,3:0:0:0:
480,180,41159,2,0,P|476:244|488:292,2,86,0|0|2,1:0|3:0|1:3,0:0:0:0:
484,104,41840,5,2,0:0:0:0:
424,56,42068,2,0,P|380:64|328:56,1,86,4|0,1:2|0:0,0:0:0:0:
268,32,42522,1,2,1:3:0:0:
196,60,42750,2,0,P|112:68|60:132,1,172,2|2,0:0|0:0,0:0:0:0:
56,208,43431,2,0,P|64:272|92:308,1,86,2|0,1:3|0:0,0:0:0:0:
140,332,43886,6,0,P|220:308|304:336,1,172,4|2,1:2|1:3,0:0:0:0:
364,380,44568,2,0,P|376:300|300:252,1,172,2|0,0:0|0:0,0:0:0:0:
236,228,45250,1,2,1:3:0:0:
188,168,45477,22,0,P|196:124|188:68,1,86,2|4,0:0|1:2,0:0:0:0:
256,40,45931,1,0,0:0:0:0:
319,83,46159,1,0,1:3:0:0:
320,160,46386,2,0,P|345:193|380:219,1,86,0|0,0:3|1:0,0:0:0:0:
456,192,46840,1,2,0:0:0:0:
512,244,47068,2,0,P|512:316|408:348,1,172,2|4,1:3|1:0,0:0:0:0:
280,324,47977,38,0,L|168:324,1,86,2|0,1:3|0:0,0:0:0:0:
120,344,48431,2,0,L|8:344,1,86,0|0,1:0|0:0,0:0:0:0:
12,268,48886,1,0,0:0:0:0:
52,200,49113,2,0,P|133:213|190:154,1,172,2|0,0:0|0:0,0:0:0:0:
220,84,49795,1,4,1:2:0:0:
264,148,50022,1,0,3:0:0:0:
296,76,50250,2,0,P|388:40|456:92,1,172,0|4,1:0|1:2,0:0:0:0:
256,192,51159,12,0,52750,1:0:0:0:
246,279,53204,5,4,1:2:0:0:
170,210,53431,1,4,1:2:0:0:
212,115,53659,1,4,1:2:0:0:
314,126,53886,1,4,1:2:0:0:
336,228,54113,6,0,P|341:269|349:318,1,86,0|0,0:0|1:0,0:0:0:0:
284,356,54568,2,0,P|200:352|108:364,1,172,4|0,1:0|0:0,0:0:0:0:
44,324,55250,1,4,1:2:0:0:
96,268,55477,1,0,3:0:0:0:
94,250,55590,1,0,0:0:0:0:
92,232,55704,1,0,1:0:0:0:
27,189,55931,1,0,0:0:0:0:
83,137,56159,1,2,1:3:0:0:
15,101,56386,1,2,2:0:0:0:
288,44,56840,6,0,P|336:40|380:48,1,86,0|2,0:0|1:3,0:0:0:0:
440,88,57295,2,0,P|456:160|436:256,1,172,2|2,0:0|0:0,0:0:0:0:
396,320,57977,1,2,1:3:0:0:
324,291,58204,6,0,P|261:268|158:290,1,172,2|0,0:0|0:0,0:0:0:0:
98,335,58886,1,2,1:3:0:0:
27,304,59113,2,0,P|52:223|31:134,1,172,2|2,0:0|0:0,0:0:0:0:
15,64,59795,1,2,1:3:0:0:
72,12,60022,5,4,1:2:0:0:
132,156,60477,1,4,1:2:0:0:
16,64,60931,1,4,1:2:0:0:
196,113,61386,2,0,L|288:138,1,86,4|0,1:2|1:0,0:0:0:0:
352,159,61840,6,0,P|434:154|466:78,1,172,4|0,1:0|3:0,0:0:0:0:
412,24,62522,1,4,1:2:0:0:
331,23,62749,1,2,0:0:0:0:
313,25,62863,1,0,0:0:0:0:
297,31,62977,1,0,1:0:0:0:
235,80,63204,2,0,P|191:94|123:88,1,86,0|2,0:0|1:3,0:0:0:0:
74,85,63659,6,0,P|14:135|38:227,1,172,4|0,1:2|0:0,0:0:0:0:
43,299,64340,2,0,P|103:249|79:157,1,172,4|0,1:2|1:0,0:0:0:0:
149,117,65022,1,2,1:2:0:0:
229,122,65250,1,2,1:3:0:0:
288,180,65477,6,0,P|277:241|292:277,2,86,0|4|0,3:0|1:2|0:0,0:0:0:0:
348,124,66159,1,2,1:3:0:0:
428,124,66386,2,0,P|468:140|496:184,1,86,2|0,0:0|1:0,0:0:0:0:
500,252,66840,1,2,0:0:0:0:
476,324,67068,1,2,1:3:0:0:
408,292,67295,6,0,P|303:293|229:298,1,172,4|0,1:2|0:0,0:0:0:0:
160,300,67977,1,2,1:3:0:0:
108,356,68204,1,0,3:0:0:0:
32,336,68431,1,0,3:0:0:0:
28,262,68659,5,4,1:2:0:0:
93,182,68886,1,4,1:2:0:0:
13,116,69113,2,0,P|81:60|166:73,1,172,4|0,1:0|3:0,0:0:0:0:
230,102,69795,5,4,1:2:0:0:
300,68,70022,1,0,0:0:0:0:
304,52,70136,1,0,0:0:0:0:
308,36,70249,1,0,1:0:0:0:
363,117,70477,2,0,P|408:131|459:123,1,86,2|2,0:0|1:3,0:0:0:0:
413,56,70931,6,0,L|391:234,1,172,4|0,1:2|0:0,0:0:0:0:
371,301,71613,2,0,P|347:339|310:361,1,86,2|0,1:3|3:0,0:0:0:0:
257,304,72068,1,0,1:0:0:0:
199,360,72295,2,0,P|163:337|141:301,1,86,4|0,2:0|1:0,0:0:0:0:
176,232,72750,6,0,P|255:206|338:232,1,172,2|0,0:0|0:0,0:0:0:0:
393,284,73431,2,0,P|439:339|463:350,1,86,2|0,1:3|3:0,0:0:0:0:
472,270,73886,1,0,1:0:0:0:
419,213,74113,1,8,0:0:0:0:
493,193,74340,1,0,1:0:0:0:
436,139,74568,5,4,1:2:0:0:
356,8,75022,1,4,1:2:0:0:
488,88,75477,1,4,1:2:0:0:
346,78,75931,2,0,L|254:66,1,86,4|0,1:2|1:0,0:0:0:0:
183,57,76386,6,0,P|101:58|32:127,1,172,4|0,1:0|0:0,0:0:0:0:
19,191,77068,1,4,1:2:0:0:
56,264,77295,1,2,0:0:0:0:
60,280,77408,1,0,0:0:0:0:
60,296,77522,1,0,1:0:0:0:
131,226,77750,2,0,P|178:214|245:223,1,86,2|2,0:0|1:3,0:0:0:0:
291,226,78204,6,0,P|379:224|442:172,1,172,4|0,1:2|0:0,0:0:0:0:
414,101,78886,2,0,P|325:102|262:154,1,172,2|0,1:2|1:0,0:0:0:0:
215,214,79568,1,4,0:0:0:0:
236,288,79795,1,0,1:0:0:0:
311,306,80022,6,0,L|426:333,2,86,0|4|0,3:0|1:2|0:0,0:0:0:0:
235,288,80704,2,0,L|129:317,2,86,2|0|0,1:3|3:0|1:0,0:0:0:0:
268,220,81386,1,0,1:0:0:0:
292,148,81613,2,0,L|397:116,1,86,0|0,1:3|0:0,0:0:0:0:
489,92,82068,6,0,P|519:163|486:247,1,172,4|2,1:2|1:3,0:0:0:0:
442,311,82750,1,0,0:0:0:0:
368,334,82977,1,0,1:0:0:0:
292,317,83204,2,0,L|195:321,1,86,4|0,0:0|1:0,0:0:0:0:
129,333,83659,2,0,L|5:328,1,86,4|0,0:0|1:0,0:0:0:0:
36,220,84113,5,0,0:0:0:0:
76,152,84340,1,2,1:3:0:0:
152,144,84568,1,0,0:0:0:0:
196,80,84795,1,0,0:0:0:0:
268,112,85022,2,0,P|315:156|320:190,1,86,4|2,0:0|1:3,0:0:0:0:
293,257,85477,2,0,P|246:213|241:179,1,86,4|2,0:0|1:3,0:0:0:0:
268,112,85931,5,0,3:0:0:0:
333,55,86159,2,0,L|391:46,1,43,0|2,1:0|3:0,0:0:0:0:
440,105,86500,2,0,L|500:113,5,43,0|8|0|8|0|4,3:0|1:3|3:0|3:0|3:0|3:0,0:0:0:0:
511,191,87295,1,4,0:0:0:0:
