osu file format v5

[General]
AudioFilename: REBORN[1].mp3
AudioLeadIn: 1985
PreviewTime: -1
Countdown: 0
SampleSet: Soft
StackLeniency: 0.7
Mode: 0
LetterboxInBreaks: 1

[Metadata]
Title:Awakening
Artist:Katekyo Hitman Reborn!
Creator:tom800510
Version:Easy
Source:
Tags:

[Difficulty]
HPDrainRate:2
CircleSize:3
OverallDifficulty:3
SliderMultiplier:1.6
SliderTickRate:1

[Events]
//Background and Video events
0,0,"[Dymy][REBORN][69][GB][(005046)01-27-06].JPG"
//Break Periods
2,43042,46108
//Storyboard Layer 0 (Background)
//Storyboard Layer 1 (Failing)
//Storyboard Layer 2 (Passing)
//Storyboard Layer 3 (Foreground)
//Storyboard Sound Samples
//Background Colour Transformations
3,100,0,0,0

[TimingPoints]
490,588.235294117647,4,2,0,100,1

[Colours]
Combo1 : 255,128,0
Combo2 : 0,0,0
Combo3 : 255,128,0
Combo4 : 0,0,0

[HitObjects]
146,115,5195,1,0
165,192,5784,1,0
221,135,6372,1,8
350,228,7548,5,0
276,260,8137,1,0
287,180,8725,1,8
179,61,9901,6,0,B|107:214,1,160,0|2
173,255,11078,2,0,B|356:308,1,160,0|2
363,228,12254,2,0,B|244:86,1,160,0|2
260,105,13431,1,4
170,237,14607,5,0
215,302,15195,1,0
295,304,15784,1,8
345,241,16372,1,0
395,303,16960,1,0
447,242,17548,1,0
395,180,18137,1,8
396,100,18725,1,0
316,99,19313,5,0
266,161,19901,1,0
186,161,20490,1,8
132,220,21078,1,0
107,144,21666,2,0,C|142:49|246:82|248:224|376:298,1,480,2|0
419,316,24019,5,4
419,236,24607,1,0
419,156,25195,1,0
258,158,26372,5,8
178,158,26960,1,0
185,237,27548,1,0
264,230,28137,1,0
264,150,28725,2,0,L|208:145|208:221|326:221|324:96|182:92,1,480,8|0
194,169,31078,6,2,C|346:245,1,160
335,160,32254,2,2,C|173:262,1,160,2|6
136,295,33431,5,0
208,328,34019,1,0
277,288,34607,1,8
348,324,35195,1,0
419,287,35784,2,0,L|419:119,1,160,8|0
347,162,36960,2,0,L|348:257,4,80,0|0|0|0|4
280,116,38725,5,0
203,140,39313,1,0
125,120,39901,1,8
141,198,40490,1,0
141,198,41078,1,0
143,277,41666,1,8
143,277,42254,1,0
143,356,42842,1,6
370,322,47548,6,0,L|481:322,2,80,0|0|8
370,241,48725,2,0,L|468:241,2,80,0|0|8
404,168,49901,2,0,L|314:168|326:91|170:91|182:169|72:169,1,480,0|8
100,89,52254,6,0,L|195:89,2,80,0|0|8
101,169,53431,2,0,L|208:169,2,80,0|0|8
180,169,54607,2,0,L|262:169|364:129,2,160,0|0|4
106,283,56960,5,0
185,283,57548,1,0
187,202,58137,1,8
266,202,58725,1,0
267,122,59313,1,0
346,123,59901,1,0
346,43,60490,1,8
426,44,61078,1,0
426,123,61666,5,0
346,125,62254,1,0
266,128,62842,1,8
185,129,63431,1,0
105,126,64019,2,2,L|89:213|190:212|174:289|297:287|286:357|498:356,1,640,2|6
455,276,66960,5,0
410,209,67548,1,0
453,141,68137,1,0
411,72,68725,2,2,L|311:97,1,80
293,93,69313,2,2,L|207:95,1,80
173,102,69901,2,2,L|103:171,1,80
92,190,70490,2,2,L|68:277,1,80
77,306,71078,2,0,L|164:326|264:302,3,160,6|0|0|0
308,334,73431,6,2,L|400:311,1,80
416,289,74019,2,2,L|409:193,1,80
408,169,74607,2,2,L|427:80,2,80,2|2|6
338,209,75784,5,0
262,183,76372,1,0
189,217,76960,1,0
263,247,77548,1,0
338,219,78137,6,2,L|334:107,1,80,2|0
295,135,78725,2,2,L|192:166,1,80,2|0
182,176,79313,2,2,L|196:279,1,80,2|0
231,264,79901,2,2,L|339:230,2,80,2|2|6
256,192,80784,12,4,82842
260,139,83431,5,0
313,199,84019,1,0
254,252,84607,1,2
201,192,85195,1,6
455,194,86372,5,0
375,196,86960,1,0
295,196,87548,1,8
214,196,88137,1,0
134,198,88725,1,0
54,198,89313,1,8
50,118,89901,2,0,L|142:119|140:274|222:273,1,320,0|8
208,193,91666,2,0,L|294:193|294:274,1,160,0|4
