osu file format v9

[General]
AudioFilename: Ahaquestionmark.mp3
AudioLeadIn: 0
PreviewTime: 34371
Countdown: 0
SampleSet: Soft
StackLeniency: 0.7
Mode: 0
LetterboxInBreaks: 1

[Editor]
Bookmarks: -58,17697,19767,32828,39072,67767,69854,85246,85767,140419
DistanceSpacing: 0.8
BeatDivisor: 4
GridSize: 4

[Metadata]
Title:Shit Song
Artist:Kate Nash
Creator:NotShinta
Version:Normal
Source:
Tags:randomjibberish mashley

[Difficulty]
HPDrainRate:5
CircleSize:4
OverallDifficulty:5
ApproachRate:5
SliderMultiplier:2.24
SliderTickRate:2

[Events]
//Background and Video events
0,0,"twasthelaststitchonthefinalseamheplacedontomemyleghairsquiveredandscreamediknowineededthemmorethanevahbutthenhelookedatmylegsandsaidnever.jpg"
//Break Periods
2,51072,58219
2,101359,108306
//Storyboard Layer 0 (Background)
//Storyboard Layer 1 (Fail)
//Storyboard Layer 2 (Pass)
//Storyboard Layer 3 (Foreground)
//Storyboard Sound Samples
//Background Colour Transformations
3,100,163,162,255

[TimingPoints]
9333,521.739130434783,4,1,0,25,1,0
34376,-100,4,1,0,40,0,1
51072,-100,4,1,0,35,0,0
67376,-100,4,1,0,40,0,0
68028,-100,4,2,0,55,0,0
84463,-133.333333333333,4,2,0,35,0,0
101159,-133.333333333333,4,2,0,75,0,0
109506,-100,4,1,0,40,0,1
126072,-100,4,1,0,40,0,0
126202,-100,4,1,0,40,0,1
127115,-100,4,1,0,40,0,1
134289,-100,4,1,0,50,0,1
135463,-100,4,1,0,40,0,1
142898,-100,4,1,0,40,0,0
159398,-100,4,1,0,40,0,0

[HitObjects]
24,72,17680,2,0,B|60:24|120:4|180:24|216:72,1,224
160,140,18463,1,8
412,176,19246,1,0
352,244,19506,1,0
296,312,19767,2,0,B|332:360|392:380|452:360|488:312,1,224
413,134,20811,6,0,B|256:192,2,168,4|8|4
488,72,21854,2,0,B|452:24|392:4|332:24|296:72,1,224
412,208,22898,1,0
256,292,23419,1,0
188,232,23679,1,2
216,72,24463,2,0,B|180:24|120:4|60:24|24:72,1,224,0|2
488,72,26028,6,0,B|452:24|392:4|332:24|296:72,1,224,0|8
352,140,26811,1,0
412,208,27072,1,8
160,244,27854,1,8
216,312,28115,2,0,B|180:360|120:380|60:360|24:312,1,224
98,134,29159,6,0,B|256:192,2,168,4|8|4
24,72,30202,2,0,B|60:24|120:4|180:24|216:72,1,224
100,208,31246,1,4
256,292,31767,1,0
324,232,32027,1,0
304,108,32550,2,0,B|340:60|400:40|460:60|496:108,1,224
152,356,34376,6,2,B|360:272,1,224,0|8
356,44,35419,6,0,B|328:8|256:-20|184:8|156:44,1,224
208,104,36202,1,0
304,104,36463,1,4
480,80,36985,6,0,B|480:304,1,224
356,340,38028,6,0,B|328:376|256:404|184:376|156:340,1,224
12,368,39072,1,8
116,188,39593,5,0
116,188,39985,1,0
116,188,40376,1,0
24,156,40637,6,0,B|1:213|29:275|91:303|148:281,1,224,8|8
80,100,41680,2,0,B|137:77|199:105|227:167|205:224,1,224,8|8
360,356,42724,6,2,B|152:272,1,224,0|8
156,44,43767,6,0,B|184:8|256:-20|328:8|356:44,1,224
304,104,44550,1,0
208,104,44811,1,4
32,80,45333,6,0,B|32:304,1,224
156,340,46376,6,0,B|184:376|256:404|328:376|356:340,1,224
500,368,47419,1,8
432,240,47941,5,0
432,240,48333,1,0
432,240,48724,2,0,B|394:191|326:184|271:224|261:284,1,224,0|0
324,332,49506,1,8
149,316,50028,2,0,B|91:339|29:311|1:249|24:192,1,224,0|8
136,148,59419,6,0,B|80:172|56:236|80:300|136:324,1,224
160,236,60202,2,0,B|216:212|240:148|216:84|160:60,1,224,4|8
352,59,61246,6,0,B|296:84|272:148|296:212|352:236,1,224,0|8
376,148,62028,2,0,B|432:172|456:236|432:300|376:324,1,224,8|4
256,352,63072,2,0,B|256:128,1,224
256,48,63854,5,0
256,48,64115,1,0
184,220,64637,1,8
328,220,65028,1,8
256,312,65419,1,8
464,240,66202,2,0,B|486:296|458:358|396:387|339:364,1,224,0|4
112,360,67506,5,0
112,360,67767,2,0,B|-8:320|-80:192|-16:40|120:-8|184:-8|320:40|384:192|312:320|192:360,1,896,0|4
376,360,70376,1,0
440,192,70898,1,0
336,32,71419,1,0
256,88,71680,1,0
176,32,71941,2,0,B|40:64|8:192|40:320|176:352,1,448,0|8
256,192,73506,5,0
296,272,73767,1,0
336,352,74028,2,0,B|472:320|504:192|472:64|336:32,1,448,0|8
216,112,75593,1,0
296,272,76115,1,4
148,248,77159,5,0
148,96,77680,1,8
112,24,77941,5,0
112,24,78202,2,2,B|-8:64|-80:192|-16:344|120:392|184:392|320:344|384:192|312:64|192:24,1,896,4|4
400,360,82376,2,2,B|520:320|592:192|528:40|392:-8|328:-8|192:40|128:192|200:320|320:360,1,896,0|4
84,140,85246,6,0,B|84:101|104:53|152:33|192:33,1,167.99999499321
296,32,86289,2,0,B|355:32|427:61|457:133|457:193,1,251.999992489815,0|8
424,256,87333,6,0,B|424:295|404:343|356:363|316:363,1,167.99999499321
204,364,88376,2,0,B|144:364|72:334|42:262|42:202,1,251.999992489815,0|8
84,140,89419,6,0,B|84:101|104:53|152:33|192:33,1,167.99999499321
296,32,90462,2,0,B|355:32|427:61|457:133|457:193,1,251.999992489815,0|8
424,256,91506,6,0,B|424:295|404:343|356:363|316:363,1,167.99999499321
256,252,92550,1,8
120,252,93072,5,0
140,180,93333,1,0
184,120,93593,2,0,B|208:88|256:64|304:88|328:120,1,167.99999499321
144,56,94637,2,0,B|176:16|256:-24|336:16|368:56,1,251.999992489815,0|8
408,120,95680,6,0,B|440:144|464:192|440:240|408:264,1,167.99999499321
472,80,96724,2,0,B|512:112|552:192|512:272|472:304,1,251.999992489815,0|8
404,292,97767,6,0,B|364:297|313:280|296:229|302:190,1,167.99999499321
387,365,98811,2,0,B|336:370|251:342|222:257|228:206,1,251.999992489815,0|8
160,264,99854,6,0,B|128:240|104:192|128:144|160:120,1,167.99999499321
296,124,100898,1,0
256,192,101159,1,4
360,356,109506,6,2,B|152:272,1,224,0|8
156,44,110549,6,0,B|184:8|256:-20|328:8|356:44,1,224
304,104,111332,1,0
208,104,111593,1,4
32,80,112115,6,0,B|32:304,1,224
156,340,113158,6,0,B|184:376|256:404|328:376|356:340,1,224
500,368,114202,1,8
396,188,114723,5,0
396,188,115115,1,0
396,188,115506,1,0
488,156,115767,6,0,B|511:213|483:275|421:303|364:281,1,224,8|8
432,100,116810,2,0,B|375:77|313:105|285:167|307:224,1,224,8|8
152,356,117854,6,2,B|360:272,1,224,0|8
356,44,118897,6,0,B|328:8|256:-20|184:8|156:44,1,224
208,104,119680,1,0
304,104,119941,1,4
480,80,120463,6,0,B|480:304,1,224
356,340,121506,6,0,B|328:376|256:404|184:376|156:340,1,224
12,368,122549,1,8
80,240,123071,5,0
80,240,123463,1,0
80,136,123854,2,0,B|137:113|199:141|227:203|205:260,1,224,0|0
188,332,124636,1,8
363,316,125158,2,0,B|421:339|483:311|511:249|488:192,1,224,0|8
168,48,126202,6,0,B|192:104|256:128|320:104|344:48,1,224,0|8
488,120,127246,6,0,B|510:177|482:239|420:267|363:245,2,224,0|0|4
256,192,128811,1,0
256,192,129072,1,0
256,192,129333,1,0
24,120,129854,6,0,B|1:177|29:239|91:267|148:245,2,224
112,120,131159,2,0,B|80:56|136:16,1,112
184,80,131680,1,0
256,120,131941,1,4
328,160,132202,6,0,B|296:224|352:264,1,112
504,272,132985,2,0,B|377:435|187:418|31:310|39:100,1,672,0|4
360,52,135593,6,0,B|312:0|256:52|200:104|156:52,2,224
256,192,137159,12,12,142898
