osu file format v9

[General]
AudioFilename: departure.mp3
AudioLeadIn: 1500
PreviewTime: 45172
Countdown: 0
SampleSet: Soft
StackLeniency: 0.7
Mode: 0
LetterboxInBreaks: 0

[Editor]
DistanceSpacing: 1
BeatDivisor: 4
GridSize: 4

[Metadata]
Title:Departure (TV Size)
Artist:Katate*SIZE
Creator:Yutsuki yukari
Version:Zen
Source:Nurarihyon no Mago: Sennen Makyou
Tags:Hirano Aya Horie Yui Maeda Ai Kiiwa

[Difficulty]
HPDrainRate:2
CircleSize:3
OverallDifficulty:1
ApproachRate:3
SliderMultiplier:0.8
SliderTickRate:1

[Events]
//Background and Video events
0,0,"BG4.jpg"
//Break Periods
//Storyboard Layer 0 (Background)
//Storyboard Layer 1 (Fail)
//Storyboard Layer 2 (Pass)
//Storyboard Layer 3 (Foreground)
//Storyboard Sound Samples
//Background Colour Transformations
3,100,163,162,255

[TimingPoints]
172,384.615384615385,4,2,1,60,1,0
7095,-100,4,2,2,40,0,0
7864,-100,4,2,1,60,0,0
10172,-100,4,2,2,40,0,0
10941,-100,4,2,1,60,0,0
16326,-100,4,2,2,60,0,0
17095,-100,4,2,1,60,0,0
22480,-100,4,2,2,60,0,0
23057,-100,4,2,1,60,0,0
28634,-100,4,2,2,60,0,0
28826,-100,4,2,1,60,0,0
32480,-100,4,2,2,60,0,0
32576,-100,4,2,1,60,0,0
44787,-100,4,2,2,60,0,1
45172,-100,4,2,1,80,0,1
48537,-100,4,2,2,80,0,1
48730,-100,4,2,1,80,0,1
51614,-100,4,2,2,80,0,1
51807,-100,4,2,1,80,0,1
53153,-100,4,2,2,80,0,1
53345,-100,4,2,1,80,0,1
57095,-100,4,2,2,80,0,1
57864,-100,4,2,1,80,0,1
60845,-100,4,2,2,80,0,1
61037,-100,4,2,1,80,0,1
69402,-100,4,2,1,80,0,0
74018,-100,4,2,1,80,0,1
74114,-100,4,2,1,80,0,0
81710,-100,4,2,1,30,0,0
87864,-100,4,2,1,10,0,0

[Colours]
Combo1 : 128,0,38
Combo2 : 251,245,140
Combo3 : 205,205,205

[HitObjects]
136,92,1710,1,4
244,208,2479,1,2
152,340,3248,2,0,B|228:376|320:348,1,160,0|2
452,280,4786,6,0,B|452:188,2,80,0|0|2
312,204,6325,1,0
152,224,7094,1,6
52,100,7863,6,0,B|148:108|204:32,1,160,4|2
348,88,9402,1,0
412,228,10171,1,6
260,272,10940,6,0,B|180:308,2,80,4|0|2
336,244,12094,1,0
408,208,12479,2,0,B|488:176|500:80,1,160,0|2
340,84,14017,5,0
212,180,14786,1,2
96,72,15556,2,0,B|96:168,2,80,0|0|6
96,232,17094,6,0,B|152:288|248:280,1,160,0|2
372,188,18633,2,0,B|420:256|388:360,1,160,0|2
236,308,20171,5,0
200,152,20940,1,2
360,144,21710,1,0
400,300,22479,1,6
280,280,23056,6,0,B|192:264,1,80
84,248,24017,1,2
156,152,24594,2,0,B|212:80,1,80
224,208,25556,6,0,B|316:232|376:168,1,160,2|0
436,124,26710,1,0
376,72,27094,2,0,B|284:56|220:112,1,160,2|0
156,148,28248,1,0
104,208,28633,2,0,B|152:284|116:368,1,160,6|2
260,284,30171,5,4
380,180,30940,1,0
228,128,31710,1,4
124,248,32479,6,0,B|164:328|264:324,1,160,4|2
396,248,34017,2,0,B|472:216|488:116,1,160,0|2
328,136,35556,2,0,B|276:212|184:228,1,160,0|2
40,192,37094,2,0,B|124:224|140:328,1,160,0|2
296,288,38633,6,0,B|388:272,2,80,0|0|2
172,188,40171,2,0,B|208:116,2,80,0|0|2
112,336,41709,5,4
236,236,42479,1,2
152,100,43248,2,0,B|228:56|312:88,1,160,4|2
384,104,44402,1,0
456,140,44786,1,4
388,184,45171,6,0,B|388:264,1,80,0|8
388,344,45940,2,0,B|340:344,2,40,0|0|0
468,344,46709,1,0
468,264,47094,1,8
468,184,47479,1,0
316,228,48248,6,0,B|256:280|160:272,1,160
88,268,49402,1,4
156,124,50171,1,8
308,76,50940,5,0
360,136,51325,2,0,B|408:200|392:292,1,160,0|4
348,356,52479,1,0
280,312,52863,2,0,B|216:256|124:264,1,160,0|4
52,264,54017,5,0
136,128,54786,1,8
284,192,55556,2,0,B|368:200|440:148,2,160,4|8|4
124,176,57863,5,8
216,44,58633,2,0,B|244:96|228:136,1,80,4|0
224,200,59402,2,0,B|208:248|232:292,1,80,8|0
256,352,60171,1,0
320,304,60556,6,0,B|384:252|480:284,1,160,0|0
440,356,61709,1,0
432,196,62479,1,8
312,92,63248,1,4
248,140,63633,6,0,B|176:192,1,80,0|8
96,272,64594,2,0,B|152:308|224:304,1,120
292,304,65556,1,8
208,168,66325,6,0,B|252:152|268:100,1,80,4|0
296,40,67094,2,0,B|252:28,2,40,8|0|0
368,72,67863,1,0
416,224,68633,1,8
256,192,69017,12,0,70940
124,104,71709,5,0
188,252,72479,1,4
308,148,73248,1,8
408,272,74017,6,0,B|408:320,2,40,4|0|0
408,192,74786,2,0,B|408:104,1,80,8|0
408,32,75556,1,0
296,148,76325,6,0,B|248:224|148:228,1,160,8|4
160,68,77863,1,8
100,216,78633,6,0,B|96:300|168:356,1,160,0|8
256,220,80171,2,0,B|344:192|420:240,1,160,4|8
364,300,81325,2,0,B|328:320,1,40
256,192,81710,12,4,87863
