osu file format v9

[General]
AudioFilename: departure.mp3
AudioLeadIn: 1500
PreviewTime: 45172
Countdown: 0
SampleSet: Soft
StackLeniency: 0.7
Mode: 0
LetterboxInBreaks: 0

[Editor]
DistanceSpacing: 1.1
BeatDivisor: 4
GridSize: 4

[Metadata]
Title:Departure (TV Size)
Artist:Katate*SIZE
Creator:Yutsuki yukari
Version:Nurarihyon
Source:Nurarihyon no Mago: Sennen Makyou
Tags:Hirano Aya Horie Yui Maeda Ai Kiiwa

[Difficulty]
HPDrainRate:7
CircleSize:4
OverallDifficulty:6
ApproachRate:8
SliderMultiplier:1.6
SliderTickRate:1

[Events]
//Background and Video events
0,0,"BG4.jpg"
//Break Periods
//Storyboard Layer 0 (Background)
//Storyboard Layer 1 (Fail)
//Storyboard Layer 2 (Pass)
//Storyboard Layer 3 (Foreground)
//Storyboard Sound Samples
//Background Colour Transformations
3,100,163,162,255

[TimingPoints]
172,384.615384615385,4,2,1,60,1,0
4787,-133.333333333333,4,2,1,60,0,0
6326,-100,4,2,1,60,0,0
7095,-100,4,2,2,40,0,0
7864,-100,4,2,1,60,0,0
10172,-100,4,2,2,40,0,0
10557,-100,4,2,1,60,0,0
16326,-100,4,2,2,40,0,0
16518,-100,4,2,1,60,0,0
22477,-100,4,2,2,40,0,0
22576,-100,4,2,1,60,0,0
32480,-100,4,2,2,60,0,0
32576,-100,4,2,1,60,0,0
44787,-100,4,2,1,60,0,1
45172,-100,4,2,1,80,0,1
69402,-100,4,2,1,80,0,0
74018,-100,4,2,2,80,0,1
74114,-100,4,2,1,80,0,0
81711,-100,4,2,1,30,0,0
87864,-100,4,2,1,10,0,0

[Colours]
Combo1 : 128,0,38
Combo2 : 251,245,140
Combo3 : 205,205,205

[HitObjects]
68,140,1710,1,4
196,48,2095,1,0
200,208,2480,1,2
264,148,2672,1,0
344,116,2864,1,0
432,108,3057,1,0
424,192,3249,6,0,B|428:292|336:332,1,160,0|0
272,332,3826,1,0
192,332,4018,2,0,B|96:352|36:272,1,160,2|0
352,92,4787,6,0,B|384:40,2,59.9999982118607,4|0|0
316,296,5557,2,0,B|284:348,2,59.9999982118607,2|0|0
216,192,6326,1,0
172,256,6518,1,0
324,48,6903,5,0
476,256,7095,1,4
104,64,7864,5,4
108,224,8249,1,0
180,264,8441,1,0
260,280,8634,2,0,B|344:300|420:240,1,160,2|0
480,204,9211,1,0
408,164,9403,1,0
300,284,9787,5,0
364,332,9980,1,0
444,344,10172,1,6
248,224,10557,1,0
172,256,10749,1,0
92,252,10941,1,4
124,40,11326,5,0
312,168,11711,1,2
264,356,12095,1,0
340,332,12287,1,0
384,264,12480,1,4
304,260,12672,1,0
340,332,12864,1,0
432,200,13249,5,2
392,132,13441,1,0
472,132,13634,1,0
168,208,14018,5,4
300,300,14403,1,0
224,272,14595,1,0
368,208,14980,1,0
440,176,15172,1,0
300,100,15557,5,4
228,68,15749,1,0
144,48,15941,1,0
224,76,16134,1,0
160,136,16326,1,6
240,176,16518,1,0
224,88,16710,1,0
408,224,17095,6,0,B|364:280|292:280,1,120,4|0
288,280,17480,2,0,B|280:328|324:376,1,80
260,176,18057,5,0
348,192,18249,1,0
260,144,18634,5,4
336,96,18826,1,0
260,112,19211,5,0
272,24,19403,1,2
192,56,19595,1,0
260,112,19787,1,0
340,336,20172,6,0,B|384:312|392:248,1,80,4|0
320,152,20557,2,0,B|352:192|416:196,1,80
468,164,20941,1,2
468,164,21326,2,0,B|496:208|480:268,1,80
464,324,21711,2,0,B|428:356|368:356,1,80,4|0
304,348,22095,2,0,B|260:300,2,40
328,264,22480,2,0,B|336:216,4,40,6|0|0|0|0
244,240,23057,5,0
168,200,23249,1,4
120,128,23441,1,0
124,40,23634,1,0
420,104,24018,5,2
356,164,24211,2,0,B|408:200|452:192,1,80,0|0
484,336,24595,2,0,B|496:292|476:252,2,80,0|4|0
192,88,25364,5,0
192,88,25557,2,0,B|124:100|68:64,1,120,2|0
88,112,25941,2,0,B|116:148|104:212,1,80
100,276,26326,1,4
272,304,26711,1,0
212,140,27095,6,0,B|272:164|344:144,1,120,2|0
360,116,27480,2,0,B|416:156|416:236,1,120
392,256,27864,2,0,B|344:300,3,40,4|0|0|0
328,312,28249,1,0
152,96,28634,5,2
100,164,28826,1,0
132,244,29018,1,0
220,252,29211,1,0
184,172,29403,6,0,B|264:188|352:116,1,160,4|0
412,88,29980,1,0
328,60,30172,6,0,B|296:156|360:208,1,160,6|0
404,280,30749,1,0
432,196,30941,6,0,B|340:188|296:272,1,160,4|0
284,352,31518,1,0
220,292,31711,6,0,B|148:240|40:268,1,160,6|0
128,96,32480,6,0,B|88:136,4,40,4|0|0|0|0
192,36,33057,1,0
212,124,33249,2,0,B|244:164|316:152,1,80,2|0
372,164,33634,5,0
320,232,33826,1,0
408,248,34018,1,4
372,164,34211,1,0
364,324,34403,1,0
500,256,34595,1,0
448,124,34787,2,0,B|412:36|316:20,1,160,2|0
108,328,35557,5,4
88,152,35941,2,0,B|88:104|152:72,1,80
188,152,36326,2,0,B|240:160|288:116,1,80,2|0
392,92,36711,2,0,B|336:92|308:48,1,80
380,188,37095,2,0,B|440:180|472:144,1,80,4|0
472,244,37480,5,0
416,312,37672,1,0
332,332,37864,1,2
112,192,38249,1,0
200,208,38441,1,0
268,264,38634,1,4
368,56,39018,5,0
432,116,39211,1,0
352,160,39403,2,0,B|340:204|380:256,1,80,2|0
448,260,39787,1,0
392,328,39980,1,0
304,344,40172,2,0,B|248:352|216:316,1,80,4|0
88,336,40557,2,0,B|140:328|168:268,1,80
80,248,40941,5,2
44,168,41134,1,0
132,176,41326,1,0
0,240,41518,1,0
16,88,41711,1,4
456,268,42095,6,0,B|432:344,2,80,0|0|2
56,116,42864,2,0,B|80:40,2,80,0|0|4
456,116,43634,2,0,B|432:40,2,80,0|0|2
56,268,44403,2,0,B|80:344,2,80,0|0|4
228,268,45172,6,0,B|292:272|324:248,1,80,0|0
392,240,45557,1,8
264,128,45941,2,0,B|208:124,4,40,2|0|0|0|0
328,188,46518,1,0
96,228,46903,5,0
184,236,47095,1,8
236,308,47287,1,0
148,316,47480,1,0
184,236,47672,1,0
248,176,47864,1,0
456,40,48249,6,0,B|432:80|372:92,1,80
312,104,48634,1,10
184,220,49018,2,0,B|208:188,4,40,0|0|0|0|4
132,292,49595,1,0
308,312,49980,2,0,B|364:320|404:304,1,80,0|10
408,224,50364,2,0,B|456:232|488:264,1,80,0|0
480,256,50749,1,0
72,152,51326,6,0,B|120:140|132:72,1,80
212,124,51710,2,0,B|248:140|264:200,1,80,10|0
292,268,52095,1,0
292,268,52480,1,4
132,340,52864,6,0,B|84:356|28:336,1,80
132,340,53249,2,0,B|176:304|236:312,1,80,10|0
292,268,53634,1,0
440,172,54018,1,4
296,72,54403,6,0,B|300:128|256:148,1,80
192,188,54787,2,0,B|204:252,2,40,10|0|0
140,116,55172,2,0,B|92:104,2,40
228,104,55557,2,0,B|260:76,4,40,4|0|0|0|0
284,172,56134,5,0
344,236,56326,1,10
432,240,56518,1,0
448,152,56710,1,0
432,240,56903,1,0
488,308,57095,1,4
148,320,57480,6,0,B|104:316|72:284,2,80,0|0|10
324,324,58249,1,0
260,264,58441,1,0
344,240,58634,1,4
324,324,58826,1,0
368,152,59210,2,0,B|412:148|460:96,2,80,0|10|0
280,176,59787,1,0
280,176,59980,1,0
280,176,60172,1,4
104,340,60557,6,0,B|156:332|172:280,1,80
92,256,60941,1,10
192,112,61326,2,0,B|220:144|276:148,1,80
272,116,61614,1,0
316,120,61710,2,0,B|360:128|392:172,1,80
368,260,62095,1,0
412,352,62287,2,0,B|468:300|476:196,1,160
468,120,62864,1,0
330,148,63057,2,0,B|382:204|490:211,1,160
456,292,63634,5,0
368,304,63826,1,0
284,280,64018,1,10
80,52,64595,5,0
228,144,64980,1,0
308,112,65172,2,0,B|324:152|304:200,2,80,0|0|10
140,168,65941,6,0,B|96:176|52:148,2,80,0|0|4
256,300,66710,1,0
464,80,67095,1,10
464,80,67191,1,0
464,80,67287,2,0,B|384:112|292:56,1,160
224,40,67864,5,4
236,128,68057,1,0
292,196,68249,1,0
376,224,68441,1,0
460,248,68634,2,0,B|408:316|308:324,1,160,10|0
236,324,69210,1,0
256,192,69403,12,4,70941
108,84,71326,6,0,B|136:96|216:96,1,80
276,100,71710,1,10
411,199,72095,6,0,B|373:217|304:208,1,80
244,216,72480,1,4
84,276,72864,6,0,B|116:296|172:292,2,80,0|0|8
260,304,73634,1,0
436,312,74018,5,4
480,236,74210,1,0
400,196,74403,2,0,B|360:220|320:204,1,80
180,144,74787,2,0,B|224:148|244:192,1,80,10|0
248,296,75172,2,0,B|268:256,4,40,0|0|0|0|4
168,264,75749,1,0
108,200,75941,1,0
108,200,76326,6,0,B|168:248|268:244,1,160,10|0
348,240,76903,1,0
432,84,77287,1,0
492,20,77480,1,0
432,84,77672,1,0
356,40,77864,1,10
452,192,78249,1,0
236,176,78634,6,0,B|152:176|76:228,1,160,4|0
136,300,79210,1,0
224,304,79403,2,0,B|240:216|156:140,1,160,10|0
112,220,79980,1,0
196,244,80172,6,0,B|280:268|368:240,1,160,4|0
432,204,80749,1,0
356,164,80941,1,10
180,156,81326,1,0
268,144,81518,1,0
256,192,81710,12,0,83634
256,192,83826,12,4,87864
