osu file format v13

[General]
AudioFilename: Sparky Start - Katane Size.mp3
AudioLeadIn: 0
PreviewTime: 58304
Countdown: 0
SampleSet: Soft
StackLeniency: 0.7
Mode: 0
LetterboxInBreaks: 1
WidescreenStoryboard: 1

[Editor]
Bookmarks: 6875
DistanceSpacing: 0.8
BeatDivisor: 4
GridSize: 8
TimelineZoom: 2.6

[Metadata]
Title:Sparky Start (TV Size)
TitleUnicode:Sparky Start (TV Size)
Artist:Katate Size
ArtistUnicode:Katate Size
Creator:HoLoDrEaM
Version:Easy
Source:Nurarihyon no Mago
Tags:Youkai
BeatmapID:72323
BeatmapSetID:19419

[Difficulty]
HPDrainRate:1
CircleSize:3
OverallDifficulty:1
ApproachRate:0
SliderMultiplier:1
SliderTickRate:1

[Events]
//Background and Video events
0,0,"Background.jpg",0,0
Video,0,"Vid.avi"
//Break Periods
//Storyboard Layer 0 (Background)
//Storyboard Layer 1 (Fail)
//Storyboard Layer 2 (Pass)
//Storyboard Layer 3 (Foreground)
//Storyboard Sound Samples
//Background Colour Transformations
3,100,163,162,255

[TimingPoints]
6865,389.61038961039,4,2,0,90,1,0
59657,-100,4,2,0,80,0,1
84689,-100,4,2,0,5,0,1
86442,-100,4,2,0,80,0,0

[Colours]
Combo1 : 255,128,64
Combo2 : 0,0,255
Combo3 : 255,128,255

[HitObjects]
88,80,13098,6,0,L|192:80,1,100
272,80,13877,2,0,B|272:184,2,100,0|0|0,0:0|0:0|0:0,0:0:0:0:
352,80,15046,2,0,B|424:80|456:80,1,100
456,160,15826,2,0,B|456:264,1,100,0|0,0:0|0:0,0:0:0:0:
376,264,16605,6,0,B|344:264|272:264,1,100,0|0,0:0|0:0,0:0:0:0:
192,264,17384,2,0,B|192:152,2,100
192,344,18553,2,0,L|312:344,1,100
296,264,19332,1,0,0:0:0:0:
288,184,19721,6,0,B|288:128|288:80,1,100,2|0,0:0|0:0,0:0:0:0:
376,168,20501,2,0,B|376:48,1,100,2|0,0:0|0:0,0:0:0:0:
296,88,21280,2,0,L|176:88,1,100,2|0,0:0|0:0,0:0:0:0:
112,88,22059,2,0,L|112:200,1,100,2|0,0:0|0:0,0:0:0:0:
192,192,22838,5,2,0:0:0:0:
272,192,23228,2,0,B|272:296,1,100,0|2,0:0|0:0,0:0:0:0:
192,296,24007,1,2,0:0:0:0:
112,296,24397,1,2,0:0:0:0:
112,216,24787,2,0,L|112:96,1,100,2|2,0:0|0:0,0:0:0:0:
192,112,25566,5,0,0:0:0:0:
272,112,25955,1,8,0:0:0:0:
352,112,26345,2,0,B|352:224,1,100,0|8,0:0|0:0,0:0:0:0:
352,288,27124,2,0,B|248:288,1,100,0|8,0:0|0:0,0:0:0:0:
248,208,27903,2,0,B|144:208,1,100,0|8,0:0|0:0,0:0:0:0:
64,208,28682,2,0,B|64:104,2,100,0|8|0,0:0|0:0|0:0,0:0:0:0:
64,288,29852,2,0,L|184:288,1,100,8|0,0:0|0:0,0:0:0:0:
168,208,30631,2,0,B|200:208|272:208,1,100,8|0,0:0|0:0,0:0:0:0:
272,288,31410,2,0,B|392:288,1,100,8|0,0:0|0:0,0:0:0:0:
376,208,32189,5,2,0:0:0:0:
376,128,32579,2,0,B|276:128,1,100,0|2,0:0|0:0,0:0:0:0:
192,128,33358,2,0,L|192:248,1,100,0|2,0:0|0:0,0:0:0:0:
192,312,34137,2,0,B|296:312,1,100,2|2,0:0|0:0,0:0:0:0:
376,312,34916,6,0,B|376:200,1,100,2|2,0:0|0:0,0:0:0:0:
376,128,35695,6,2,B|256:128,1,100,2|2,0:0|0:0,0:0:0:0:
192,128,36475,6,2,B|192:232,1,100,2|2,0:0|0:0,0:0:0:0:
192,312,37254,6,2,B|304:312,1,100,2|4,0:0|0:0,0:0:0:0:
376,312,38033,5,0,0:0:0:0:
376,152,38812,2,0,B|264:152,1,100
192,152,39592,2,0,B|192:256,2,100,0|0|0,0:0|0:0|0:0,0:0:0:0:
112,176,40761,6,0,L|112:64,1,100,0|0,0:0|0:0,0:0:0:0:
192,72,41540,1,0,0:0:0:0:
272,72,41929,2,0,B|372:72,2,100,0|0|0,0:0|0:0|0:0,0:0:0:0:
272,152,43098,1,0,0:0:0:0:
272,232,43487,2,0,B|150:232,1,100,0|0,0:0|0:0,0:0:0:0:
176,312,44267,5,0,0:0:0:0:
176,152,45046,2,0,B|64:152,1,100
96,232,45826,2,0,B|96:336,1,100,0|0,0:0|0:0,0:0:0:0:
176,336,46605,1,0,0:0:0:0:
336,336,47384,5,0,0:0:0:0:
376,264,47774,1,0,0:0:0:0:
296,264,48163,2,0,B|176:264,1,100
112,264,48942,2,0,L|112:160,1,100
112,80,49721,2,0,B|212:80,1,100,0|0,0:0|0:0,0:0:0:0:
216,160,50501,6,0,B|336:160,1,100,0|0,0:0|0:0,0:0:0:0:
296,240,51280,2,0,B|352:240|400:240,1,100
400,320,52059,2,0,B|300:320,1,100,0|0,0:0|0:0,0:0:0:0:
296,240,52838,2,0,B|240:240|184:240,1,100
112,240,53618,6,0,B|112:140,1,100,0|0,0:0|0:0,0:0:0:0:
192,160,54397,2,0,B|192:40,1,100,0|0,0:0|0:0,0:0:0:0:
272,64,55176,2,0,B|272:176,1,100,0|0,0:0|0:0,0:0:0:0:
352,168,55955,2,0,B|352:268,1,100,0|0,0:0|0:0,0:0:0:0:
272,280,56735,2,0,L|152:280|56:280,1,200,0|4,0:0|0:0,0:0:0:0:
136,136,58293,6,0,B|136:60|136:36,1,100,2|8,0:0|0:0,0:0:0:0:
216,56,59072,2,0,B|316:56,1,100,2|8,0:0|0:0,0:0:0:0:
320,136,59851,2,0,B|432:136,1,100,2|8,0:0|0:0,0:0:0:0:
424,216,60631,1,2,0:0:0:0:
344,216,61020,6,0,B|304:216|232:216,1,100,8|2,0:0|0:0,0:0:0:0:
240,296,61799,2,0,B|120:296,1,100,8|2,0:0|0:0,0:0:0:0:
56,296,62579,1,8,0:0:0:0:
56,216,62968,1,2,0:0:0:0:
56,136,63358,2,0,B|160:136,1,100,8|2,0:0|0:0,0:0:0:0:
232,136,64137,1,8,0:0:0:0:
232,216,64527,6,0,B|168:216|128:216,1,100,2|8,0:0|0:0,0:0:0:0:
48,216,65306,2,0,B|48:172|48:116,1,100,2|8,0:0|0:0,0:0:0:0:
48,32,66085,2,0,B|152:32,1,100,2|8,0:0|0:0,0:0:0:0:
232,32,66864,2,0,B|232:132,1,100,2|8,0:0|0:0,0:0:0:0:
232,216,67644,1,2,0:0:0:0:
312,216,68033,2,0,B|312:112,1,100,8|2,0:0|0:0,0:0:0:0:
392,112,68813,5,8,0:0:0:0:
472,112,69202,2,0,B|472:232,1,100,2|8,0:0|0:0,0:0:0:0:
432,280,69981,2,0,B|320:280,1,100,2|8,0:0|0:0,0:0:0:0:
248,280,70761,2,0,B|248:180,1,100,2|8,0:0|0:0,0:0:0:0:
320,144,71540,5,2,0:0:0:0:
248,104,71929,1,8,0:0:0:0:
176,144,72319,2,0,B|72:144,1,100,2|8,0:0|0:0,0:0:0:0:
72,224,73098,1,2,0:0:0:0:
72,304,73488,1,8,0:0:0:0:
152,304,73877,2,0,B|272:304,1,100,2|8,0:0|0:0,0:0:0:0:
256,224,74657,2,0,B|308:224|356:224,1,100,2|8,0:0|0:0,0:0:0:0:
352,144,75436,6,0,B|232:144,1,100,2|8,0:0|0:0,0:3:0:0:
168,144,76215,2,0,B|168:256,1,100,2|8,0:0|0:0,0:0:0:0:
168,328,76994,2,0,B|280:328,1,100,2|8,0:0|0:0,0:0:0:0:
352,328,77774,2,0,L|352:208,1,100,2|8,0:0|0:0,0:0:0:0:
352,144,78553,1,2,0:0:0:0:
272,144,78943,5,8,0:0:0:0:
192,144,79332,2,0,B|192:200|192:256,1,100,2|8,0:0|0:0,0:0:0:0:
272,240,80111,2,0,B|384:240,1,100,2|8,0:0|0:0,0:0:0:0:
392,160,80890,2,0,B|352:160|292:160,1,100,2|8,0:0|0:0,0:0:0:0:
216,176,81669,6,0,B|216:72,1,100,2|8,0:0|0:0,0:0:0:0:
288,88,82449,2,0,L|388:88,1,100,2|8,0:0|0:0,0:0:0:0:
392,168,83228,1,2,0:0:0:0:
392,248,83618,5,8,0:0:0:0:
312,248,84007,2,0,L|208:248,1,100,2|8,0:0|0:0,0:0:0:0:
256,192,84786,12,0,86345,0:0:0:0:
