osu file format v5

[General]
AudioFilename: GALAXY - Katase Nana.MP3
AudioLeadIn: 0
PreviewTime: -1
Countdown: 1
SampleSet: Soft
StackLeniency: 0.7
Mode: 0
LetterboxInBreaks: 1

[Metadata]
Title:GALAXY
Artist:Katase Nana
Creator:moonstar
Version:Normal
Source:
Tags:

[Difficulty]
HPDrainRate:5
CircleSize:5
OverallDifficulty:5
SliderMultiplier:1.4
SliderTickRate:1

[Events]
//Background and Video events
0,0,"forfan_bg.jpg"
//Break Periods
//Storyboard Layer 0 (Background)
//Storyboard Layer 1 (Failing)
//Storyboard Layer 2 (Passing)
//Storyboard Layer 3 (Foreground)
//Storyboard Sound Samples
//Background Colour Transformations
3,100,163,162,255

[TimingPoints]
12486,472.143531633617,4,2,0,100,1

[Colours]
Combo1 : 255,255,128
Combo2 : 0,255,128
Combo3 : 0,128,255
Combo4 : 255,128,128
Combo5 : 255,128,255

[HitObjects]
256,192,20040,6,2,B|400:192,2,140
256,104,21456,1,0
336,72,21928,1,0
256,40,22401,1,0
176,72,22873,1,0
256,104,23345,1,8
256,184,23817,6,0,B|256:336,2,140
336,184,25233,1,0
336,264,25706,1,0
248,264,26178,1,0
160,264,26650,1,8
184,104,27594,6,0,B|32:104,2,140
112,152,29011,1,0
112,64,29483,1,0
40,112,29955,1,8
40,192,30427,1,8
176,88,31371,5,2
232,152,31843,1,2
288,88,32316,1,8
256,192,32552,12,0,34676
256,192,35148,5,0
256,120,35621,1,0
192,152,36093,1,0
264,152,36565,2,8,B|416:152,1,140
400,224,37509,2,8,B|248:224,1,140
256,296,38453,1,0
328,296,38926,1,0
328,224,39398,1,0
400,224,39870,1,0
400,296,40342,2,8,B|400:136,3,140
232,176,42703,5,0
312,176,43175,1,0
392,176,43647,1,0
336,240,44119,1,0
416,240,44591,1,0
496,240,45063,1,0
496,152,45536,2,8,B|200:152,3,280
144,176,48841,6,2,B|16:176,5,70
72,136,50257,1,8
144,88,50729,1,8
72,40,51201,1,8
320,40,52618,6,8,B|232:40,5,70
216,40,54034,1,2
256,96,54506,1,2
256,168,54978,1,2
256,240,55451,6,2,B|256:336,8,70
328,248,57811,5,8
256,248,58283,1,8
184,248,58756,1,8
256,248,59228,1,8
256,174,59700,2,0,B|256:104,8,70
336,192,62061,1,8
336,104,62533,1,8
256,192,62769,12,0,64893
256,192,65366,5,2
328,192,65838,1,2
256,192,66310,1,2
184,192,66782,2,2,B|184:80,1,70
184,88,67254,2,2,B|88:88,1,70
80,88,67726,2,2,B|80:200,1,70
80,192,68198,1,8
224,104,69143,5,8
264,104,69379,1,8
264,144,69615,1,8
224,144,69851,1,8
248,176,70087,1,8
248,256,70559,1,0
328,256,71031,2,8,B|472:256,3,140
464,168,72920,6,2,B|464:16,2,140
392,216,74336,1,0
392,176,74572,1,0
392,136,74808,1,0
392,96,75045,1,0
392,56,75281,2,8,B|184:56,2,140
416,88,76461,5,2
392,120,76697,1,8
264,120,77405,1,2
240,88,77641,1,8
112,88,78350,1,2
80,120,78586,1,8
192,64,79294,6,2,B|32:232,1,210
40,256,80238,1,0
40,296,80474,1,8
120,296,80946,1,8
200,296,81418,1,8
280,296,81891,6,8,B|392:296,5,70,8|8|8|8|8|8
392,296,83307,1,8
416,216,83779,5,2
448,192,84015,1,2
416,160,84251,1,2
384,136,84487,1,2
344,160,84723,1,2
312,192,84960,1,2
344,216,85196,1,2
424,216,85668,1,8
464,216,85904,1,8
464,128,86376,6,2,B|464:48,1,70
424,48,86848,2,2,B|344:128,1,70
376,136,87320,1,2
336,136,87556,1,2
296,136,87792,2,2,B|184:136,1,70
184,136,88265,1,8
184,96,88501,1,8
264,72,88973,1,8
200,128,89445,6,8,B|0:128|0:320,1,280
40,280,90625,1,0
96,216,91097,2,2,B|168:216,1,70
208,216,91570,1,2
208,256,91806,2,2,B|208:328,1,70
208,368,92278,1,2
248,368,92514,2,2,B|344:368,1,70
360,368,92986,1,2
360,328,93222,1,2
360,288,93458,5,8
336,208,93930,5,10
256,192,94402,5,10
256,56,95583,6,2,B|256:136,1,70
256,160,96055,2,2,B|256:272,1,70
256,264,96527,2,2,B|256:336,1,70
216,328,96999,1,2
184,304,97235,1,2
168,264,97471,1,2
168,224,97707,1,2
208,208,97943,1,2
288,208,98416,1,8
360,248,98888,1,8
464,248,99360,6,2,B|-8:248,1,420
40,160,101248,1,0
8,80,101721,1,0
88,56,102193,1,8
128,56,102429,1,8
168,56,102665,1,8
248,32,103137,6,2,B|336:32,1,70
320,72,103609,2,2,B|240:72,1,70
208,80,104081,2,2,B|208:176,1,70
168,152,104553,1,0
168,192,104790,1,2
208,192,105026,1,2
248,192,105262,1,2
248,152,105498,1,8
248,112,105734,1,8
288,112,105970,1,8
448,168,106914,6,2,B|448:312,1,140
360,304,107858,6,2,B|512:304,1,140
496,216,108803,6,2,B|384:80,1,140
376,72,109511,1,8
336,72,109747,1,8
256,192,110455,12,0,114232
256,192,114705,5,2
328,192,115177,1,8
328,88,115649,6,8,B|328:160,2,70
408,96,116593,1,8
408,56,116829,1,8
368,56,117065,1,8
280,56,117537,6,2,B|24:56|24:296|328:304,1,490
320,304,119426,2,2,B|576:304|576:64|272:56,1,490
272,64,121315,5,2
256,192,121551,12,4,125800
