osu file format v5

[General]
AudioFilename: tamayura.ogg
AudioLeadIn: 0
PreviewTime: -1
Countdown: 0
SampleSet: Normal
StackLeniency: 0.7
Mode: 0
LetterboxInBreaks: 1

[Metadata]
Title:Tamayura
Artist:Katakiri Rekka
Creator:tom800510
Version:Easy
Source:
Tags:

[Difficulty]
HPDrainRate:1
CircleSize:3
OverallDifficulty:3
SliderMultiplier:1
SliderTickRate:1

[Events]
//Background and Video events
0,0,"tamayura-bg.png"
//Break Periods
2,93117,94477
//Storyboard Layer 0 (Background)
//Storyboard Layer 1 (Failing)
//Storyboard Layer 2 (Passing)
//Storyboard Layer 3 (Foreground)
//Storyboard Sound Samples
//Background Colour Transformations
3,100,163,162,255

[TimingPoints]
1595,375,4,2,0,100,1
69751,-100,4,1,0,100,0
70407,-100,4,2,0,79,0
95720,-100,4,1,0,79,0

[Colours]
Combo1 : 115,120,140
Combo2 : 159,85,124
Combo3 : 96,141,149
Combo4 : 149,160,84

[HitObjects]
72,320,52595,2,0,C|141:288|136:211,1,150,0|0
171,70,54095,2,0,C|263:77|297:137,1,150,0|0
439,102,55595,2,0,C|442:221|372:316|202:305|200:257,1,450,0|0
198,216,57657,1,8
110,94,58595,6,0,C|146:57|251:69,1,150,0|0
390,85,60095,2,0,C|475:133|464:199,1,150,0|0
432,328,61595,2,0,C|319:351|221:342|257:234|129:208,1,450,0|0
86,211,63657,1,8
194,57,64595,6,2,C|275:103|392:51,1,200,2|0
451,222,66470,1,0
415,270,66845,1,0
355,274,67220,1,2
314,230,67595,2,0,C|248:228|180:224|125:280,1,200,0|8
256,192,68532,12,4,69845
418,48,70595,6,0,C|329:58|287:110,1,150,0|0
427,168,72095,2,0,C|456:269|402:298,1,150,0|0
311,188,73595,2,0,C|236:120|174:142,1,150,0|0
53,191,75095,1,0
65,234,75376,1,0
101,259,75657,1,8
229,337,76595,6,0,C|332:340|362:293,1,150,0|0
426,170,78095,2,0,C|440:96|386:44,1,150,0|0
237,36,79595,2,0,C|170:87|197:159,1,150,0|0
89,256,81095,1,0
109,296,81376,1,0
151,310,81657,1,12
250,197,82595,6,0,C|282:193|279:230|234:244|202:198|241:152|304:164|326:214|319:259,1,400,0|2
116,123,85595,1,2
228,82,86345,1,2
317,83,86907,1,6
93,325,88970,5,0
96,175,89907,1,2
145,141,90282,1,0
196,171,90657,1,10
316,260,91595,1,0
365,294,91970,2,2,C|413:249,1,50
445,218,92532,1,8
445,218,92907,1,12
64,174,95907,6,4,C|124:174,1,50,0|4
104,263,96657,2,8,C|165:262,3,50
213,267,97595,2,0,C|305:305|415:262,1,200,0|4
426,153,99095,5,2
348,61,99845,2,0,C|292:40|243:58,1,100
205,86,100595,1,8
155,120,100970,1,0
101,91,101345,1,12
83,209,102095,6,0,C|78:316|176:328,1,200,2|0
212,289,103220,1,2
272,289,103595,1,0
306,239,103970,1,2
365,241,104345,1,12
427,138,105095,6,2,C|400:54|275:41,1,200,2|0
232,45,106220,2,0,C|178:47,2,50,0|0|12
80,189,107907,6,0,C|136:190,1,50,0|4
117,279,108657,2,8,C|173:279,3,50
226,273,109595,2,2,C|299:263|256:207|307:170,1,200,2|6
390,101,111095,5,2
428,147,111470,1,2
395,197,111845,2,0,C|430:255,2,50,8|8|8
340,222,112595,1,2
301,268,112970,1,2
241,270,113345,1,4
135,327,114095,6,2,C|72:289|61:222|60:147,1,200,2|2
143,78,115595,2,2,C|240:57|343:77,1,200,2|2
418,165,117095,1,8
436,205,117376,1,8
413,243,117657,2,2,C|359:284,1,50
332,292,118126,1,8
288,301,118407,2,6,C|244:268,1,50,0|4
93,86,120095,5,8
152,92,120470,1,0
211,89,120845,2,0,B|273:64|316:100,1,100
256,192,121595,12,4,123095
