osu file format v6

[General]
AudioFilename: Tubasa(short ver hope).ogg
AudioLeadIn: 0
PreviewTime: -1
Countdown: 1
SampleSet: Normal
StackLeniency: 0.7
Mode: 0
LetterboxInBreaks: 1

[Editor]
DistanceSpacing: 0.800000011920929
BeatDivisor: 4
GridSize: 8

[Metadata]
Title:TSUBASA(Verhope)
Artist:Katakiri Rekka
Creator:lukewarmholiday
Version:Red
Source:Umineko no Naku Koro ni Chiru
Tags:Umineko hope battler beatrice when they cry

[Difficulty]
HPDrainRate:4
CircleSize:4
OverallDifficulty:4
SliderMultiplier:1.4
SliderTickRate:2

[Events]
//Background and Video events
0,0,"sample_8dc09b982e10debcf50f6bf401c40ee50c05669f.jpg"
//Break Periods
2,52886,63333
//Storyboard Layer 0 (Background)
//Storyboard Layer 1 (Fail)
//Storyboard Layer 2 (Pass)
//Storyboard Layer 3 (Foreground)
//Storyboard Sound Samples
//Background Colour Transformations
3,100,0,0,0

[TimingPoints]
831,332.409972299169,4,1,0,40,1,0
32237,-100,4,1,0,40,0,1
48858,-100,4,1,0,40,0,0
53844,-200,4,2,0,41,0,0
64481,-200,4,2,0,70,0,0
68470,-100,4,1,0,49,0,0
85595,-100,4,1,1,100,0,0

[Colours]
Combo1 : 13,13,13
Combo2 : 232,231,217
Combo3 : 196,0,0

[HitObjects]
88,192,11135,1,0
152,280,11468,2,2,B|256:344|352:280,1,210,6|2
208,192,12465,1,0
208,192,12631,1,0
176,144,12797,2,2,B|280:80|376:144,1,210,2|2
384,200,13462,5,0
272,208,13794,1,0
160,192,14127,2,2,B|32:192|32:56,1,210,6|2
48,272,15124,1,0
115,290,15290,2,2,B|419:290,1,280,2|6
448,88,16454,5,0
448,88,16620,1,0
448,88,16786,2,2,B|448:192|272:192,1,210
184,192,17617,2,0,B|104:192,2,70
184,192,18116,2,2,B|344:192|368:280,1,210,2|6
448,128,19113,5,0
344,80,19445,1,4
184,120,19944,1,4
280,176,20276,2,2,B|272:264|88:256,1,210
16,192,21108,1,0
200,64,21772,5,0
312,64,22105,2,6,B|448:64|448:192,1,210
328,304,23102,2,2,B|168:304,1,140
384,192,24099,5,0
312,104,24432,1,0
200,104,24764,2,2,B|120:112|104:192,1,140,6|2
104,190,25263,2,2,B|114:114|200:104,1,140,6|2
198,104,25761,2,2,B|112:112|104:192,1,140,6|2
200,248,26426,1,0
312,248,26758,1,0
400,184,27091,6,2,B|440:248|400:320,1,140,2|2
312,248,27756,1,0
200,248,28088,1,0
112,184,28421,2,2,B|72:248|112:320,1,140
256,240,29252,1,0
256,240,29418,1,0
320,152,29750,2,2,B|256:99|192:152,1,140
160,312,30581,2,2,B|256:400|352:312,1,210
256,240,31412,1,6
424,72,32409,5,0
381,35,32576,1,0
328,24,32742,2,6,B|160:24,1,140
188,24,33240,1,6
144,192,33739,2,2,B|152:272|240:280,1,140
440,192,34736,5,4
360,120,35069,1,4
256,88,35401,2,2,B|168:88|120:160,1,140,6|2
160,192,35900,2,2,B|192:136|288:136,1,140
281,136,36398,1,0
256,208,36565,12,4,37229
56,192,37728,5,0
152,136,38060,2,2,B|256:96|360:136,1,210
408,232,38891,2,0,B|488:232,2,70
392,288,39390,2,2,B|312:328|240:288,1,140
320,144,40221,6,0,B|256:111|184:144,1,140
104,224,40886,2,2,B|256:376|416:224,1,350
320,168,42049,1,4
192,168,42382,1,4
256,64,42714,1,4
320,168,43047,6,2,B|376:232|320:296,1,140
192,168,43711,2,2,B|136:232|192:296,1,140
192,168,44376,6,2,B|256:112|320:168,1,140
320,296,45041,2,2,B|256:352|192:296,1,140
256,208,45706,1,0
344,144,46038,2,2,B|256:64|152:144,1,210
144,312,47035,1,0
256,320,47368,2,2,B|256:144,2,140
368,320,48365,5,0
424,304,48531,1,0
464,264,48698,1,2
328,160,49196,1,0
328,160,49362,1,0
320,272,49695,5,0
264,264,49861,1,0
216,232,50027,1,2
328,104,50526,1,0
328,104,50692,1,4
256,16,51024,1,0
184,104,51357,1,4
256,256,51855,5,4
416,256,52354,1,0
336,328,52686,1,4
256,112,64653,6,2,B|168:104|104:152,1,140
136,192,65650,1,0
192,200,65983,2,2,B|272:200|336:240,1,140
256,320,67312,2,2,B|184:320,1,70
184,264,67977,2,2,B|264:264,1,70
320,168,68642,6,2,B|320:96|256:80|192:96|192:168,1,210
256,320,69639,1,0
160,264,69972,2,2,B|256:184|352:264,1,210
320,96,70969,2,0,B|256:152|192:96,1,140,0|4
56,192,71800,1,2
224,192,72299,2,2,B|384:192,1,140
56,64,73628,5,0
56,64,73961,1,6
168,256,74626,1,2
256,192,74958,1,2
256,208,75290,12,4,84432
256,192,85927,5,0
