osu file format v13

[General]
AudioFilename: tsubasa.mp3
AudioLeadIn: 1500
PreviewTime: 10686
Countdown: 0
SampleSet: Soft
StackLeniency: 0.7
Mode: 0
LetterboxInBreaks: 0
WidescreenStoryboard: 0

[Editor]
DistanceSpacing: 0.7
BeatDivisor: 4
GridSize: 4
TimelineZoom: 1

[Metadata]
Title:TSUBASA -Game size-
TitleUnicode:TSUBASA -Game size-
Artist:Katakiri Rekka
ArtistUnicode:片霧烈火
Creator:EvilElvis
Version:Insane
Source:うみねこのなく頃に散
Tags:higurashi 10th anniversary Umineko no Naku Koro ni Chiru dai hope When They Cry 07th expansion visual novel damnae ryuu aka
BeatmapID:460474
BeatmapSetID:193832

[Difficulty]
HPDrainRate:7
CircleSize:4
OverallDifficulty:8
ApproachRate:9
SliderMultiplier:1.6
SliderTickRate:1

[Events]
//Background and Video events
0,0,"bg.jpg",0,0
//Break Periods
//Storyboard Layer 0 (Background)
//Storyboard Layer 1 (Fail)
//Storyboard Layer 2 (Pass)
//Storyboard Layer 3 (Foreground)
//Storyboard Sound Samples
//Background Colour Transformations
3,100,163,162,255

[TimingPoints]
880,332.409972299169,4,2,1,60,1,0
10686,-200,4,1,1,60,0,0
11517,-76.9230769230769,4,1,1,60,0,0
11849,-90.9090909090909,4,1,1,60,0,0
12181,-90.9090909090909,4,1,2,60,0,1
12265,-90.9090909090909,4,1,1,60,0,1
12514,-90.9090909090909,4,1,1,60,0,0
35449,-66.6666666666667,4,1,1,60,0,0
35783,-100,4,1,1,60,0,0
36447,-83.3333333333333,4,1,1,60,0,0
43428,-83.3333333333333,4,1,1,60,0,1
48747,-133.333333333333,4,1,1,60,0,0
51406,-100,4,1,1,60,0,0
63705,-83.3333333333333,4,1,1,60,0,0
64037,-76.9230769230769,4,1,1,60,0,0
64370,-71.4285714285714,4,1,1,60,0,0
64702,-133.333333333333,4,1,1,60,0,0
65035,-125,4,1,1,60,0,0
65367,-100,4,1,1,60,0,0
70021,-133.333333333333,4,1,1,60,0,0
72348,-100,4,1,1,60,0,0
72680,-76.9230769230769,4,1,1,60,0,0
73012,-83.3333333333333,4,1,1,60,0,0
75339,-66.6666666666667,4,1,1,60,0,0
84481,-166.666666666667,4,1,1,60,0,0
85145,-166.666666666667,4,1,1,15,0,0

[Colours]
Combo1 : 17,254,176
Combo2 : 173,255,95
Combo3 : 255,88,100
Combo4 : 255,94,55

[HitObjects]
63,171,547,5,0,1:0:0:0:
63,171,880,6,0,B|54:213|54:213|62:255,1,80,4|0,1:0|0:0,0:0:0:0:
236,333,1212,2,0,B|247:295|247:295|237:249,1,80,0|0,0:0|0:0,0:0:0:0:
279,169,1544,2,0,L|288:44,1,120,0|0,1:2|0:0,0:0:0:0:
287,49,1877,2,0,P|255:34|195:34,1,80,2|0,0:0|1:0,0:0:0:0:
0,103,2209,5,0,0:0:0:0:
95,201,2375,1,0,1:0:0:0:
95,201,2458,1,0,0:0:0:0:
95,201,2542,1,0,1:0:0:0:
204,124,2708,1,0,1:0:0:0:
111,33,2874,1,4,0:0:0:0:
11,223,3040,1,2,0:0:0:0:
16,246,3123,1,0,0:0:0:0:
19,269,3206,2,0,P|80:276|108:286,1,80,4|0,0:0|0:0,0:0:0:0:
312,298,3539,6,0,P|250:305|222:315,1,80,4|0,1:0|0:0,0:0:0:0:
233,311,3788,1,0,0:0:0:0:
233,311,3871,1,0,1:0:0:0:
158,350,4037,1,0,1:0:0:0:
421,359,4204,2,0,P|429:307|406:221,1,120
416,241,4536,2,0,P|409:201|421:155,1,80,0|0,1:0|0:0,0:0:0:0:
290,32,4868,6,0,P|298:70|291:110,1,80,0|0,1:0|1:0,0:0:0:0:
337,190,5201,2,0,L|171:205,1,160,4|0,0:0|1:0,0:0:0:0:
88,213,5699,1,0,0:0:0:0:
417,225,5866,1,4,0:0:0:0:
417,225,6198,6,0,P|431:265|432:308,1,80,12|0,1:0|0:0,0:0:0:0:
266,356,6530,2,0,P|252:324|250:269,1,80,8|0,0:0|0:0,0:0:0:0:
350,303,6863,1,8,0:0:0:0:
510,295,7029,1,0,0:0:0:0:
502,321,7112,1,0,0:0:0:0:
496,348,7195,1,8,0:0:0:0:
293,192,7361,1,0,0:0:0:0:
318,179,7444,1,0,0:0:0:0:
339,161,7527,5,8,0:0:0:0:
512,258,7694,1,8,0:0:0:0:
344,220,7860,1,0,0:0:0:0:
506,194,8026,1,8,0:0:0:0:
493,168,8109,1,0,0:0:0:0:
486,140,8193,1,0,0:0:0:0:
489,49,8359,1,8,0:0:0:0:
406,94,8525,5,8,1:0:0:0:
359,82,8608,1,0,0:0:0:0:
312,93,8691,1,0,0:0:0:0:
269,114,8774,1,8,1:0:0:0:
222,110,8857,5,4,0:2:0:0:
104,28,9024,1,0,1:0:0:0:
7,153,9190,1,8,0:0:0:0:
135,226,9356,1,4,0:2:0:0:
193,128,9522,1,8,3:0:0:0:
107,69,9688,1,4,0:0:0:0:
46,147,9855,1,4,0:2:0:0:
130,200,10021,1,4,3:0:0:0:
3,210,10187,5,4,1:0:0:0:
247,212,10353,1,8,1:0:0:0:
14,193,10519,1,8,1:0:0:0:
233,231,10686,2,2,L|224:49,1,180,2|0,1:0|2:0,0:0:0:0:
131,90,11517,6,0,B|152:136|152:136|140:199,1,103.999995239258,6|0,1:0|0:0,0:0:0:0:
329,294,11849,2,0,B|312:256|312:256|321:195,1,88.000002685547,8|2,1:2|0:0,0:0:0:0:
220,308,12181,2,0,B|154:320|154:320|136:338|136:338|48:355,1,176.000005371094,6|10,1:2|0:0,0:0:0:0:
311,372,12680,5,0,0:0:0:0:
406,332,12846,2,0,P|418:295|393:221,1,88.000002685547,6|2,0:0|0:0,0:0:0:0:
410,82,13179,1,8,0:0:0:0:
400,101,13262,1,0,0:0:0:0:
395,122,13345,1,4,2:0:0:0:
312,201,13511,1,2,0:0:0:0:
503,160,13677,1,0,0:0:0:0:
357,11,13843,2,0,P|292:27|255:81,1,132.00000402832,10|0,0:0|2:0,0:0:0:0:
223,178,14176,6,0,P|225:227|234:265,1,88.000002685547,6|0,0:0|0:0,0:0:0:0:
439,249,14508,2,0,P|436:199|427:161,1,88.000002685547,8|2,0:0|0:0,0:0:0:0:
199,375,14841,1,0,0:0:0:0:
495,311,15007,1,2,0:0:0:0:
333,269,15173,2,0,L|348:365,1,88.000002685547,10|0,0:0|0:0,0:0:0:0:
346,355,15422,1,0,0:0:0:0:
346,355,15506,5,6,0:0:0:0:
423,199,15672,1,0,0:0:0:0:
245,213,15838,1,8,0:0:0:0:
245,213,15921,1,0,0:0:0:0:
245,213,16004,1,2,0:0:0:0:
103,323,16170,2,2,P|162:351|261:307,1,176.000005371094,6|10,0:0|0:0,0:0:0:0:
343,169,16669,5,0,2:0:0:0:
274,27,16835,2,0,P|234:18|181:19,1,88.000002685547,4|0,1:2|0:0,0:0:0:0:
39,251,17168,2,0,P|82:251|125:242,1,88.000002685547,8|2,0:0|0:0,0:0:0:0:
175,92,17500,5,0,0:0:0:0:
65,69,17666,2,0,P|50:106|59:159,1,88.000002685547,0|10,0:0|0:0,0:0:0:0:
256,254,17999,1,0,0:0:0:0:
366,207,18165,2,0,P|381:170|372:117,1,88.000002685547,6|2,0:0|0:0,0:0:0:0:
166,202,18497,5,0,0:0:0:0:
108,286,18663,1,2,0:0:0:0:
194,346,18830,2,0,L|370:358,1,176.000005371094,2|8,0:0|0:0,0:0:0:0:
363,341,19245,1,0,3:0:0:0:
357,324,19328,1,0,3:0:0:0:
498,221,19494,6,0,L|314:241,1,176.000005371094,6|8,0:0|0:0,0:0:0:0:
158,134,19993,1,2,0:0:0:0:
266,154,20159,2,0,B|310:168|310:168|357:157,1,88.000002685547,0|2,0:0|0:0,0:0:0:0:
352,20,20492,2,0,B|306:10|306:10|265:28,1,88.000002685547,10|2,0:0|0:0,0:0:0:0:
450,112,20824,2,0,L|464:12,1,88.000002685547,4|0,1:2|0:0,0:0:0:0:
495,252,21157,2,0,L|509:152,1,88.000002685547,12|0,1:2|0:0,0:0:0:0:
408,349,21489,2,0,L|422:249,1,88.000002685547,2|2,1:0|0:0,0:0:0:0:
250,71,21821,5,12,1:2:0:0:
250,71,22154,6,0,L|236:260,1,176.000005371094,6|8,0:0|0:0,0:0:0:0:
307,319,22652,1,2,0:0:0:0:
194,366,22819,2,0,P|130:366|82:349,1,88.000002685547
75,185,23151,2,0,P|118:176|161:178,1,88.000002685547,10|0,0:0|0:0,0:0:0:0:
79,262,23400,1,0,0:0:0:0:
64,273,23483,6,0,B|78:160|27:216|56:78,2,176.000005371094,6|10|2,0:0|0:0|0:0,0:0:0:0:
6,353,24314,1,2,0:0:0:0:
291,289,24481,1,12,1:2:0:0:
291,289,24813,6,0,P|241:299|153:201,1,176.000005371094,6|8,0:0|0:0,0:0:0:0:
147,61,25312,1,6,0:0:0:0:
242,209,25478,1,0,0:0:0:0:
138,345,25644,1,0,0:0:0:0:
23,184,25810,2,0,P|52:170|112:168,1,88.000002685547,14|0,0:0|0:0,0:0:0:0:
330,217,26143,6,0,L|343:382,1,132.00000402832,6|2,0:0|2:1,0:0:0:0:
316,320,26475,1,8,0:0:0:0:
238,232,26641,2,2,L|255:53,1,176.000005371094,2|2,0:0|0:0,0:0:0:0:
346,16,27140,1,12,0:2:0:0:
443,45,27306,1,2,0:0:0:0:
512,347,27472,6,0,P|441:362|347:304,1,176.000005371094,4|0,0:0|0:0,0:0:0:0:
147,310,27971,2,0,P|209:310|276:203,1,176.000005371094,4|0,0:0|0:0,0:0:0:0:
37,162,28470,2,0,P|26:203|57:264,1,88.000002685547
154,192,28802,6,0,B|175:87|113:133|153:12,1,176.000005371094,2|0,0:0|0:0,0:0:0:0:
191,274,29301,1,2,0:0:0:0:
130,340,29467,2,0,P|89:349|36:347,1,88.000002685547,2|0,0:0|0:0,0:0:0:0:
51,214,29799,2,0,P|94:212|137:222,1,88.000002685547,2|0,0:0|0:0,0:0:0:0:
14,279,30132,6,0,L|-4:88,1,176.000005371094,4|0,1:2|0:0,0:0:0:0:
147,46,30630,1,4,1:2:0:0:
57,39,30796,1,0,0:2:0:0:
232,55,30963,1,0,0:0:0:0:
316,30,31129,5,4,1:2:0:0:
314,56,31212,1,8,0:0:0:0:
311,82,31295,1,0,0:0:0:0:
303,174,31461,1,4,0:2:0:0:
396,149,31627,1,8,0:0:0:0:
489,123,31794,1,0,0:0:0:0:
482,152,31877,1,8,3:0:0:0:
476,182,31960,1,0,0:0:0:0:
476,212,32043,1,8,0:0:0:0:
476,242,32126,1,4,1:2:0:0:
483,271,32209,1,0,0:0:0:0:
496,298,32292,1,4,0:2:0:0:
489,328,32375,1,8,0:0:0:0:
509,350,32458,6,0,P|461:356|411:369,1,88.000002685547,8|4,0:0|3:0,0:0:0:0:
234,270,32791,2,0,L|441:290,1,176.000005371094,6|8,0:0|0:0,0:0:0:0:
312,359,33289,1,0,0:0:0:0:
151,263,33456,1,0,0:0:0:0:
352,192,33622,1,0,0:0:0:0:
503,312,33788,2,0,P|450:304|415:302,1,88.000002685547,10|0,0:0|0:0,0:0:0:0:
258,196,34120,6,0,L|270:16,1,176.000005371094,6|12,0:0|0:2,0:0:0:0:
252,301,34785,1,4,0:2:0:0:
252,301,35118,1,4,0:2:0:0:
252,301,35450,6,0,L|9:314,1,240.000009155274,6|8,0:0|0:0,0:0:0:0:
332,316,35949,2,0,L|508:303,1,160,2|0,0:0|0:0,0:0:0:0:
220,179,36447,6,0,P|158:185|114:187,1,95.9999970703126,10|0,0:0|0:0,0:0:0:0:
328,206,36780,2,0,P|390:200|434:198,1,95.9999970703126,6|0,0:0|0:0,0:0:0:0:
66,243,37112,2,0,P|31:244|4:251,2,47.9999985351563,8|0|2,0:0|0:0|0:0,0:0:0:0:
3,71,37445,2,0,P|63:93|188:47,1,191.999994140625,2|10,0:0|0:0,0:0:0:0:
431,102,37943,1,2,0:0:0:0:
332,110,38109,6,0,P|278:115|225:140,1,95.9999970703126,4|0,0:2|0:0,0:0:0:0:
241,300,38442,2,0,P|285:317|333:321,1,95.9999970703126,10|2,0:0|0:0,0:0:0:0:
503,182,38774,1,2,0:0:0:0:
394,372,38940,1,0,0:0:0:0:
382,54,39107,2,0,P|414:89|435:132,1,95.9999970703126,10|2,0:0|0:0,0:0:0:0:
167,217,39439,6,0,P|151:151|223:48,2,191.999994140625,4|10|0,0:2|0:0|0:0,0:0:0:0:
301,283,40270,1,2,0:0:0:0:
196,378,40436,1,10,0:0:0:0:
60,303,40602,1,8,0:0:0:0:
333,361,40769,6,0,P|367:366|434:348,1,95.9999970703126,4|0,0:0|0:0,0:0:0:0:
406,146,41101,2,0,P|372:141|305:159,1,95.9999970703126,10|0,0:0|0:0,0:0:0:0:
501,246,41434,2,0,L|515:134,1,95.9999970703126,2|2,0:0|0:0,0:0:0:0:
501,246,41766,2,0,L|512:341,1,95.9999970703126,10|2,0:0|0:0,0:0:0:0:
338,253,42098,6,0,L|126:271,1,191.999994140625,4|12,0:2|0:2,0:0:0:0:
12,199,42597,1,0,0:0:0:0:
99,153,42763,2,0,P|144:166|200:163,1,95.9999970703126,4|0,0:2|0:0,0:0:0:0:
466,313,43096,1,10,0:0:0:0:
428,303,43179,1,0,0:0:0:0:
390,313,43262,1,2,0:0:0:0:
357,333,43345,1,0,0:0:0:0:
343,375,43428,6,0,B|374:259|301:320|336:174,1,191.999994140625,6|10,0:0|0:0,0:0:0:0:
346,90,43927,1,2,0:0:0:0:
231,29,44093,2,0,P|243:85|235:130,1,95.9999970703126
161,304,44425,2,0,P|198:260|213:217,1,95.9999970703126,10|2,0:0|0:0,0:0:0:0:
416,351,44758,6,0,P|356:338|290:218,1,191.999994140625,4|10,0:0|0:0,0:0:0:0:
23,149,45256,1,2,0:0:0:0:
103,190,45422,2,0,P|158:200|246:105,1,191.999994140625,2|12,0:0|0:2,0:0:0:0:
257,89,45838,1,0,0:0:0:0:
246,67,45921,1,2,0:0:0:0:
260,48,46004,1,0,0:0:0:0:
243,30,46087,6,0,L|368:45,1,95.9999970703126,6|0,0:0|0:0,0:0:0:0:
433,177,46420,1,8,0:0:0:0:
361,228,46586,2,0,P|348:192|360:128,1,95.9999970703126,6|0,0:0|0:0,0:0:0:0:
504,281,46918,1,0,0:0:0:0:
406,340,47084,2,0,P|361:330|282:328,1,95.9999970703126
25,259,47417,6,0,P|115:282|203:247,1,191.999994140625,6|8,0:0|0:0,0:0:0:0:
277,88,47916,1,0,0:0:0:0:
122,28,48082,1,0,0:0:0:0:
100,53,48165,1,0,0:0:0:0:
90,85,48248,1,0,0:0:0:0:
96,117,48331,1,0,0:0:0:0:
117,142,48414,1,8,0:0:0:0:
147,156,48497,1,0,0:0:0:0:
180,158,48580,1,0,0:0:0:0:
217,152,48663,1,0,0:0:0:0:
233,189,48747,6,0,L|248:55,2,120.000004577637,4|0|4,1:0|0:0|0:2,0:0:0:0:
233,189,49744,1,0,0:0:0:0:
271,309,49910,1,8,0:0:0:0:
271,309,49993,1,0,0:0:0:0:
271,309,50076,2,0,L|396:319,1,120.000004577637,4|0,0:0|0:0,0:0:0:0:
505,273,50575,1,0,0:0:0:0:
452,336,50741,2,0,L|327:346,1,120.000004577637,4|8,0:2|0:0,0:0:0:0:
165,284,51240,1,0,0:0:0:0:
252,156,51406,6,0,L|426:169,1,160,6|0,0:0|0:0,0:0:0:0:
270,246,51904,2,0,L|96:233,1,160,6|0,0:0|0:0,0:0:0:0:
26,165,52403,1,6,0:0:0:0:
135,88,52569,1,2,0:0:0:0:
158,90,52652,1,0,0:0:0:0:
182,96,52735,2,0,L|76:109,1,80,4|0,0:2|0:0,0:0:0:0:
26,165,53068,5,2,0:0:0:0:
151,9,53234,1,4,0:2:0:0:
315,121,53400,1,0,0:0:0:0:
187,280,53566,1,2,0:0:0:0:
26,165,53733,1,4,0:2:0:0:
67,150,53816,1,0,0:0:0:0:
109,161,53899,1,0,0:0:0:0:
137,194,53982,1,0,0:0:0:0:
157,172,54065,6,0,P|149:212|147:278,1,80,6|0,0:0|0:0,0:0:0:0:
322,305,54398,2,0,P|323:265|314:225,1,80,8|2,0:0|0:0,0:0:0:0:
74,350,54730,2,0,P|122:328|244:358,1,160,2|8,0:0|0:0,0:0:0:0:
392,230,55229,5,0,0:0:0:0:
489,200,55395,2,0,P|493:240|480:298,1,80,2|0,0:0|0:0,0:0:0:0:
201,217,55727,1,8,0:0:0:0:
251,135,55893,2,0,P|329:151|415:93,1,160,2|2,0:0|0:0,0:0:0:0:
492,117,56392,2,0,P|476:79|472:33,1,80,8|2,0:0|0:0,0:0:0:0:
305,31,56724,6,0,P|251:46|144:17,1,160,4|8,0:2|0:0,0:0:0:0:
0,151,57223,2,0,P|75:126|153:142,1,160,4|0,0:2|0:0,0:0:0:0:
255,209,57722,6,0,P|268:249|263:292,1,80,12|2,0:2|0:0,0:0:0:0:
96,293,58054,2,0,P|86:254|93:215,1,80,6|2,0:0|0:0,0:0:0:0:
367,300,58386,1,10,0:0:0:0:
183,384,58553,2,2,L|175:217,1,160,2|2,0:0|0:0,0:0:0:0:
182,111,59051,1,0,0:2:0:0:
218,80,59134,1,0,0:0:0:0:
264,68,59217,1,4,0:2:0:0:
313,73,59301,1,0,0:0:0:0:
359,86,59384,6,0,P|377:126|375:171,1,80,6|0,0:0|0:0,0:0:0:0:
469,109,59716,1,8,0:0:0:0:
394,246,59882,1,8,0:0:0:0:
282,156,60048,1,0,0:0:0:0:
337,4,60215,1,2,0:0:0:0:
469,109,60381,2,0,P|455:153|452:193,1,80,8|8,0:0|0:0,0:0:0:0:
485,337,60713,6,0,B|375:320|453:365|305:342,1,160,6|8,0:0|0:0,0:0:0:0:
246,384,61212,2,0,L|228:213,1,160,12|10,0:2|0:0,0:0:0:0:
214,49,61711,2,0,L|224:128,1,80,8|2,0:0|0:0,0:0:0:0:
142,230,62043,5,4,0:0:0:0:
37,255,62209,1,2,0:0:0:0:
2,144,62375,1,8,0:0:0:0:
115,118,62542,1,2,0:0:0:0:
238,155,62708,5,4,0:2:0:0:
69,182,62874,1,2,0:0:0:0:
245,43,63040,5,8,0:2:0:0:
352,101,63206,1,2,0:0:0:0:
280,294,63373,6,0,P|243:326|163:325,1,120,4|0,0:2|2:0,0:0:0:0:
81,189,63705,6,0,P|139:188|198:253,1,143.999995605469,4|0,0:2|2:0,0:0:0:0:
0,347,64037,6,0,P|21:295|119:271,1,155.999992858887,4|0,0:2|2:2,0:0:0:0:
306,180,64370,6,0,L|319:349,1,167.999994873047,2|0,0:0|2:0,0:0:0:0:
232,356,64702,6,0,P|228:330|230:289,1,60.0000022888184,6|0,0:0|0:0,0:0:0:0:
402,200,65035,2,0,P|406:235|402:269,1,64,8|0,0:0|0:0,0:0:0:0:
224,190,65367,2,0,P|216:138|219:102,1,80,2|0,0:0|0:0,0:0:0:0:
470,30,65699,1,14,0:2:0:0:
470,30,65866,1,6,0:2:0:0:
498,277,66032,6,0,P|430:270|353:324,1,160,6|10,0:0|0:0,0:0:0:0:
177,239,66530,1,2,0:0:0:0:
113,161,66697,2,0,P|156:142|194:139,1,80,4|0,0:2|0:0,0:0:0:0:
186,331,67029,2,0,P|146:325|110:308,1,80,10|2,0:0|0:0,0:0:0:0:
154,247,67278,1,0,0:0:0:0:
177,239,67361,6,0,B|231:230|231:230|267:246|267:246|352:228,1,160,4|10,0:2|0:0,0:0:0:0:
475,174,67860,1,2,0:0:0:0:
380,34,68026,2,0,B|364:74|364:74|381:123,1,80,4|2,0:2|0:0,0:0:0:0:
434,378,68359,2,0,B|446:338|446:338|431:292,1,80,10|2,0:0|0:0,0:0:0:0:
468,214,68691,6,0,P|406:210|345:295,1,160,6|8,0:0|0:0,0:0:0:0:
162,307,69190,2,0,P|225:286|307:359,1,160,6|0,0:0|0:0,0:0:0:0:
196,213,69688,1,8,0:0:0:0:
155,229,69771,1,0,0:2:0:0:
110,233,69855,1,0,0:0:0:0:
66,233,69938,1,0,0:0:0:0:
47,275,70021,6,0,B|28:195|28:195|55:141|55:141|27:39,1,240.000009155274,4|4,0:0|0:2,0:0:0:0:
200,308,71018,1,0,0:0:0:0:
284,310,71184,1,8,0:3:0:0:
315,321,71267,1,8,0:3:0:0:
333,349,71350,6,0,B|352:269|352:269|325:215|325:215|353:113,1,240.000009155274,4|4,0:0|0:2,0:0:0:0:
207,19,72181,5,0,0:0:0:0:
246,116,72348,2,0,L|232:169,1,40,10|0,0:0|0:0,0:0:0:0:
176,219,72514,2,0,L|192:272,1,40,2|0,0:0|0:0,0:0:0:0:
242,347,72680,6,0,L|19:373,1,207.999990478516,6|8,0:0|0:0,0:0:0:0:
102,247,73179,1,2,0:0:0:0:
13,168,73345,2,0,B|0:122|0:122|13:61,1,95.9999970703126,0|2,0:0|0:0,0:0:0:0:
109,40,73677,1,8,0:0:0:0:
148,23,73760,1,0,0:0:0:0:
191,22,73843,1,2,0:0:0:0:
232,37,73927,1,0,0:0:0:0:
269,60,74010,6,0,P|311:47|372:44,1,95.9999970703126,4|0,0:2|0:0,0:0:0:0:
374,313,74342,2,0,P|327:311|271:296,1,95.9999970703126,8|2,0:0|0:0,0:0:0:0:
173,177,74675,1,4,0:2:0:0:
212,159,74758,1,0,0:0:0:0:
254,154,74841,1,0,0:0:0:0:
294,169,74924,1,0,0:0:0:0:
326,197,75007,1,4,0:2:0:0:
366,211,75090,1,0,0:0:0:0:
409,207,75173,1,0,0:0:0:0:
436,173,75256,1,0,0:0:0:0:
456,213,75339,6,0,L|446:82,1,120.000004577637,6|0,0:0|2:0,0:0:0:0:
263,378,75672,2,0,L|273:247,1,120.000004577637,12|0,0:0|2:0,0:0:0:0:
296,32,76004,5,14,0:0:0:0:
296,32,76170,1,14,0:0:0:0:
296,32,76503,2,0,P|236:29|165:49,1,120.000004577637,2|0,0:0|2:0,0:0:0:0:
25,272,76835,2,0,P|79:289|156:289,1,120.000004577637,10|0,0:0|2:0,0:0:0:0:
405,200,77168,1,6,0:0:0:0:
405,200,77334,5,12,0:0:0:0:
318,206,77666,1,6,0:0:0:0:
318,206,77999,6,0,B|301:260|301:260|331:339,1,120.000004577637,4|0,0:2|2:0,0:0:0:0:
481,166,78331,2,0,B|498:112|498:112|468:33,1,120.000004577637,10|0,0:0|2:0,0:0:0:0:
221,21,78663,1,14,0:0:0:0:
221,21,78830,1,14,0:0:0:0:
221,21,79162,6,0,P|197:79|208:151,1,120.000004577637,4|0,0:2|2:0,0:0:0:0:
389,364,79494,2,0,P|413:306|402:234,1,120.000004577637,8|0,0:0|2:0,0:0:0:0:
310,163,79827,1,8,0:0:0:0:
165,229,79993,1,10,0:0:0:0:
235,359,80159,1,8,0:0:0:0:
354,282,80325,1,4,0:2:0:0:
316,261,80409,1,0,0:0:0:0:
275,255,80492,1,2,0:0:0:0:
237,273,80575,1,0,0:0:0:0:
219,317,80658,6,0,L|207:168,1,120.000004577637,6|0,0:0|2:0,0:0:0:0:
354,35,80990,2,0,L|344:154,1,120.000004577637,8|0,0:0|2:0,0:0:0:0:
62,309,81323,1,14,0:0:0:0:
62,309,81489,1,14,0:0:0:0:
62,309,81821,6,0,P|108:290|182:299,1,120.000004577637,2|0,0:0|2:0,0:0:0:0:
470,223,82154,2,0,P|424:204|350:213,1,120.000004577637,8|0,0:0|2:0,0:0:0:0:
261,332,82486,1,14,0:0:0:0:
426,360,82652,1,14,0:0:0:0:
426,360,82985,1,6,0:0:0:0:
426,360,83317,6,0,L|297:379,1,120.000004577637,2|0,0:0|2:0,0:0:0:0:
106,234,83650,2,0,L|235:253,1,120.000004577637,10|0,0:0|2:0,0:0:0:0:
471,214,83982,1,14,0:0:0:0:
471,214,84148,1,14,0:0:0:0:
471,214,84481,6,0,L|512:20,1,191.999994140625,4|0,0:2|2:0,0:0:0:0:
