osu file format v12

[General]
AudioFilename: 08 - say your prayer.mp3
AudioLeadIn: 0
PreviewTime: 45536
Countdown: 0
SampleSet: Soft
StackLeniency: 0.7
Mode: 0
LetterboxInBreaks: 1
WidescreenStoryboard: 1

[Editor]
Bookmarks: 30889
DistanceSpacing: 0.6
BeatDivisor: 2
GridSize: 4

[Metadata]
Title:Say Your Prayer
TitleUnicode:Say Your Prayer
Artist:Katakiri Rekka
ArtistUnicode:片霧烈火
Creator:BluOxy
Version:Collab
Source:しゃーまんず・さんくちゅあり-巫女の聖域-(Shamans sanctuary -Miko no Seiiki -)
Tags:Alternative oslea eroge song GWAVE 2010 2nd Grace Alicesoft
BeatmapID:293168
BeatmapSetID:79852

[Difficulty]
HPDrainRate:7
CircleSize:4
OverallDifficulty:7
ApproachRate:9
SliderMultiplier:2.2
SliderTickRate:2

[Events]
//Background and Video events
0,0,"28673941_p0.jpg",0,0
//Break Periods
2,79618,85877
2,181795,183289
//Storyboard Layer 0 (Background)
//Storyboard Layer 1 (Fail)
//Storyboard Layer 2 (Pass)
//Storyboard Layer 3 (Foreground)
Sprite,Foreground,Centre,"EODHIwoXULJZRaB1361366622_1361366754.jpg",320,240 S,0,22918,,0.6216058 F,0,22918,23006,0,0.2277373 M,0,22918,23271,540,441 F,0,23006,23094,0.2277373,0.5430658 F,0,23094,23183,0.5430658,0.8864235 F,0,23183,23271,0.8864235,1 M,0,23271,29977,540,441 F,0,23271,33594,1,0.789781 M,0,29977,33506,540,441 F,0,33594,33683,0.789781,0.5970804 F,0,33683,33771,0.5970804,0.3202921 F,0,33771,33859,0.3202921,0
Sprite,Foreground,Centre,"EODHIwoXULJZRaB1361366622_1361366754.jpg",320,240 M,0,68094,,538,442 S,0,68094,,0.5935443 F,0,68094,68182,1,0.238248 F,0,68182,68271,0.238248,0.5570801 F,0,68271,68359,0.5570801,0.956496 F,0,68359,68447,0.956496,1 F,0,68447,79035,1 F,0,79035,79388,1,0
Sprite,Foreground,Centre,"EODHIwoXULJZRaB1361366622_1361366754.jpg",320,240 M,0,124565,,539,442 S,0,124565,,0.6076035 F,0,124565,124653,0.5055344,0.2382481 F,0,124653,124741,0.2382481,0.6446715 F,0,124741,124829,0.6446715,0.9109488 F,0,124829,124918,0.9109488,1 F,0,124918,135241,1,0.8248175 F,0,135241,135329,0.8248175,0.611095 F,0,135329,135418,0.611095,0.3973723 F,0,135418,135506,0.3973723,0
Sprite,Foreground,Centre,"EODHIwoXULJZRaB1361366622_1361366754.jpg",320,240 S,0,147153,,0.6145988 F,0,147153,147241,0,0.2277371 M,0,147153,147506,539,442 F,0,147241,147329,0.2277371,0.5290509 F,0,147329,147418,0.5290509,0.8058391 F,0,147418,147506,0.8058391,1 M,0,147506,157741,539,442 F,0,147506,157829,1,0.8353285 F,0,157829,157918,0.8353285,0.6075913 F,0,157918,158006,0.6075913,0.3903649 F,0,158006,158094,0.3903649,0
Sprite,Foreground,Centre,"EODHIwoXULJZRaB1361366622_1361366754.jpg",320,240 M,0,172565,,540,443 S,0,172565,,0.6146048 F,0,172565,172653,0.6247673,0.2487592 F,0,172653,172741,0.2487592,0.5255475 F,0,172741,172829,0.5255475,0.7988321 F,0,172829,172918,0.7988321,1 F,0,172918,183241,1,0.7547444 F,0,183241,183329,0.7547444,0.569051 F,0,183329,183418,0.569051,0.4639415 F,0,183418,183506,0.4639415,0
Sprite,Foreground,Centre,"EODHIwoXULJZRaB1361366622_1361366754.jpg",320,240 S,0,195153,,0.6145985 F,0,195153,195241,0,0.1856934 M,0,195153,195506,539,443 F,0,195241,195329,0.1856934,0.4099269 F,0,195329,195418,0.4099269,0.6411679 F,0,195418,195506,0.6411679,1 M,0,195506,205741,539,443 F,0,195506,205829,1,0.7477371 F,0,205829,205918,0.7477371,0.5795618 F,0,205918,206006,0.5795618,0.2852553 F,0,206006,206094,0.2852553,0
Sprite,Foreground,Centre,"EODHIwoXULJZRaB1361366622_1361366754.jpg",320,240 S,0,221977,,0.6286128 F,0,221977,222065,0,0.3223357 M,0,221977,222329,541,442 F,0,222065,222153,0.3223357,0.6131386 F,0,222153,222241,0.6131386,0.9319708 F,0,222241,222329,0.9319708,1 M,0,222329,228329,541,442 F,0,222329,228418,1,0.74073 F,0,228418,228506,0.74073,0.5900731 F,0,228506,228594,0.5900731,0.3973725 F,0,228594,228682,0.3973725,0
Sprite,Foreground,Centre,"EODHIwoXULJZRaB1361366622_1361366754.jpg",320,240 S,0,240329,,0.6216059 F,0,240329,240418,0,0.2767883 M,0,240329,240682,540,442 F,0,240418,240506,0.2767883,0.5745984 F,0,240506,240594,0.5745984,0.7918246 F,0,240594,240682,0.7918246,1 M,0,240682,250918,540,442 F,0,240682,251006,1,0.7056932 F,0,251006,251094,0.7056932,0.4709486 F,0,251094,251182,0.4709486,0.2572261 F,0,251182,251271,0.2572261,0
Sprite,Foreground,Centre,"EODHIwoXULJZRaB1361366622_1361366754.jpg",320,240 S,0,262918,,0.6005838 F,0,262918,263006,0,0.2767882 M,0,262918,263271,537,443 F,0,263006,263094,0.2767882,0.5290508 F,0,263094,263182,0.5290508,0.756788 F,0,263182,263271,0.756788,1 M,0,263271,273859,537,443 F,0,263271,274300,1,0.7477374 M,0,273859,274212,537,443 F,0,274035,,0.4919708 F,0,274300,274388,0.7477374,0.4464236 F,0,274388,274477,0.4464236,0.2011682 F,0,274477,274565,0.2011682,0
Sprite,Foreground,Centre,"EODHIwoXULJZRaB1361366622_1361366754.jpg",320,240 S,0,217741,,0.6216049 F,0,217741,217829,0,0.339854 M,0,217741,218094,540,442 F,0,217829,217918,0.339854,0.6131386 F,0,217918,218006,0.6131386,0.8268611 F,0,218006,218094,0.8268611,1 M,0,218094,227006,540,442 F,0,218094,228418,1,0.7021896 M,0,227006,228329,540,442 F,0,228418,228506,0.7021896,0.4954742 F,0,228506,228594,0.4954742,0.2221896 F,0,228594,228682,0.2221896,0.02248151
Sprite,Foreground,Centre,"EODHIwoXULJZRaB1361366622_1361366754.jpg",320,240 S,0,101977,,0.6216058 F,0,101977,102065,0,0.1611681 M,0,101977,102329,540,443 F,0,102065,102153,0.1611681,0.3538687 F,0,102153,102241,0.3538687,0.7848175 F,0,102241,102329,0.7848175,1 M,0,102329,112565,540,443 F,0,102329,112653,1,0.7722628 F,0,112653,112741,0.7722628,0.5410218 F,0,112741,112829,0.5410218,0.3553283 F,0,112829,112918,0.3553283,0
Sprite,Foreground,Centre,"EODHIwoXULJZRaB1361366622_1361366754.jpg",320,240 S,0,45506,,0.6216058 F,0,45506,45594,0,0.2277373 M,0,45506,45859,540,441 F,0,45594,45682,0.2277373,0.5430658 F,0,45682,45771,0.5430658,0.8864235 F,0,45771,45859,0.8864235,1 M,0,45859,52565,540,441 F,0,45859,56182,1,0.789781 M,0,52565,56094,540,441 F,0,56182,56271,0.789781,0.5970804 F,0,56271,56359,0.5970804,0.3202921 F,0,56359,56447,0.3202921,0
Sprite,Foreground,Centre,"b2HwuUFJCgtF0VG1377348070_1377348246.jpg",320,240 M,0,34212,,540,442 S,0,34212,,0.6142465 F,0,34212,34918,0,1 F,0,34918,44800,1 F,0,44800,45153,1,0
Sprite,Foreground,Centre,"b2HwuUFJCgtF0VG1377348070_1377348246.jpg",320,240 M,0,56800,,540,442 S,0,56800,,0.6142465 F,0,56800,57506,0,1 F,0,57506,67388,1 F,0,67388,67741,1,0
Sprite,Foreground,Centre,"b2HwuUFJCgtF0VG1377348070_1377348246.jpg",320,240 M,0,90682,,540,442 S,0,90682,,0.6142465 F,0,90682,91388,0,1 F,0,91388,101270,1 F,0,101270,101623,1,0
Sprite,Foreground,Centre,"b2HwuUFJCgtF0VG1377348070_1377348246.jpg",320,240 M,0,135859,,540,442 S,0,135859,,0.6142465 F,0,135859,136565,0,1 F,0,136565,146447,1 F,0,146447,146800,1,0
Sprite,Foreground,Centre,"b2HwuUFJCgtF0VG1377348070_1377348246.jpg",320,240 M,0,113271,,540,442 S,0,113271,,0.6142465 F,0,113271,113977,0,1 F,0,113977,123859,1 F,0,123859,124212,1,0
Sprite,Foreground,Centre,"b2HwuUFJCgtF0VG1377348070_1377348246.jpg",320,240 M,0,183859,,540,442 S,0,183859,,0.6142465 F,0,183859,184565,0,1 F,0,184565,194447,1 F,0,194447,194800,1,0
Sprite,Foreground,Centre,"b2HwuUFJCgtF0VG1377348070_1377348246.jpg",320,240 M,0,158447,,540,442 S,0,158447,,0.6142465 F,0,158447,159153,0,1 F,0,159153,169035,1 F,0,169035,169388,1,0
Sprite,Foreground,Centre,"b2HwuUFJCgtF0VG1377348070_1377348246.jpg",320,240 M,0,206447,,540,442 S,0,206447,,0.6142465 F,0,206447,207153,0,1 F,0,207153,217035,1 F,0,217035,217388,1,0
Sprite,Foreground,Centre,"b2HwuUFJCgtF0VG1377348070_1377348246.jpg",320,240 M,0,229035,,540,442 S,0,229035,,0.6142465 F,0,229035,229741,0,1 F,0,229741,239623,1 F,0,239623,239976,1,0
Sprite,Foreground,Centre,"b2HwuUFJCgtF0VG1377348070_1377348246.jpg",320,240 M,0,251624,,540,442 S,0,251624,,0.6142465 F,0,251624,252330,0,1 F,0,252330,262212,1 F,0,262212,262565,1,0
//Storyboard Sound Samples
//Background Colour Transformations
3,100,163,162,255

[TimingPoints]
360,352.941176470588,4,2,3,40,1,0
22948,-100,4,2,3,65,0,0
23124,-100,4,2,3,40,0,0
23301,-100,4,2,3,65,0,0
23830,-100,4,2,3,40,0,0
24359,-100,4,2,3,65,0,0
25065,-100,4,2,3,40,0,0
25771,-100,4,2,3,65,0,0
27184,-200,4,2,3,65,0,0
27712,-100,4,2,3,65,0,0
28771,-100,4,2,3,40,0,0
28948,-100,4,2,3,65,0,0
29654,-100,4,2,3,40,0,0
30007,-100,4,2,3,65,0,0
32124,-100,4,2,3,70,0,0
32301,-100,4,2,3,75,0,0
32477,-100,4,2,3,65,0,0
34242,-100,4,2,3,55,0,0
39889,-100,4,2,3,60,0,0
42712,-100,4,1,1,65,0,0
45536,-83.3333333333333,4,1,1,65,0,1
50654,-50,4,1,1,65,0,1
51183,-83.3333333333333,4,1,1,65,0,1
55418,-83.3333333333333,4,1,1,65,0,0
56830,-83.3333333333333,4,1,1,65,0,1
68124,-100,4,1,1,65,0,0
90712,-200,4,2,3,55,0,0
102007,-100,4,2,3,60,0,0
110477,-100,4,1,1,65,0,0
113301,-83.3333333333333,4,1,1,65,0,1
123183,-83.3333333333333,4,1,1,65,0,0
124595,-83.3333333333333,4,1,1,65,0,1
135889,-100,4,1,1,65,0,0
137654,-100,4,1,1,65,0,0
147183,-100,4,1,1,65,0,1
157418,-100,4,1,1,65,0,0
158477,-100,4,1,1,65,0,1
169771,-100,4,1,1,65,0,0
172595,-200,4,2,3,55,0,0
183889,-100,4,2,3,60,0,0
193771,-100,4,1,1,65,0,0
195183,-83.3333333333333,4,1,1,65,0,1
199948,-50,4,1,1,65,0,1
200301,-83.3333333333333,4,1,1,65,0,1
205065,-83.3333333333333,4,1,1,65,0,0
206477,-83.3333333333333,4,1,1,65,0,1
222007,-100,4,1,1,65,0,1
222183,-83.3333333333333,4,1,1,65,0,1
229065,-71.4285714285714,4,1,1,65,0,1
240359,-100,4,1,1,65,0,0
262948,-133.333333333333,4,1,1,65,0,0
274242,-133.333333333333,4,2,3,65,0,0

[Colours]
Combo1 : 0,0,255
Combo2 : 0,128,255
Combo3 : 128,255,255
Combo4 : 0,128,192
Combo5 : 0,255,255

[HitObjects]
64,112,21536,5,8,0:0:0:0:
64,112,21712,1,0,0:0:0:0:
192,48,21889,1,0,0:0:0:0:
192,48,22065,1,0,0:0:0:0:
320,48,22242,1,8,0:0:0:0:
320,48,22418,1,0,0:0:0:0:
448,112,22595,1,0,0:0:0:0:
448,112,22771,1,0,0:0:0:0:
256,144,22948,5,12,0:0:0:0:
144,160,23124,1,0,0:0:0:0:
104,264,23301,2,0,P|152:304|208:304,1,110,2|0,0:0|0:0,0:0:0:0:
304,280,23654,1,2,0:0:0:0:
400,224,23830,1,0,0:0:0:0:
304,168,24007,1,0,0:0:0:0:
208,224,24183,1,0,0:0:0:0:
112,168,24359,6,2,P|160:120|208:112,1,110,10|2,0:0|0:0,0:0:0:0:
400,168,24712,2,2,P|352:120|304:112,1,110,2|0,0:0|0:0,0:0:0:0:
200,120,25065,1,2,0:0:0:0:
176,248,25242,1,2,0:0:0:0:
160,120,25418,1,2,0:0:0:0:
144,248,25595,1,2,0:0:0:0:
72,168,25771,5,10,0:0:0:0:
128,72,25948,1,0,0:0:0:0:
200,152,26124,2,0,P|168:224|112:272,1,110
288,176,26477,2,0,P|299:147|351:88,1,110,10|0,0:0|0:0,0:0:0:0:
432,152,26830,1,2,0:0:0:0:
368,248,27007,1,2,0:0:0:0:
200,132,27184,6,0,P|256:136|288:176,1,110
232,280,27713,1,2,0:0:0:0:
104,256,27890,1,10,0:0:0:0:
88,128,28066,1,0,0:0:0:0:
208,64,28242,1,10,0:0:0:0:
296,168,28418,1,0,0:0:0:0:
184,176,28595,5,14,0:0:0:0:
72,240,28771,2,0,P|96:288|160:304,1,110,0|2,0:0|0:0,0:0:0:0:
272,336,29124,1,0,0:0:0:0:
400,304,29301,1,2,0:0:0:0:
400,304,29389,1,0,0:0:0:0:
400,304,29477,1,0,0:0:0:0:
424,192,29654,1,0,0:0:0:0:
312,120,29830,1,0,0:0:0:0:
201,119,30007,5,10,0:0:0:0:
169,119,30095,1,0,0:0:0:0:
137,119,30183,1,0,0:0:0:0:
312,120,30359,1,2,0:0:0:0:
312,120,30536,1,0,0:0:0:0:
217,231,30712,1,2,0:0:0:0:
193,247,30801,1,0,0:0:0:0:
169,263,30889,1,0,0:0:0:0:
312,120,31065,1,2,0:0:0:0:
424,192,31418,5,10,0:0:0:0:
336,264,31595,1,0,0:0:0:0:
336,264,31683,1,0,0:0:0:0:
336,264,31771,1,2,0:0:0:0:
216,288,31948,1,0,0:0:0:0:
104,216,32124,1,10,0:0:0:0:
216,128,32301,1,0,0:0:0:0:
104,56,32477,1,2,0:0:0:0:
256,192,32830,12,0,33889,0:0:0:0:
96,48,34242,6,0,P|80:104|96:176,1,110,12|0,0:0|0:0,0:0:0:0:
200,144,34595,2,0,P|240:80|384:72,1,220,2|2,0:0|0:0,0:0:0:0:
312,152,35124,1,0,0:0:0:0:
448,144,35301,1,2,0:0:0:0:
392,256,35477,1,0,0:0:0:0:
240,256,35654,6,2,P|200:184|208:112,1,110,10|0,0:0|0:0,0:0:0:0:
448,144,36007,1,2,0:0:0:0:
448,144,36095,1,0,0:0:0:0:
448,144,36183,2,0,P|376:184|304:176,1,110,0|2,0:0|0:0,0:0:0:0:
264,112,36536,1,0,0:0:0:0:
160,136,36712,2,2,P|128:176|112:240,1,110,0|0,0:0|0:0,0:0:0:0:
224,256,37065,5,10,0:0:0:0:
368,208,37242,1,0,0:0:0:0:
280,104,37418,1,2,0:0:0:0:
432,56,37595,1,2,0:0:0:0:
368,208,37771,2,0,P|328:280|336:320,1,110,0|2,0:0|0:0,0:0:0:0:
224,256,38124,6,0,B|160:208|184:152|184:144|184:144|112:136|96:88,1,220,2|10,0:0|0:0,0:0:0:0:
72,208,38654,1,0,0:0:0:0:
72,208,38742,1,0,0:0:0:0:
72,208,38830,1,0,0:0:0:0:
264,184,39007,1,0,0:0:0:0:
128,48,39183,1,2,0:0:0:0:
328,104,39359,1,10,0:0:0:0:
184,264,39536,1,2,0:0:0:0:
184,264,39889,6,0,P|248:280|296:344,1,110,6|0,0:0|0:0,0:0:0:0:
360,232,40242,1,2,0:0:0:0:
296,48,40418,1,0,0:0:0:0:
184,160,40595,2,2,P|112:160|64:168,1,110,2|0,0:0|0:0,0:0:0:0:
168,256,40948,2,2,P|240:256|288:248,1,110,2|0,0:0|0:0,0:0:0:0:
416,232,41301,5,10,0:0:0:0:
416,208,41389,1,0,0:0:0:0:
416,184,41477,1,0,0:0:0:0:
416,160,41565,1,0,0:0:0:0:
416,136,41654,2,0,L|416:0,1,110,2|2,0:0|0:0,0:0:0:0:
312,72,42007,2,0,P|256:40|200:40,2,110,2|0|2,0:0|0:0|0:0,0:0:0:0:
240,272,42712,6,0,P|176:288|112:256,1,110,14|0,0:0|0:0,0:0:0:0:
184,192,43065,2,2,P|168:128|200:64,1,110,10|2,0:0|0:0,0:0:0:0:
264,144,43418,1,12,0:0:0:0:
400,168,43595,1,2,0:0:0:0:
328,56,43771,1,0,0:0:0:0:
288,256,43948,1,2,0:0:0:0:
288,256,44036,1,0,0:0:0:0:
288,256,44124,6,0,P|224:240|160:272,1,110,12|2,0:0|0:0,0:0:0:0:
264,144,44477,1,14,0:0:0:0:
147,145,44654,1,2,0:0:0:0:
119,126,44742,1,0,0:0:0:0:
98,100,44830,1,14,0:0:0:0:
81,71,44918,1,0,0:0:0:0:
71,39,45007,1,0,0:0:0:0:
256,192,45183,1,12,0:0:0:0:
120,48,45537,6,0,P|112:112|128:200,1,131.99999597168
368,96,45889,2,8,P|376:168|368:240,1,131.99999597168,10|2,0:0|0:0,0:0:0:0:
176,120,46242,2,8,P|168:184|184:272,1,131.99999597168,10|0,0:0|0:0,0:0:0:0:
424,168,46595,2,8,P|432:240|424:312,1,131.99999597168,8|0,0:0|0:0,0:0:0:0:
104,328,46948,6,8,P|96:256|104:192,1,131.99999597168,14|0,0:0|0:0,0:0:0:0:
360,272,47301,2,8,P|368:200|352:120,1,131.99999597168,10|2,0:0|0:0,0:0:0:0:
160,256,47654,2,8,P|152:184|160:120,1,131.99999597168,10|0,0:0|0:0,0:0:0:0:
416,200,48007,2,8,P|424:128|408:48,1,131.99999597168,10|0,0:0|0:0,0:0:0:0:
256,32,48359,5,14,0:0:0:0:
136,80,48536,1,0,0:0:0:0:
64,192,48712,1,10,0:0:0:0:
136,304,48889,1,2,0:0:0:0:
256,360,49065,1,14,0:0:0:0:
376,304,49242,1,0,0:0:0:0:
440,192,49418,1,10,0:0:0:0:
368,80,49595,1,0,0:0:0:0:
256,32,49771,1,12,0:0:0:0:
216,256,50124,6,0,L|216:120,1,131.99999597168,2|2,0:0|0:0,0:0:0:0:
368,80,50654,2,10,L|368:312,1,220,2|10,0:0|0:0,0:0:0:0:
104,227,51183,6,0,L|40:112,1,131.99999597168,14|0,0:0|0:0,0:0:0:0:
199,70,51536,2,0,L|328:40,1,131.99999597168,10|2,0:0|0:0,0:0:0:0:
391,156,51889,2,0,L|456:272,1,131.99999597168,10|0,0:0|0:0,0:0:0:0:
296,312,52242,2,0,L|167:342,1,131.99999597168,8|0,0:0|0:0,0:0:0:0:
40,112,52595,5,14,0:0:0:0:
328,40,52948,1,10,0:0:0:0:
456,272,53301,1,10,0:0:0:0:
168,344,53654,1,10,0:0:0:0:
256,192,54007,12,8,55418,0:0:0:0:
256,72,55771,5,2,0:0:0:0:
128,304,56124,1,0,0:0:0:0:
392,304,56477,1,8,0:0:0:0:
400,176,56830,5,14,0:0:0:0:
400,176,56918,1,0,0:0:0:0:
400,176,57007,2,0,P|352:256|320:272,1,131.99999597168,0|2,0:0|0:0,0:0:0:0:
152,272,57359,1,2,0:0:0:0:
96,128,57536,2,0,P|144:48|176:32,1,131.99999597168,8|2,0:0|0:0,0:0:0:0:
256,112,57889,1,0,0:0:0:0:
256,248,58065,1,2,0:0:0:0:
368,168,58242,5,8,0:0:0:0:
256,248,58418,1,2,0:0:0:0:
368,352,58595,1,2,0:0:0:0:
240,184,58771,1,2,0:0:0:0:
112,336,58948,2,0,P|203:335|236:303,1,131.99999597168,10|0,0:0|0:0,0:0:0:0:
368,168,59301,2,0,P|456:192|480:232,1,131.99999597168,2|0,0:0|0:0,0:0:0:0:
368,352,59654,6,0,P|216:360|96:336,1,263.99999194336,10|2,0:0|0:0,0:0:0:0:
48,224,60183,2,0,P|72:144|136:96,1,131.99999597168,2|8,0:0|0:0,0:0:0:0:
192,208,60536,2,0,P|272:184|320:120,1,131.99999597168,2|0,0:0|0:0,0:0:0:0:
400,64,60889,1,0,0:0:0:0:
272,64,61065,6,0,B|152:88|120:64|120:64|120:128|64:160,1,263.99999194336,10|2,0:0|0:0,0:0:0:0:
192,208,61595,1,2,0:0:0:0:
328,272,61771,1,10,0:0:0:0:
216,328,61948,1,2,0:0:0:0:
472,328,62124,1,2,0:0:0:0:
96,304,62477,5,6,0:0:0:0:
96,304,62830,2,0,B|168:304|208:240|208:240|248:312|352:296,1,263.99999194336,2|10,0:0|0:0,0:0:0:0:
400,200,63359,1,0,0:0:0:0:
352,80,63536,1,2,0:0:0:0:
264,176,63712,5,0,0:0:0:0:
264,176,63801,1,0,0:0:0:0:
264,176,63889,2,8,P|184:240|120:256,1,131.99999597168,8|2,0:0|0:0,0:0:0:0:
400,200,64242,2,10,P|480:136|544:120,1,131.99999597168,2|2,0:0|0:0,0:0:0:0:
360,40,64595,1,8,0:0:0:0:
264,176,64771,1,2,0:0:0:0:
256,56,64948,2,0,P|152:32|120:32,1,131.99999597168,0|2,0:0|0:0,0:0:0:0:
264,176,65301,6,0,P|368:200|400:200,1,131.99999597168,10|0,0:0|0:0,0:0:0:0:
472,312,65654,1,2,0:0:0:0:
472,112,65830,1,0,0:0:0:0:
472,112,65918,1,0,0:0:0:0:
472,112,66007,1,8,0:0:0:0:
392,200,66183,1,2,0:0:0:0:
304,304,66359,2,0,P|279:303|175:279,1,131.99999597168,2|0,0:0|0:0,0:0:0:0:
96,184,66712,5,10,0:0:0:0:
120,160,66801,1,0,0:0:0:0:
152,144,66889,1,0,0:0:0:0:
184,136,66977,1,0,0:0:0:0:
216,136,67065,1,10,0:0:0:0:
248,144,67154,1,0,0:0:0:0:
280,160,67242,2,0,L|336:192,8,32.99999899292,0|0|0|0|10|0|0|0|0,0:0|0:0|0:0|0:0|0:0|0:0|0:0|0:0|0:0,0:0:0:0:
440,208,67771,5,10,0:0:0:0:
440,208,67859,1,0,0:0:0:0:
440,208,67948,1,0,0:0:0:0:
440,208,68036,1,0,0:0:0:0:
440,208,68124,1,14,0:0:0:0:
440,208,68301,2,0,P|424:272|392:304,1,110,0|0,0:0|0:0,0:0:0:0:
296,336,68654,1,0,0:0:0:0:
192,304,68830,2,0,P|136:296|96:256,1,110,10|0,0:0|0:0,0:0:0:0:
184,192,69183,2,0,P|240:200|280:240,1,110,0|0,0:0|0:0,0:0:0:0:
80,136,69536,5,10,0:0:0:0:
120,24,69712,1,0,0:0:0:0:
152,208,69889,1,0,0:0:0:0:
256,152,70065,1,0,0:0:0:0:
200,304,70242,1,10,0:0:0:0:
200,304,70330,1,0,0:0:0:0:
200,304,70418,1,2,0:0:0:0:
320,320,70595,1,10,0:0:0:0:
448,128,70948,5,10,0:0:0:0:
416,232,71124,1,0,0:0:0:0:
344,88,71301,1,0,0:0:0:0:
240,152,71477,1,0,0:0:0:0:
264,16,71654,1,10,0:0:0:0:
144,24,71830,1,0,0:0:0:0:
64,104,72007,2,0,P|56:176|64:232,1,110,0|0,0:0|0:0,0:0:0:0:
120,304,72359,5,10,0:0:0:0:
152,176,72536,1,0,0:0:0:0:
280,208,72712,1,0,0:0:0:0:
248,336,72889,1,0,0:0:0:0:
200,256,73065,1,10,0:0:0:0:
200,256,73154,1,0,0:0:0:0:
200,256,73242,1,10,0:0:0:0:
200,256,73418,1,10,0:0:0:0:
72,80,73771,6,0,P|136:48|192:48,1,110,14|0,0:0|0:0,0:0:0:0:
288,48,74124,2,0,P|325:50|389:82,1,110,6|0,0:0|0:0,0:0:0:0:
472,160,74477,5,10,0:0:0:0:
472,272,74654,1,0,0:0:0:0:
360,272,74830,1,2,0:0:0:0:
360,160,75007,1,0,0:0:0:0:
416,200,75183,5,14,0:0:0:0:
328,304,75359,1,0,0:0:0:0:
240,200,75536,1,10,0:0:0:0:
328,104,75712,1,0,0:0:0:0:
288,232,75889,5,14,0:0:0:0:
112,232,76065,1,10,0:0:0:0:
112,56,76242,1,10,0:0:0:0:
288,56,76418,1,10,0:0:0:0:
256,192,76595,12,8,77654,0:0:0:0:
256,192,78007,12,8,79065,0:0:0:0:
256,192,79418,5,4,0:0:0:0:
256,192,86477,12,8,90712,0:0:0:0:
80,96,91065,5,2,0:0:0:0:
80,96,91418,1,2,0:0:0:0:
80,224,92124,1,2,0:0:0:0:
80,224,92301,1,0,0:0:0:0:
80,224,92477,2,0,L|144:224|144:224,1,55,0|2,0:0|0:0,0:0:0:0:
240,224,93007,1,0,0:0:0:0:
288,224,93183,1,0,0:0:0:0:
368,144,93536,6,0,L|448:144,2,55,2|0|2,0:0|0:0|0:0,0:0:0:0:
368,200,94065,2,0,L|368:232|368:264,1,55,0|2,0:0|0:0,0:0:0:0:
272,312,94595,1,2,0:0:0:0:
144,272,94948,5,2,0:0:0:0:
144,272,95124,1,0,0:0:0:0:
144,272,95301,2,2,L|80:272,2,55,0|2|0,0:0|0:0|0:0,0:0:0:0:
256,272,96007,2,2,P|320:264|360:224,1,110
400,144,96712,5,10,0:0:0:0:
400,144,97065,1,2,0:0:0:0:
416,256,97418,2,0,L|448:288,2,27.5
336,264,97771,5,2,0:0:0:0:
296,280,97948,1,2,0:0:0:0:
256,272,98124,1,2,0:0:0:0:
216,256,98301,2,0,L|136:256,1,55,2|0,0:0|0:0,0:0:0:0:
272,160,98830,1,0,0:0:0:0:
192,240,99183,6,2,L|192:304,2,55,2|2|2,0:0|0:0|0:0,0:0:0:0:
224,192,99712,1,0,0:0:0:0:
272,160,99889,1,2,0:0:0:0:
328,144,100065,1,2,0:0:0:0:
328,144,100242,2,0,L|328:64,1,55,2|0,0:0|0:0,0:0:0:0:
256,192,100595,12,8,101654,0:0:0:0:
88,144,102007,5,12,0:0:0:0:
88,144,102183,2,8,P|112:88|176:48,1,110,0|2,0:0|0:0,0:0:0:0:
208,152,102536,2,8,P|248:104|296:96,1,110,0|2,0:0|0:0,0:0:0:0:
328,200,102889,2,8,P|368:176|432:184,1,110,0|2,0:0|0:0,0:0:0:0:
448,272,103242,1,0,0:0:0:0:
388,336,103418,5,10,0:0:0:0:
296,328,103595,1,0,0:0:0:0:
224,276,103771,1,2,0:0:0:0:
216,184,103948,1,2,0:0:0:0:
256,108,104124,1,2,0:0:0:0:
216,24,104301,1,2,0:0:0:0:
120,0,104477,1,2,0:0:0:0:
40,48,104654,1,0,0:0:0:0:
32,144,104830,6,0,P|32:200|56:256,1,110,10|0,0:0|0:0,0:0:0:0:
184,152,105183,2,0,P|216:200|264:232,1,110,2|2,0:0|0:0,0:0:0:0:
328,88,105536,2,0,P|384:120|432:128,1,110,8|2,0:0|0:0,0:0:0:0:
472,48,105889,1,0,0:0:0:0:
392,8,106065,1,0,0:0:0:0:
304,32,106242,5,10,0:0:0:0:
256,104,106418,1,0,0:0:0:0:
288,184,106595,1,2,0:0:0:0:
265,267,106771,1,0,0:0:0:0:
192,320,106948,1,2,0:0:0:0:
104,320,107124,1,2,0:0:0:0:
40,256,107301,1,2,0:0:0:0:
56,168,107477,1,0,0:0:0:0:
128,112,107654,6,0,P|184:104|264:120,1,110,10|0,0:0|0:0,0:0:0:0:
203,192,108007,2,0,P|267:200|334:184,1,110,2|0,0:0|0:0,0:0:0:0:
304,88,108359,1,10,0:0:0:0:
472,120,108536,1,0,0:0:0:0:
312,192,108712,1,10,0:0:0:0:
400,32,108889,1,0,0:0:0:0:
416,208,109065,1,10,0:0:0:0:
256,39,109418,5,2,0:0:0:0:
56,272,109771,1,2,0:0:0:0:
360,304,110124,1,6,0:0:0:0:
448,136,110477,5,14,0:0:0:0:
448,248,110654,1,0,0:0:0:0:
344,80,110830,1,2,0:0:0:0:
344,304,111007,1,2,0:0:0:0:
248,136,111183,1,12,0:0:0:0:
224,128,111271,1,0,0:0:0:0:
200,120,111359,1,2,0:0:0:0:
176,112,111448,1,0,0:0:0:0:
152,104,111536,1,8,0:0:0:0:
248,256,111712,1,6,0:0:0:0:
152,296,111889,5,8,0:0:0:0:
128,304,111977,1,0,0:0:0:0:
104,312,112065,1,6,0:0:0:0:
80,320,112154,1,0,0:0:0:0:
56,328,112242,1,6,0:0:0:0:
24,200,112418,1,6,0:0:0:0:
136,208,112595,2,0,L|192:232,2,55,8|0|0,0:0|0:0|0:0,0:0:0:0:
200,120,112948,2,0,L|264:88,2,55,8|0|0,0:0|0:0|0:0,0:0:0:0:
64,96,113301,5,14,0:0:0:0:
72,144,113389,1,0,0:0:0:0:
96,184,113477,1,0,0:0:0:0:
136,208,113565,1,0,0:0:0:0:
184,216,113654,2,0,P|192:128|136:72,1,131.99999597168,2|2,0:0|0:0,0:0:0:0:
272,112,114007,2,0,P|360:120|416:64,1,131.99999597168,10|0,0:0|0:0,0:0:0:0:
328,32,114359,1,8,0:0:0:0:
464,160,114536,1,0,0:0:0:0:
272,112,114712,6,0,P|184:120|128:64,1,131.99999597168,14|0,0:0|0:0,0:0:0:0:
256,216,115065,2,0,P|264:304|208:360,1,131.99999597168,8|2,0:0|0:0,0:0:0:0:
432,192,115418,2,0,B|352:144|352:144|280:144,1,131.99999597168,10|0,0:0|0:0,0:0:0:0:
256,216,115771,1,10,0:0:0:0:
136,168,115948,1,0,0:0:0:0:
256,80,116124,5,14,0:0:0:0:
152,312,116301,1,0,0:0:0:0:
56,200,116477,1,10,0:0:0:0:
288,296,116654,1,0,0:0:0:0:
288,296,116742,1,0,0:0:0:0:
288,296,116830,2,0,P|376:296|432:272,1,131.99999597168,10|0,0:0|0:0,0:0:0:0:
440,152,117183,1,10,0:0:0:0:
368,40,117359,2,0,P|280:40|224:64,1,131.99999597168,2|10,0:0|0:0,0:0:0:0:
264,240,117712,5,0,0:0:0:0:
224,144,117889,1,10,0:0:0:0:
312,344,118065,2,0,P|400:328|432:304,1,131.99999597168,2|8,0:0|0:0,0:0:0:0:
180,44,118418,2,0,P|92:60|60:84,1,131.99999597168,2|8,0:0|0:0,0:0:0:0:
144,232,118948,6,8,P|104:296|48:328,2,131.99999597168,14|0|8,0:0|0:0|0:0,0:0:0:0:
248,152,119477,1,2,0:0:0:0:
368,200,119654,1,10,0:0:0:0:
360,328,119830,2,0,P|280:344|216:320,1,131.99999597168,0|8,0:0|0:0,0:0:0:0:
248,152,120183,6,0,P|328:136|392:160,1,131.99999597168,0|4,0:0|0:0,0:0:0:0:
432,232,120536,1,0,0:0:0:0:
256,344,120712,1,10,0:0:0:0:
256,200,120889,1,0,0:0:0:0:
80,320,121065,1,10,0:0:0:0:
256,344,121242,2,0,P|320:296|328:240,1,131.99999597168,0|10,0:0|0:0,0:0:0:0:
192,216,121595,1,2,0:0:0:0:
80,320,121771,5,14,0:0:0:0:
104,320,121859,1,0,0:0:0:0:
128,320,121948,1,0,0:0:0:0:
152,320,122036,1,0,0:0:0:0:
176,320,122124,2,0,L|245:320,3,65.9999979858399,2|0|0|0,0:0|0:0|0:0|0:0,0:0:0:0:
248,144,122477,6,0,L|208:200,1,65.9999979858399,6|0,0:0|0:0,0:0:0:0:
336,280,122654,2,0,L|374:226,1,65.9999979858399,8|0,0:0|0:0,0:0:0:0:
368,104,122830,2,0,L|328:160,1,65.9999979858399,10|0,0:0|0:0,0:0:0:0:
456,248,123007,2,8,L|504:184,1,65.9999979858399,10|0,0:0|0:0,0:0:0:0:
477,61,123183,1,10,0:0:0:0:
257,80,123536,5,2,0:0:0:0:
257,192,123889,1,0,0:0:0:0:
256,304,124242,1,8,0:0:0:0:
448,192,124595,5,14,0:0:0:0:
352,96,124771,1,0,0:0:0:0:
272,192,124948,1,10,0:0:0:0:
184,104,125124,1,0,0:0:0:0:
160,64,125212,1,0,0:0:0:0:
120,48,125301,1,8,0:0:0:0:
80,64,125389,1,0,0:0:0:0:
56,104,125477,2,0,P|32:176|56:232,1,131.99999597168,2|8,0:0|0:0,0:0:0:0:
152,312,125830,1,2,0:0:0:0:
288,312,126007,6,0,L|360:312,2,65.9999979858399,12|0|2,0:0|0:0|0:0,0:0:0:0:
232,192,126359,1,10,0:0:0:0:
368,192,126536,1,2,0:0:0:0:
432,80,126712,1,8,0:0:0:0:
168,72,127065,1,10,0:0:0:0:
112,112,127154,1,2,0:0:0:0:
80,168,127242,1,10,0:0:0:0:
88,232,127330,1,2,0:0:0:0:
120,288,127418,6,0,P|160:336|232:352,1,131.99999597168,14|0,0:0|0:0,0:0:0:0:
288,344,127683,1,0,0:0:0:0:
344,312,127771,1,10,0:0:0:0:
416,200,127948,2,2,B|344:128|344:128|272:200,1,197.99999395752,2|0,0:0|0:0,0:0:0:0:
208,208,128301,2,2,B|144:272|144:272|64:192,1,197.99999395752,2|0,0:0|0:0,0:0:0:0:
67,195,128654,1,2,0:0:0:0:
120,72,128830,5,14,0:0:0:0:
256,72,129007,1,0,0:0:0:0:
384,200,129183,1,10,0:0:0:0:
256,200,129359,1,0,0:0:0:0:
120,312,129536,1,10,0:0:0:0:
155,312,129624,1,0,0:0:0:0:
187,312,129712,1,10,0:0:0:0:
220,312,129801,1,0,0:0:0:0:
256,312,129889,1,10,0:0:0:0:
384,288,130242,5,14,0:0:0:0:
432,168,130418,1,0,0:0:0:0:
304,144,130595,1,10,0:0:0:0:
352,24,130771,1,2,0:0:0:0:
160,24,130948,1,10,0:0:0:0:
208,144,131124,1,2,0:0:0:0:
80,168,131301,1,8,0:0:0:0:
128,288,131477,1,6,0:0:0:0:
272,288,131654,5,10,0:0:0:0:
360,192,131830,1,2,0:0:0:0:
272,88,132007,1,10,0:0:0:0:
192,192,132183,1,2,0:0:0:0:
272,312,132359,1,8,0:0:0:0:
376,192,132536,1,2,0:0:0:0:
272,72,132712,1,10,0:0:0:0:
168,192,132889,1,2,0:0:0:0:
64,112,133065,5,14,0:0:0:0:
64,112,133154,1,0,0:0:0:0:
64,112,133242,1,0,0:0:0:0:
176,40,133418,1,10,0:0:0:0:
232,184,133595,1,0,0:0:0:0:
232,184,133683,1,0,0:0:0:0:
232,184,133771,1,14,0:0:0:0:
416,104,133948,1,0,0:0:0:0:
416,104,134036,1,0,0:0:0:0:
416,104,134124,1,10,0:0:0:0:
416,104,134212,1,0,0:0:0:0:
416,104,134301,1,0,0:0:0:0:
416,304,134477,5,14,0:0:0:0:
240,336,134654,1,8,0:0:0:0:
196,324,134742,1,0,0:0:0:0:
156,304,134830,1,12,0:0:0:0:
120,276,134918,1,0,0:0:0:0:
92,236,135007,1,10,0:0:0:0:
84,192,135095,1,0,0:0:0:0:
92,148,135183,1,12,0:0:0:0:
124,112,135271,1,0,0:0:0:0:
156,80,135359,1,8,0:0:0:0:
196,60,135448,1,0,0:0:0:0:
240,48,135536,1,14,0:0:0:0:
256,192,135889,6,0,P|344:176|400:192,1,110,10|0,0:0|0:0,0:0:0:0:
256,328,136242,2,0,P|168:344|112:328,1,110
96,128,136595,2,0,P|144:96|184:136,1,110
416,264,136948,2,0,P|368:296|328:256,1,110
368,168,137301,5,8,0:0:0:0:
272,120,137477,1,0,0:0:0:0:
160,120,137654,1,0,0:0:0:0:
64,172,137830,1,0,0:0:0:0:
272,120,138007,2,2,P|336:80|384:88,1,110,2|0,0:0|0:0,0:0:0:0:
160,120,138359,2,2,P|224:160|272:152,1,110,2|0,0:0|0:0,0:0:0:0:
64,172,138712,6,0,P|88:116|156:80,1,110,8|0,0:0|0:0,0:0:0:0:
272,120,139065,2,0,P|256:176|272:232,1,110
376,200,139418,1,0,0:0:0:0:
472,256,139595,1,0,0:0:0:0:
268,225,139771,1,0,0:0:0:0:
176,160,139948,1,0,0:0:0:0:
376,200,140124,6,0,P|432:160|480:136,1,110,8|0,0:0|0:0,0:0:0:0:
269,226,140477,2,0,P|213:266|165:290,1,110,0|0,0:0|0:0,0:0:0:0:
96,216,140830,1,2,0:0:0:0:
56,112,141007,1,2,0:0:0:0:
144,48,141183,2,2,P|216:40|264:56,1,110,2|0,0:0|0:0,0:0:0:0:
336,120,141536,5,8,0:0:0:0:
336,120,141624,1,0,0:0:0:0:
336,120,141712,1,0,0:0:0:0:
248,184,141889,1,8,0:0:0:0:
248,184,141977,1,0,0:0:0:0:
248,184,142065,1,0,0:0:0:0:
152,128,142242,5,8,0:0:0:0:
152,128,142330,1,0,0:0:0:0:
152,128,142418,1,0,0:0:0:0:
64,192,142595,1,8,0:0:0:0:
64,192,142683,1,0,0:0:0:0:
64,192,142771,2,0,P|72:248|104:296,1,110,0|8,0:0|0:0,0:0:0:0:
128,312,143036,5,0,0:0:0:0:
152,328,143124,1,0,0:0:0:0:
184,336,143212,1,0,0:0:0:0:
216,336,143301,1,8,0:0:0:0:
248,328,143389,1,0,0:0:0:0:
280,312,143477,1,0,0:0:0:0:
312,296,143565,1,0,0:0:0:0:
344,288,143654,5,8,0:0:0:0:
376,288,143742,1,0,0:0:0:0:
408,296,143830,1,0,0:0:0:0:
440,288,143918,1,0,0:0:0:0:
472,272,144007,1,8,0:0:0:0:
488,240,144095,1,0,0:0:0:0:
504,208,144183,1,0,0:0:0:0:
496,176,144271,1,0,0:0:0:0:
488,144,144359,6,0,B|392:128|400:56|408:56|408:56|320:80|312:32|320:24|328:24|240:72|224:32,1,330,8|0,0:0|0:0,0:0:0:0:
144,112,145065,1,8,0:0:0:0:
104,216,145242,2,0,P|152:264|216:280,1,110,0|0,0:0|0:0,0:0:0:0:
376,240,145595,6,8,P|328:192|280:176,1,110,0|8,0:0|0:0,0:0:0:0:
368,104,145948,1,0,0:0:0:0:
280,272,146124,2,0,P|248:344|192:360,1,110,8|0,0:0|0:0,0:0:0:0:
104,216,146477,2,0,P|136:144|192:128,1,110,8|0,0:0|0:0,0:0:0:0:
256,192,146830,1,10,0:0:0:0:
256,192,146918,1,0,0:0:0:0:
256,192,147007,1,0,0:0:0:0:
184,168,147183,5,14,0:0:0:0:
280,120,147359,1,0,0:0:0:0:
328,216,147536,1,0,0:0:0:0:
232,264,147712,1,0,0:0:0:0:
307,256,147889,1,8,0:0:0:0:
317,145,148065,1,0,0:0:0:0:
200,135,148242,1,8,0:0:0:0:
193,243,148418,1,0,0:0:0:0:
333,201,148595,5,14,0:0:0:0:
261,117,148771,1,0,0:0:0:0:
181,193,148948,1,0,0:0:0:0:
253,273,149124,1,0,0:0:0:0:
216,125,149301,1,10,0:0:0:0:
323,151,149477,1,0,0:0:0:0:
295,259,149654,1,10,0:0:0:0:
187,235,149830,1,0,0:0:0:0:
312,336,150007,6,0,P|248:344|192:336,1,110,14|0,0:0|0:0,0:0:0:0:
392,144,150359,2,0,P|400:200|384:288,1,110,8|0,0:0|0:0,0:0:0:0:
200,48,150712,2,0,P|272:40|344:56,1,110,12|0,0:0|0:0,0:0:0:0:
112,256,151065,2,0,P|104:200|120:136,1,110,8|0,0:0|0:0,0:0:0:0:
192,256,151418,6,8,P|184:200|200:136,1,110,14|8,0:0|0:0,0:0:0:0:
208,120,151683,1,0,0:0:0:0:
216,96,151771,1,12,0:0:0:0:
232,72,151859,1,0,0:0:0:0:
256,56,151948,1,8,0:0:0:0:
280,48,152036,1,0,0:0:0:0:
304,56,152124,5,12,0:0:0:0:
328,72,152212,1,0,0:0:0:0:
344,96,152301,1,12,0:0:0:0:
352,120,152389,1,0,0:0:0:0:
352,144,152477,1,14,0:0:0:0:
352,168,152565,1,0,0:0:0:0:
352,192,152654,1,12,0:0:0:0:
352,288,152830,5,14,0:0:0:0:
240,288,153007,1,0,0:0:0:0:
160,216,153183,1,0,0:0:0:0:
48,216,153359,1,0,0:0:0:0:
184,48,153536,1,12,0:0:0:0:
256,128,153712,1,0,0:0:0:0:
248,240,153889,1,0,0:0:0:0:
320,320,154065,1,0,0:0:0:0:
392,112,154242,5,14,0:0:0:0:
312,192,154418,1,0,0:0:0:0:
200,208,154595,1,0,0:0:0:0:
128,288,154771,1,0,0:0:0:0:
344,328,154948,1,12,0:0:0:0:
256,264,155124,1,0,0:0:0:0:
208,168,155301,1,0,0:0:0:0:
112,120,155477,1,0,0:0:0:0:
232,64,155654,5,14,0:0:0:0:
264,192,155830,1,2,0:0:0:0:
392,168,156007,1,14,0:0:0:0:
368,40,156183,1,14,0:0:0:0:
256,192,156359,12,8,157418,0:0:0:0:
352,32,157771,6,0,L|392:72,3,55,8|0|0|0,0:0|0:0|0:0|0:0,0:0:0:0:
448,72,158124,2,0,L|416:120,3,55,8|0|0|0,0:0|0:0|0:0|0:0,0:0:0:0:
448,208,158477,5,6,0:0:0:0:
368,280,158654,1,0,0:0:0:0:
264,256,158830,1,2,0:0:0:0:
208,160,159007,1,0,0:0:0:0:
96,176,159183,2,0,P|32:256|32:288,1,110,10|0,0:0|0:0,0:0:0:0:
160,256,159536,1,0,0:0:0:0:
304,152,159712,1,0,0:0:0:0:
144,88,159889,5,10,0:0:0:0:
264,256,160065,2,0,P|360:288|392:272,1,110,0|2,0:0|0:0,0:0:0:0:
304,152,160418,2,0,P|208:120|176:136,1,110,0|10,0:0|0:0,0:0:0:0:
184,232,160771,1,0,0:0:0:0:
56,136,160948,1,0,0:0:0:0:
168,264,161124,1,0,0:0:0:0:
72,96,161301,6,0,P|128:72|216:80,1,110,10|0,0:0|0:0,0:0:0:0:
184,232,161654,2,0,P|176:304|200:344,2,110,2|0|10,0:0|0:0|0:0,0:0:0:0:
280,184,162183,1,0,0:0:0:0:
336,280,162359,2,0,P|384:320|432:328,1,110
416,192,162712,5,10,0:0:0:0:
272,104,162889,1,0,0:0:0:0:
416,24,163065,1,0,0:0:0:0:
304,208,163242,5,0,0:0:0:0:
480,112,163418,1,10,0:0:0:0:
464,304,163595,1,0,0:0:0:0:
416,192,163771,2,2,P|328:176|272:184,1,110,10|0,0:0|0:0,0:0:0:0:
208,288,164124,5,10,0:0:0:0:
72,160,164301,2,0,P|120:112|184:88,1,110
256,160,164654,1,0,0:0:0:0:
256,336,164830,1,10,0:0:0:0:
256,160,165007,1,0,0:0:0:0:
352,152,165183,1,0,0:0:0:0:
144,240,165359,1,0,0:0:0:0:
352,328,165536,6,0,P|408:344|464:328,2,110,10|0|2,0:0|0:0|0:0,0:0:0:0:
144,240,166065,1,0,0:0:0:0:
144,240,166242,1,10,0:0:0:0:
368,240,166418,1,0,0:0:0:0:
368,240,166595,1,2,0:0:0:0:
256,192,166948,12,0,169771,0:0:0:0:
168,80,170124,6,0,P|88:121|32:234,2,220
312,104,171007,1,0,0:0:0:0:
472,75,171183,6,0,L|417:74,3,55,2|0|0|0,0:0|0:0|0:0|0:0,0:0:0:0:
391,73,171536,1,2,0:0:0:0:
363,73,171624,1,0,0:0:0:0:
335,72,171712,1,0,0:0:0:0:
309,82,171801,1,0,0:0:0:0:
287,99,171889,5,10,0:0:0:0:
272,125,171977,1,0,0:0:0:0:
265,151,172065,1,0,0:0:0:0:
260,178,172154,1,0,0:0:0:0:
258,205,172242,1,8,0:0:0:0:
257,232,172330,1,0,0:0:0:0:
257,259,172418,1,0,0:0:0:0:
256,360,172595,5,4,0:0:0:0:
424,192,173124,1,2,0:0:0:0:
256,192,174007,2,0,P|168:208|96:192,1,165,2|2,0:0|0:0,0:0:0:0:
88,72,175418,5,2,0:0:0:0:
256,72,175948,1,2,0:0:0:0:
256,192,176830,1,2,0:0:0:0:
312,192,177007,1,2,0:0:0:0:
256,192,177183,1,2,0:0:0:0:
312,192,177359,1,0,0:0:0:0:
376,280,177712,1,0,0:0:0:0:
432,280,177889,1,2,0:0:0:0:
384,64,178595,5,2,0:0:0:0:
344,168,178948,1,2,0:0:0:0:
312,64,179301,1,2,0:0:0:0:
272,168,179654,2,0,L|160:168,1,110,0|2,0:0|0:0,0:0:0:0:
128,64,180183,1,2,0:0:0:0:
256,64,180536,5,2,0:0:0:0:
376,264,181065,1,2,0:0:0:0:
376,264,181595,1,2,0:0:0:0:
160,80,183889,5,10,0:0:0:0:
160,80,184242,1,0,0:0:0:0:
160,80,184595,2,0,P|144:136|160:192,1,110,2|0,0:0|0:0,0:0:0:0:
272,232,184948,1,2,0:0:0:0:
460,80,185301,5,2,0:0:0:0:
460,80,185654,1,2,0:0:0:0:
460,80,186007,2,0,P|476:136|460:192,1,110,2|0,0:0|0:0,0:0:0:0:
312,232,186359,1,2,0:0:0:0:
96,72,186712,6,0,P|80:128|96:184,1,110,10|0,0:0|0:0,0:0:0:0:
128,288,187065,1,0,0:0:0:0:
240,288,187242,1,2,0:0:0:0:
160,208,187418,1,2,0:0:0:0:
176,320,187595,1,2,0:0:0:0:
288,320,187771,1,2,0:0:0:0:
368,240,188124,6,0,P|360:184|328:136,1,110,10|0,0:0|0:0,0:0:0:0:
240,192,188477,1,2,0:0:0:0:
144,144,188654,2,0,P|115:188|107:244,1,110,8|2,0:0|0:0,0:0:0:0:
192,320,189007,2,2,P|224:280|232:216,1,110,0|2,0:0|0:0,0:0:0:0:
208,96,189359,2,2,P|264:105|304:137,1,110,0|2,0:0|0:0,0:0:0:0:
448,256,189889,5,10,0:0:0:0:
192,192,190242,2,0,P|208:136|176:72,1,110,2|0,0:0|0:0,0:0:0:0:
96,64,190595,1,0,0:0:0:0:
144,272,190948,5,8,0:0:0:0:
320,336,191301,2,0,L|432:336,2,110,2|0|2,0:0|0:0|0:0,0:0:0:0:
448,160,192007,1,2,0:0:0:0:
224,192,192359,5,10,0:0:0:0:
128,144,192536,2,0,P|224:96|272:112,1,110
336,112,192889,1,2,0:0:0:0:
416,192,193065,2,0,P|409:299|371:332,1,110
304,320,193418,1,2,0:0:0:0:
128,240,193771,6,0,L|48:240,2,55,10|0|0,0:0|0:0|0:0,0:0:0:0:
352,144,194124,2,0,L|416:144,2,55,8|0|2,0:0|0:0|0:0,0:0:0:0:
192,80,194477,2,0,L|192:16,2,55,8|0|0,0:0|0:0|0:0,0:0:0:0:
288,304,194830,2,0,L|288:368,2,55,10|0|0,0:0|0:0|0:0,0:0:0:0:
80,264,195183,6,0,P|144:280|208:264,1,131.99999597168,14|0,0:0|0:0,0:0:0:0:
136,96,195536,2,0,P|200:80|272:96,1,131.99999597168,10|2,0:0|0:0,0:0:0:0:
192,304,195889,2,0,P|256:320|320:304,1,131.99999597168,10|0,0:0|0:0,0:0:0:0:
240,56,196242,2,0,P|304:40|376:56,1,131.99999597168,8|0,0:0|0:0,0:0:0:0:
488,272,196595,6,0,P|424:288|352:272,1,131.99999597168,14|0,0:0|0:0,0:0:0:0:
416,104,196948,2,0,P|352:88|280:104,1,131.99999597168,10|2,0:0|0:0,0:0:0:0:
360,312,197301,2,0,P|296:328|224:312,1,131.99999597168,10|0,0:0|0:0,0:0:0:0:
304,48,197654,2,0,P|240:32|168:48,1,131.99999597168,10|0,0:0|0:0,0:0:0:0:
32,112,198007,5,14,0:0:0:0:
80,264,198183,1,0,0:0:0:0:
136,88,198359,1,10,0:0:0:0:
192,288,198536,1,2,0:0:0:0:
248,56,198712,1,14,0:0:0:0:
304,312,198889,1,2,0:0:0:0:
368,88,199065,1,10,0:0:0:0:
432,288,199242,1,2,0:0:0:0:
480,112,199418,1,14,0:0:0:0:
392,120,199771,5,10,0:0:0:0:
452,224,199948,2,2,B|372:304|252:336|156:312|52:212,1,440
120,120,200477,1,10,0:0:0:0:
488,272,200830,6,0,P|424:288|352:272,1,131.99999597168,14|0,0:0|0:0,0:0:0:0:
416,104,201183,2,0,P|352:88|280:104,1,131.99999597168,10|2,0:0|0:0,0:0:0:0:
360,320,201536,2,0,P|296:336|224:320,1,131.99999597168,10|0,0:0|0:0,0:0:0:0:
288,48,201889,2,0,P|224:32|152:48,1,131.99999597168,8|0,0:0|0:0,0:0:0:0:
80,264,202242,6,0,P|144:280|208:264,1,131.99999597168,14|0,0:0|0:0,0:0:0:0:
136,96,202595,2,0,P|200:80|272:96,1,131.99999597168,10|2,0:0|0:0,0:0:0:0:
200,304,202948,2,0,P|264:320|328:304,1,131.99999597168,10|0,0:0|0:0,0:0:0:0:
264,56,203301,2,0,P|328:40|400:56,1,131.99999597168,10|2,0:0|0:0,0:0:0:0:
328,232,203654,1,14,0:0:0:0:
184,120,203830,1,0,0:0:0:0:
328,120,204007,1,10,0:0:0:0:
184,232,204183,1,2,0:0:0:0:
392,280,204359,1,14,0:0:0:0:
128,64,204536,1,2,0:0:0:0:
392,64,204712,1,10,0:0:0:0:
128,280,204889,1,2,0:0:0:0:
259,178,205065,5,14,0:0:0:0:
259,178,205418,1,2,0:0:0:0:
259,178,205771,1,2,0:0:0:0:
259,178,206124,1,2,0:0:0:0:
416,272,206477,5,6,0:0:0:0:
304,352,206654,1,0,0:0:0:0:
192,288,206830,1,10,0:0:0:0:
304,224,207007,2,0,B|272:160|304:160|304:144|288:128|288:144|256:112|256:112|256:144|304:80|256:0,1,263.99999194336,2|2,0:0|0:0,0:0:0:0:
260,8,207448,1,0,0:0:0:0:
260,8,207536,1,10,0:0:0:0:
160,80,207712,1,2,0:0:0:0:
112,176,207889,5,8,0:0:0:0:
112,176,207977,1,0,0:0:0:0:
112,176,208065,2,0,P|128:240|192:280,1,131.99999597168,2|10,0:0|0:0,0:0:0:0:
320,312,208418,1,2,0:0:0:0:
448,256,208595,1,0,0:0:0:0:
448,256,208683,1,0,0:0:0:0:
448,256,208771,1,0,0:0:0:0:
424,120,208948,1,10,0:0:0:0:
376,296,209124,1,0,0:0:0:0:
256,168,209301,5,14,0:0:0:0:
200,336,209477,1,0,0:0:0:0:
376,296,209654,2,0,P|392:216|376:168,1,131.99999597168,10|2,0:0|0:0,0:0:0:0:
256,168,210007,1,12,0:0:0:0:
184,56,210183,2,0,B|264:88|312:72|328:136|312:104,1,131.99999597168,2|8,0:0|0:0,0:0:0:0:
304,232,210536,2,0,B|224:264|176:248|160:312|176:280,2,131.99999597168,2|0|2,0:0|0:0|0:0,0:0:0:0:
368,120,211065,5,6,0:0:0:0:
48,144,211418,1,6,0:0:0:0:
104,264,211595,1,0,0:0:0:0:
232,288,211771,1,6,0:0:0:0:
320,200,211948,1,0,0:0:0:0:
192,256,212124,6,0,P|112:240|64:200,1,131.99999597168,6|0,0:0|0:0,0:0:0:0:
168,144,212477,1,10,0:0:0:0:
320,72,212654,1,0,0:0:0:0:
472,144,212830,1,10,0:0:0:0:
320,200,213007,1,0,0:0:0:0:
440,288,213183,1,10,0:0:0:0:
360,64,213359,1,2,0:0:0:0:
168,144,213536,6,0,B|184:224|256:248|264:256,1,131.99999597168,14|2,0:0|0:0,0:0:0:0:
352,304,213889,1,10,0:0:0:0:
368,176,214065,2,0,B|352:96|280:72|272:64,1,131.99999597168,12|2,0:0|0:0,0:0:0:0:
160,80,214418,1,2,0:0:0:0:
224,192,214595,2,8,P|248:256|224:320,1,131.99999597168,8|8,0:0|0:0,0:0:0:0:
96,336,214948,5,6,0:0:0:0:
48,192,215124,1,0,0:0:0:0:
96,40,215301,1,10,0:0:0:0:
144,192,215477,2,0,P|224:208|288:184,1,131.99999597168,0|14,0:0|0:0,0:0:0:0:
418,160,215830,1,0,0:0:0:0:
418,160,215918,1,0,0:0:0:0:
418,160,216007,1,10,0:0:0:0:
272,112,216183,1,2,0:0:0:0:
368,264,216359,6,8,P|312:304|224:296,1,131.99999597168,4|8,0:0|0:0,0:0:0:0:
144,232,216712,1,12,0:0:0:0:
120,104,216889,2,8,P|176:64|237:61,1,131.99999597168,4|8,0:0|0:0,0:0:0:0:
360,112,217242,1,0,0:0:0:0:
256,192,217418,1,12,0:0:0:0:
256,192,217507,1,0,0:0:0:0:
256,192,217595,1,0,0:0:0:0:
168,124,217771,5,14,0:0:0:0:
336,108,217948,1,0,0:0:0:0:
344,268,218124,1,10,0:0:0:0:
184,280,218301,1,2,0:0:0:0:
364,180,218477,1,10,0:0:0:0:
240,80,218654,1,0,0:0:0:0:
147,207,218830,1,8,0:0:0:0:
274,300,219007,1,0,0:0:0:0:
192,284,219183,5,14,0:0:0:0:
160,128,219359,1,0,0:0:0:0:
325,97,219536,1,10,0:0:0:0:
352,254,219712,1,2,0:0:0:0:
144,212,219889,1,10,0:0:0:0:
237,79,220065,1,0,0:0:0:0:
365,175,220242,1,10,0:0:0:0:
268,303,220418,1,0,0:0:0:0:
185,33,220595,6,0,P|122:54|72:96,1,131.99999597168,10|2,0:0|0:0,0:0:0:0:
440,96,220948,2,0,P|376:48|288:32,1,131.99999597168,10|2,0:0|0:0,0:0:0:0:
326,350,221301,2,0,P|389:329|440:288,1,131.99999597168,10|2,0:0|0:0,0:0:0:0:
71,287,221654,2,0,P|122:329|185:350,1,131.99999597168,10|2,0:0|0:0,0:0:0:0:
256,176,222007,6,0,B|264:232|264:232|252:224|252:224|256:280,1,110
256,80,222359,1,10,0:0:0:0:
352,240,222536,1,2,0:0:0:0:
160,240,222712,1,8,0:0:0:0:
352,144,222889,5,2,0:0:0:0:
160,144,223065,1,10,0:0:0:0:
256,304,223242,1,0,0:0:0:0:
120,48,223418,6,8,P|112:112|128:200,1,131.99999597168,14|0,0:0|0:0,0:0:0:0:
368,96,223771,2,8,P|376:168|368:240,1,131.99999597168,10|2,0:0|0:0,0:0:0:0:
80,168,224124,2,8,P|72:232|88:320,1,131.99999597168,10|0,0:0|0:0,0:0:0:0:
416,216,224477,2,8,P|424:288|416:360,1,131.99999597168,8|0,0:0|0:0,0:0:0:0:
104,328,224830,6,8,P|96:256|104:192,1,131.99999597168,14|0,0:0|0:0,0:0:0:0:
360,272,225183,2,8,P|368:200|352:120,1,131.99999597168,10|2,0:0|0:0,0:0:0:0:
56,208,225536,2,8,P|48:136|56:72,1,131.99999597168,10|0,0:0|0:0,0:0:0:0:
416,144,225889,2,8,P|424:72|408:-8,1,131.99999597168,10|0,0:0|0:0,0:0:0:0:
256,192,226242,12,4,227654,0:0:0:0:
256,104,228007,5,0,0:0:0:0:
192,272,228183,1,10,0:0:0:0:
344,168,228359,1,2,0:0:0:0:
160,168,228536,1,10,0:0:0:0:
312,272,228712,1,0,0:0:0:0:
256,104,228889,1,2,0:0:0:0:
104,128,229065,5,6,0:0:0:0:
120,256,229242,2,0,P|184:304|272:304,1,153.999995300293,0|10,0:0|0:0,0:0:0:0:
224,144,229595,1,8,0:0:0:0:
344,248,229771,1,2,0:0:0:0:
168,192,229948,1,8,0:0:0:0:
392,192,230124,1,10,0:0:0:0:
328,80,230301,1,0,0:0:0:0:
328,80,230389,1,0,0:0:0:0:
328,80,230477,6,0,P|248:80|176:112,1,153.999995300293,0|2,0:0|0:0,0:0:0:0:
64,264,230830,2,0,P|144:264|216:232,1,153.999995300293,10|2,0:0|0:0,0:0:0:0:
248,72,231183,1,8,0:0:0:0:
392,192,231359,2,0,P|448:248|456:344,2,153.999995300293,0|10|0,0:0|0:0|0:0,0:0:0:0:
248,72,231889,5,10,0:0:0:0:
168,192,232065,2,0,P|239:205|295:261,1,153.999995300293,0|10,0:0|0:0,0:0:0:0:
480,304,232418,1,2,0:0:0:0:
480,304,232507,1,0,0:0:0:0:
480,304,232595,2,0,P|409:291|353:235,1,153.999995300293,0|10,0:0|0:0,0:0:0:0:
288,128,232948,1,8,0:0:0:0:
368,56,233124,1,10,0:0:0:0:
272,248,233301,5,10,0:0:0:0:
184,320,233477,1,10,0:0:0:0:
200,176,233654,1,2,0:0:0:0:
352,200,233830,1,10,0:0:0:0:
128,104,234007,1,2,0:0:0:0:
416,280,234183,1,10,0:0:0:0:
352,200,234359,2,0,P|400:112|392:48,1,153.999995300293,0|2,0:0|0:0,0:0:0:0:
128,104,234712,5,10,0:0:0:0:
128,104,235065,2,0,P|80:192|88:256,1,153.999995300293,10|0,0:0|0:0,0:0:0:0:
272,336,235418,1,2,0:0:0:0:
176,168,235595,1,10,0:0:0:0:
136,312,235771,1,10,0:0:0:0:
320,200,235948,1,2,0:0:0:0:
176,168,236124,2,0,B|96:152|79:213|79:165|-8:152|63:149,2,153.999995300293,0|2|2,0:0|0:0|0:0,0:0:0:0:
320,200,236654,2,0,P|392:128|400:64,1,153.999995300293,2|8,0:0|0:0,0:0:0:0:
464,248,237007,1,2,0:0:0:0:
288,312,237183,2,2,B|228:331|167:324|132:307,1,153.999995300293,0|2,0:0|0:0,0:0:0:0:
48,56,237536,6,0,P|128:40|208:56,1,153.999995300293,10|0,0:0|0:0,0:0:0:0:
408,272,237889,2,0,P|360:320|296:240,1,153.999995300293,8|0,0:0|0:0,0:0:0:0:
96,152,238242,2,0,P|144:104|208:184,1,153.999995300293,8|0,0:0|0:0,0:0:0:0:
240,296,238595,1,8,0:0:0:0:
392,120,238771,1,2,0:0:0:0:
444,243,238948,6,0,P|364:203|332:147,1,153.999995300293,10|0,0:0|0:0,0:0:0:0:
240,296,239301,1,8,0:0:0:0:
444,243,239477,1,0,0:0:0:0:
444,243,239565,1,0,0:0:0:0:
444,243,239654,1,10,0:0:0:0:
444,243,239742,1,0,0:0:0:0:
444,243,239830,1,0,0:0:0:0:
444,243,239918,1,0,0:0:0:0:
444,243,240007,1,10,0:0:0:0:
444,243,240095,1,0,0:0:0:0:
444,243,240183,1,0,0:0:0:0:
256,192,240359,5,10,0:0:0:0:
256,80,240536,1,0,0:0:0:0:
352,136,240712,1,0,0:0:0:0:
256,192,240889,5,0,0:0:0:0:
256,304,241065,1,8,0:0:0:0:
160,248,241242,1,0,0:0:0:0:
256,192,241418,5,0,0:0:0:0:
320,280,241595,1,0,0:0:0:0:
384,192,241771,1,8,0:0:0:0:
256,192,241948,5,0,0:0:0:0:
192,104,242124,1,0,0:0:0:0:
128,192,242301,1,0,0:0:0:0:
352,136,242477,5,10,0:0:0:0:
320,280,242654,1,0,0:0:0:0:
160,248,242830,1,10,0:0:0:0:
192,104,243007,1,0,0:0:0:0:
256,192,243183,5,10,0:0:0:0:
312,96,243359,1,0,0:0:0:0:
416,136,243536,2,0,L|416:248,1,110
256,192,243889,5,8,0:0:0:0:
344,256,244065,1,0,0:0:0:0:
312,360,244242,2,0,L|200:360,1,110
256,192,244595,5,8,0:0:0:0:
160,136,244771,1,0,0:0:0:0:
200,32,244948,2,0,L|312:32,1,110
256,192,245301,5,10,0:0:0:0:
256,300,245477,1,0,0:0:0:0:
152,336,245654,1,2,0:0:0:0:
96,328,245742,1,0,0:0:0:0:
52,296,245830,1,0,0:0:0:0:
24,248,245918,1,0,0:0:0:0:
16,192,246007,5,10,0:0:0:0:
48,104,246183,1,0,0:0:0:0:
144,48,246359,2,0,P|208:64|232:104,1,110
256,192,246712,1,8,0:0:0:0:
296,288,246889,1,0,0:0:0:0:
384,352,247065,2,0,P|448:320|464:272,1,110
496,192,247418,5,10,0:0:0:0:
464,104,247595,1,0,0:0:0:0:
384,48,247771,1,0,0:0:0:0:
296,104,247948,1,0,0:0:0:0:
256,192,248124,1,10,0:0:0:0:
208,280,248301,1,0,0:0:0:0:
128,328,248477,1,10,0:0:0:0:
48,280,248654,1,0,0:0:0:0:
8,192,248830,6,0,P|32:128|64:96,1,110,10|0,0:0|0:0,0:0:0:0:
128,176,249183,2,0,P|168:128|208:104,1,110,0|0,0:0|0:0,0:0:0:0:
248,200,249536,2,0,P|296:160|344:160,1,110,8|0,0:0|0:0,0:0:0:0:
344,264,249889,2,0,P|408:256|472:296,1,110,0|0,0:0|0:0,0:0:0:0:
440,160,250242,5,10,0:0:0:0:
432,133,250330,1,0,0:0:0:0:
414,111,250418,1,0,0:0:0:0:
394,90,250507,1,0,0:0:0:0:
372,72,250595,1,8,0:0:0:0:
352,55,250683,1,0,0:0:0:0:
327,43,250771,1,0,0:0:0:0:
301,32,250859,1,0,0:0:0:0:
273,25,250948,5,10,0:0:0:0:
251,41,251036,1,0,0:0:0:0:
275,52,251124,1,0,0:0:0:0:
300,63,251212,1,0,0:0:0:0:
324,76,251301,1,8,0:0:0:0:
345,91,251389,1,0,0:0:0:0:
363,111,251477,1,0,0:0:0:0:
383,128,251565,1,0,0:0:0:0:
400,149,251654,5,10,0:0:0:0:
360,288,251830,1,0,0:0:0:0:
280,192,252007,2,0,P|232:224|136:208,1,110,0|8,0:0|0:0,0:0:0:0:
64,176,252359,1,8,0:0:0:0:
184,32,252536,1,0,0:0:0:0:
280,192,252712,1,0,0:0:0:0:
248,80,252889,5,0,0:0:0:0:
248,80,252977,1,0,0:0:0:0:
248,80,253065,2,0,P|150:99|120:128,1,110,10|0,0:0|0:0,0:0:0:0:
168,208,253418,1,0,0:0:0:0:
232,296,253595,2,0,P|320:344|368:352,2,110,0|8|0,0:0|0:0|0:0,0:0:0:0:
248,80,254124,2,0,P|347:128|374:164,1,110
344,240,254477,5,10,0:0:0:0:
368,64,254654,1,0,0:0:0:0:
480,200,254830,1,2,0:0:0:0:
368,64,255007,2,0,P|352:192|320:288,1,220,2|0,0:0|0:0,0:0:0:0:
280,312,255448,1,0,0:0:0:0:
232,280,255536,2,0,B|184:216|216:200|200:184|184:168|200:168|216:184|216:152|232:136,1,110
216,128,255801,1,0,0:0:0:0:
248,88,255889,5,8,0:0:0:0:
352,120,256065,2,0,P|352:184|312:248,1,110
224,288,256418,1,0,0:0:0:0:
136,224,256595,1,10,0:0:0:0:
136,112,256771,1,0,0:0:0:0:
224,48,256948,1,2,0:0:0:0:
240,144,257124,5,0,0:0:0:0:
240,144,257212,1,0,0:0:0:0:
240,144,257301,2,0,P|320:176|320:240,1,110,10|0,0:0|0:0,0:0:0:0:
327,218,257565,1,0,0:0:0:0:
327,248,257654,1,0,0:0:0:0:
288,336,257830,2,0,P|176:336|128:320,1,110,0|8,0:0|0:0,0:0:0:0:
168,224,258183,1,0,0:0:0:0:
304,128,258359,1,0,0:0:0:0:
112,32,258536,5,0,0:0:0:0:
112,32,258624,1,0,0:0:0:0:
112,32,258712,1,10,0:0:0:0:
232,160,258889,1,0,0:0:0:0:
192,320,259065,1,0,0:0:0:0:
304,128,259242,2,0,P|416:128|464:144,1,110,0|8,0:0|0:0,0:0:0:0:
448,224,259595,1,0,0:0:0:0:
360,288,259771,1,0,0:0:0:0:
272,224,259948,1,0,0:0:0:0:
136,80,260124,5,10,0:0:0:0:
112,100,260212,1,0,0:0:0:0:
92,128,260301,1,0,0:0:0:0:
80,160,260389,1,0,0:0:0:0:
72,192,260477,1,10,0:0:0:0:
80,224,260565,1,0,0:0:0:0:
92,252,260654,1,2,0:0:0:0:
112,280,260742,1,0,0:0:0:0:
136,300,260830,6,0,P|168:324|200:324,3,55,10|0|0|0,0:0|0:0|0:0|0:0,0:0:0:0:
268,260,261183,2,0,P|300:236|332:236,3,55,2|0|2|0,0:0|0:0|0:0|0:0,0:0:0:0:
360,132,261536,5,10,0:0:0:0:
340,104,261624,1,0,0:0:0:0:
312,84,261712,1,0,0:0:0:0:
280,76,261801,1,0,0:0:0:0:
248,80,261889,2,0,L|172:96,3,55,10|0|2|0,0:0|0:0|0:0|0:0,0:0:0:0:
84,112,262242,6,0,L|152:96,1,55,10|0,0:0|0:0,0:0:0:0:
256,136,262418,2,0,L|188:152,1,55,2|0,0:0|0:0,0:0:0:0:
56,240,262595,2,0,L|124:224,1,55,2|0,0:0|0:0,0:0:0:0:
324,252,262771,2,0,L|248:268,1,55,2|0,0:0|0:0,0:0:0:0:
224,276,262948,5,14,0:0:0:0:
40,144,263301,1,0,0:0:0:0:
224,0,263654,1,0,0:0:0:0:
408,144,264007,1,0,0:0:0:0:
112,144,264359,5,8,0:0:0:0:
224,72,264712,1,0,0:0:0:0:
336,144,265065,1,0,0:0:0:0:
224,208,265418,1,0,0:0:0:0:
368,296,265771,5,8,0:0:0:0:
408,256,265948,1,0,0:0:0:0:
424,200,266124,1,0,0:0:0:0:
400,152,266301,1,0,0:0:0:0:
304,224,266477,5,8,0:0:0:0:
320,168,266654,1,0,0:0:0:0:
296,120,266830,1,0,0:0:0:0:
240,104,267007,1,0,0:0:0:0:
208,216,267183,5,8,0:0:0:0:
192,160,267359,1,0,0:0:0:0:
144,128,267536,1,8,0:0:0:0:
88,144,267712,1,0,0:0:0:0:
80,256,267889,5,8,0:0:0:0:
96,272,267977,1,0,0:0:0:0:
112,280,268065,1,0,0:0:0:0:
136,288,268154,1,0,0:0:0:0:
160,288,268242,1,2,0:0:0:0:
216,288,268418,1,0,0:0:0:0:
272,280,268595,5,10,0:0:0:0:
472,168,268948,1,0,0:0:0:0:
248,120,269301,1,0,0:0:0:0:
446,0,269654,1,0,0:0:0:0:
312,224,270007,5,8,0:0:0:0:
408,160,270359,1,0,0:0:0:0:
312,128,270712,1,0,0:0:0:0:
416,64,271065,1,0,0:0:0:0:
352,40,271242,1,2,0:0:0:0:
328,40,271330,1,0,0:0:0:0:
307,40,271418,5,10,0:0:0:0:
256,64,271595,1,2,0:0:0:0:
208,96,271771,1,0,0:0:0:0:
160,128,271948,1,0,0:0:0:0:
80,280,272124,5,10,0:0:0:0:
128,248,272301,1,2,0:0:0:0:
176,216,272477,1,0,0:0:0:0:
224,184,272654,1,0,0:0:0:0:
392,176,272830,5,10,0:0:0:0:
344,208,273007,1,0,0:0:0:0:
296,240,273183,1,2,0:0:0:0:
248,272,273359,1,2,0:0:0:0:
152,336,273536,1,10,0:0:0:0:
152,336,273624,1,0,0:0:0:0:
152,336,273712,1,0,0:0:0:0:
152,336,273801,1,0,0:0:0:0:
152,336,273889,1,10,0:0:0:0:
256,192,274242,5,12,0:0:0:0:
