osu file format v12

[General]
AudioFilename: anoore.mp3
AudioLeadIn: 2000
PreviewTime: 57139
Countdown: 0
SampleSet: Soft
StackLeniency: 0.7
Mode: 0
LetterboxInBreaks: 0
WidescreenStoryboard: 0

[Editor]
Bookmarks: 196,17393,29623,41852,57139,69368,81597
DistanceSpacing: 1
BeatDivisor: 4
GridSize: 4

[Metadata]
Title:Love Love*Revolution Now!
TitleUnicode:らぶらぶ☆れぼるーしょんなう!
Artist:Katakiri Rekka
ArtistUnicode:片霧烈火
Creator:Cah-m
Version:Normal
Source:Anoko ha orekara hanarenai
Tags:giga visual novel opening
BeatmapID:264256
BeatmapSetID:99341

[Difficulty]
HPDrainRate:3
CircleSize:3
OverallDifficulty:3
ApproachRate:5
SliderMultiplier:1.1
SliderTickRate:1

[Events]
//Background and Video events
0,0,"anoore.jpg",0,0
Video,-75,"anoore.avi"
//Break Periods
//Storyboard Layer 0 (Background)
//Storyboard Layer 1 (Fail)
//Storyboard Layer 2 (Pass)
//Storyboard Layer 3 (Foreground)
//Storyboard Sound Samples
//Background Colour Transformations
3,100,163,162,255

[TimingPoints]
-922,382.165605095541,4,2,1,50,1,0
17421,-100,4,2,2,50,0,0
26976,-100,4,2,4,45,0,0
27167,-100,4,2,2,50,0,0
36148,-100,4,2,4,45,0,0
36339,-100,4,2,2,50,0,0
39205,-100,4,2,4,45,0,0
39396,-100,4,2,2,50,0,0
41880,-100,4,2,1,50,0,0
57167,-100,4,2,1,50,0,1
69396,-100,4,2,1,50,0,0
69778,-100,4,2,1,50,0,1
77421,-100,4,2,3,45,0,1
77613,-100,4,2,1,50,0,1
81625,-100,4,2,1,50,0,0

[Colours]
Combo1 : 255,200,150
Combo2 : 180,255,180
Combo3 : 180,180,255
Combo4 : 255,180,180

[HitObjects]
176,180,607,2,0,P|152:232|168:288,1,110,6|0,0:0|0:0,0:0:0:0:
260,228,1371,2,0,P|284:176|268:120,1,110,6|0,0:0|0:0,0:0:0:0:
328,32,2135,5,6,0:0:0:0:
436,56,2518,1,2,0:0:0:0:
412,164,2900,1,6,0:0:0:0:
304,140,3282,1,2,0:0:0:0:
224,64,3664,6,0,P|176:40|116:48,1,110,6|10,0:1|0:0,0:0:0:0:
156,148,4428,2,0,P|105:164|68:213,1,110,2|10,0:0|0:0,0:0:0:0:
176,240,5193,6,0,P|152:288|160:348,1,110,2|10,0:0|0:0,0:0:0:0:
256,296,5957,1,2,0:0:0:0:
256,296,6339,1,10,0:0:0:0:
336,240,6721,6,0,P|360:192|352:132,1,110,2|10,0:0|0:0,0:0:0:0:
456,92,7486,2,0,P|426:47|369:24,1,110,2|10,0:0|0:0,0:0:0:0:
272,64,8250,6,0,L|160:76,1,110,2|10,0:0|0:0,0:0:0:0:
220,168,9014,2,0,L|110:179,1,110,2|10,0:0|0:0,0:0:0:0:
180,264,9779,6,0,P|212:320|268:328,1,110,6|10,0:0|0:0,0:0:0:0:
292,228,10543,1,2,0:0:0:0:
292,228,10925,1,10,0:0:0:0:
396,192,11307,6,0,P|364:136|323:125,1,110,2|10,0:0|0:0,0:0:0:0:
224,172,12072,2,0,L|108:164,1,110,2|10,0:0|0:0,0:0:0:0:
64,68,12836,6,0,P|112:48|176:64,1,110,2|10,0:0|0:0,0:0:0:0:
260,120,13600,2,0,P|308:140|372:124,1,110,2|10,0:0|0:0,0:0:0:0:
320,28,14365,5,2,0:0:0:0:
260,120,14747,1,10,0:0:0:0:
308,220,15129,2,0,L|320:280,2,55,6|6|6,0:0|0:0|0:0,0:0:0:0:
256,192,15893,12,6,17421,0:1:0:0:
192,136,18186,6,0,L|166:85,2,55,2|2|8,0:0|0:0|0:0,0:0:0:0:
224,244,18951,1,2,0:0:0:0:
308,172,19333,1,8,0:0:0:0:
332,280,19715,2,0,L|372:320,2,55,2|2|8,0:0|0:0|0:0,0:0:0:0:
224,244,20479,6,0,P|168:232|112:248,1,110,2|8,0:0|0:0,0:0:0:0:
68,220,21053,2,0,P|55:169|67:113,2,110,2|2|0,0:0|0:0|0:0,0:0:0:0:
117,244,22008,1,2,0:0:0:0:
196,168,22390,1,8,0:0:0:0:
236,272,22772,2,0,L|288:292,2,55,2|2|8,0:0|0:0|0:0,0:0:0:0:
328,212,23537,6,0,P|364:168|364:104,1,110,2|8,0:0|0:0,0:0:0:0:
260,128,24301,2,0,L|208:108,2,55,2|2|8,0:0|0:0|0:0,0:0:0:0:
328,212,25065,2,0,P|292:256|292:320,1,110,2|8,0:0|0:0,0:0:0:0:
396,292,25830,2,0,L|448:312,2,55,2|2|8,0:0|0:0|0:0,0:0:0:0:
412,184,26594,6,0,B|368:144|368:144|312:164|264:136,2,165,2|2|8,0:0|0:0|0:0,0:0:0:0:
336,264,28123,2,0,P|368:292|408:304,2,82.5,2|2|2,0:0|0:0|0:0,0:0:0:0:
296,224,28887,2,0,L|240:216,2,55,2|2|6,0:0|0:0|0:0,0:0:0:0:
396,176,29651,6,0,P|448:152|472:104,1,110,6|8,0:1|0:0,0:0:0:0:
416,12,30416,2,0,P|364:36|340:84,1,110,2|8,0:0|0:0,0:0:0:0:
292,180,31180,1,2,0:0:0:0:
220,96,31562,1,8,0:0:0:0:
116,136,31944,2,0,L|56:140,2,55,2|2|8,0:0|0:0|0:0,0:0:0:0:
188,216,32709,6,0,P|196:272|184:324,1,110,2|8,0:0|0:0,0:0:0:0:
132,304,33282,2,0,P|76:288|20:304,2,110,2|0|0,0:0|0:0|0:0,0:0:0:0:
184,323,34237,1,2,0:0:0:0:
256,239,34619,1,8,0:0:0:0:
360,279,35002,2,0,L|420:283,2,55,2|2|8,0:0|0:0|0:0,0:0:0:0:
336,172,35766,6,0,P|264:128|192:160,1,165,6|0,0:0|0:0,0:0:0:0:
156,196,36530,2,0,P|112:208|68:200,2,82.5,2|2|2,0:0|0:0|0:0,0:0:0:0:
195,156,37295,1,2,0:0:0:0:
256,248,37677,1,8,0:0:0:0:
336,172,38059,2,0,P|380:160|424:168,2,82.5,2|2|2,0:0|0:0|0:0,0:0:0:0:
300,212,38823,6,0,B|240:208|196:240|196:240|140:212,2,165,2|2|8,0:0|0:0|0:0,0:0:0:0:
340,108,40352,2,0,L|344:48,2,55,6|2|2,0:0|0:0|0:0,0:0:0:0:
288,128,40925,2,0,L|284:188,2,55,6|2|2,0:0|0:0|0:0,0:0:0:0:
236,108,41498,1,6,0:0:0:0:
176,200,41881,6,0,P|116:216|68:196,1,110,6|10,0:1|0:0,0:0:0:0:
20,104,42645,1,2,0:0:0:0:
104,32,43027,1,10,0:0:0:0:
204,72,43409,2,0,P|264:80|320:72,1,110,2|10,0:0|0:0,0:0:0:0:
356,40,43982,2,0,P|436:60|460:136,1,165,2|10,0:0|0:0,0:0:0:0:
368,192,44938,6,0,P|356:248|368:300,1,110,2|10,0:0|0:0,0:0:0:0:
404,340,45511,2,0,P|320:360|244:336,1,165,2|10,0:0|0:0,0:0:0:0:
140,308,46467,5,2,0:0:0:0:
113,201,46849,1,10,0:0:0:0:
220,174,47231,1,2,0:0:0:0:
246,281,47613,1,6,0:0:0:0:
308,192,47995,6,0,P|328:144|316:80,1,110,6|10,0:1|0:0,0:0:0:0:
236,16,48760,1,2,0:0:0:0:
140,68,49142,1,10,0:0:0:0:
184,168,49524,2,0,P|192:228|184:288,1,110,2|10,0:0|0:0,0:0:0:0:
152,320,50097,2,0,P|236:352|300:320,1,165,2|10,0:0|0:0,0:0:0:0:
372,240,51053,6,0,L|432:244,2,55,2|2|4,0:0|0:0|0:0,0:0:0:0:
276,188,51817,2,0,P|228:160|168:172,1,110,2|10,0:0|0:0,0:0:0:0:
204,276,52581,6,0,L|192:332,2,55,2|2|6,0:0|0:0|0:0,0:0:0:0:
276,188,53346,1,2,0:0:0:0:
384,212,53728,1,6,0:0:0:0:
316,300,54110,1,6,0:0:0:0:
132,172,54874,6,0,P|112:136|108:88,2,82.5,10|10|0,0:0|0:0|0:0,0:0:0:0:
184,184,55639,2,0,P|225:184|268:205,2,82.5,10|10|10,0:0|0:0|0:0,0:0:0:0:
140,220,56403,2,0,P|120:276|132:332,1,110,10|2,0:0|0:0,0:0:0:0:
232,288,57167,5,6,0:1:0:0:
320,352,57549,1,10,0:0:0:0:
416,300,57932,2,0,P|432:252|428:192,1,110,2|10,0:0|0:0,0:0:0:0:
384,160,58505,2,0,P|360:108|384:56,1,110,2|0,0:0|0:0,0:0:0:0:
424,32,59078,1,10,0:0:0:0:
488,120,59460,1,2,0:0:0:0:
384,160,59842,1,10,0:0:0:0:
316,72,60225,6,0,P|260:60|208:72,1,110,2|10,0:0|0:0,0:0:0:0:
168,108,60798,1,0,0:0:0:0:
76,48,61180,1,0,0:0:0:0:
64,156,61562,2,0,P|60:216|76:272,1,110,2|0,0:0|0:0,0:0:0:0:
100,312,62135,1,10,0:0:0:0:
204,276,62518,6,0,P|208:216|192:160,2,110,2|10|6,0:0|0:0|0:0,0:0:0:0:
360,336,63855,2,2,L|424:348,2,55,0|2|0,0:0|0:0|0:0,0:0:0:0:
284,256,64619,2,0,B|232:252|180:288|180:288|124:276,1,165,2|10,0:0|0:0,0:0:0:0:
48,200,65575,2,0,L|32:140,2,55,2|0|10,0:0|0:0|0:0,0:0:0:0:
156,196,66339,6,0,L|124:88,1,110,2|10,0:0|0:0,0:0:0:0:
208,20,67104,2,0,L|239:125,1,110,2|10,0:0|0:0,0:0:0:0:
336,180,67868,6,0,P|376:164|424:172,4,82.5,6|6|6|6|6,0:0|0:0|0:0|0:0|0:0,0:0:0:0:
392,276,69397,6,0,P|344:312|292:292,1,110,2|6,0:0|0:1,0:0:0:0:
200,252,70161,2,0,P|140:244|88:260,1,110,2|10,0:0|0:0,0:0:0:0:
48,288,70734,2,0,P|34:241|42:181,1,110,2|0,0:0|0:0,0:0:0:0:
76,136,71307,1,10,0:0:0:0:
112,32,71690,1,2,0:0:0:0:
188,112,72072,1,10,0:0:0:0:
152,216,72454,6,0,P|212:224|256:196,1,110,2|10,0:0|0:0,0:0:0:0:
284,156,73027,1,6,0:1:0:0:
360,236,73409,1,6,0:1:0:0:
396,132,73791,2,0,P|368:56|288:36,1,165,6|10,0:0|0:0,0:0:0:0:
184,56,74747,2,0,L|124:48,2,55,2|2|10,0:0|0:0|0:0,0:0:0:0:
268,128,75511,6,0,P|252:188|280:240,1,110,6|10,0:0|0:0,0:0:0:0:
352,304,76275,2,0,P|368:244|340:192,1,110,2|10,0:0|0:0,0:0:0:0:
268,128,77040,2,0,B|316:96|316:96|376:108|420:64,2,165,2|2|10,0:0|0:0|0:0,0:0:0:0:
196,212,78568,6,0,L|88:192,1,110,2|2,0:0|0:0,0:0:0:0:
36,288,79333,2,0,L|144:308,1,110,2|2,0:0|0:0,0:0:0:0:
256,300,80097,6,0,B|332:264|384:336|384:336|452:312,1,220,2|6,0:0|0:0,0:0:0:0:
412,208,81244,1,6,0:0:0:0:
484,124,81626,6,0,P|440:96|380:96,1,110,6|10,0:1|0:0,0:0:0:0:
312,180,82390,2,0,P|268:208|211:208,1,110,2|10,0:0|0:0,0:0:0:0:
240,104,83154,1,2,0:0:0:0:
240,104,83537,1,2,0:0:0:0:
136,136,83919,2,0,L|76:140,2,55,2|2|10,0:0|0:0|0:0,0:0:0:0:
212,216,84683,6,0,P|204:268|244:316,1,110,6|2,0:0|0:0,0:0:0:0:
340,276,85447,2,0,P|348:224|308:176,1,110,6|2,0:0|0:0,0:0:0:0:
212,216,86212,5,6,0:1:0:0:
105,192,86594,1,6,0:1:0:0:
129,84,86976,1,6,0:1:0:0:
236,109,87358,1,2,0:0:0:0:
284,208,87740,5,6,0:0:0:0:
