osu file format v12

[General]
AudioFilename: anoore.mp3
AudioLeadIn: 2000
PreviewTime: 57139
Countdown: 0
SampleSet: Soft
StackLeniency: 0.7
Mode: 0
LetterboxInBreaks: 0
WidescreenStoryboard: 0

[Editor]
Bookmarks: 196,17393,29623,41852,57139,69368,81597
DistanceSpacing: 1
BeatDivisor: 4
GridSize: 4

[Metadata]
Title:Love Love*Revolution Now!
TitleUnicode:らぶらぶ☆れぼるーしょんなう!
Artist:Katakiri Rekka
ArtistUnicode:片霧烈火
Creator:Cah-m
Version:Hard
Source:Anoko ha orekara hanarenai
Tags:giga visual novel opening
BeatmapID:264254
BeatmapSetID:99341

[Difficulty]
HPDrainRate:6
CircleSize:4
OverallDifficulty:6
ApproachRate:7
SliderMultiplier:1.6
SliderTickRate:1

[Events]
//Background and Video events
0,0,"anoore.jpg",0,0
Video,-75,"anoore.avi"
//Break Periods
//Storyboard Layer 0 (Background)
//Storyboard Layer 1 (Fail)
//Storyboard Layer 2 (Pass)
//Storyboard Layer 3 (Foreground)
//Storyboard Sound Samples
//Background Colour Transformations
3,100,163,162,255

[TimingPoints]
-922,382.165605095541,4,2,1,50,1,0
17421,-100,4,2,2,50,0,0
41880,-100,4,2,1,50,0,0
57167,-100,4,2,1,50,0,1
69396,-100,4,2,1,50,0,0
69778,-100,4,2,1,50,0,1
80097,-125,4,2,1,50,0,1
80765,-100,4,2,1,50,0,1
81625,-100,4,2,1,50,0,0

[Colours]
Combo1 : 255,200,150
Combo2 : 180,255,180
Combo3 : 180,180,255
Combo4 : 255,180,180

[HitObjects]
120,164,416,1,2,0:0:0:0:
120,164,511,1,2,0:0:0:0:
120,164,607,2,0,P|180:104|248:128,1,160,6|0,0:0|0:0,0:0:0:0:
308,76,1180,5,0,0:0:0:0:
308,76,1275,1,2,0:0:0:0:
308,76,1371,2,0,P|329:157|275:204,1,160,6|0,0:0|0:0,0:0:0:0:
196,188,1944,5,2,0:0:0:0:
196,188,2040,1,2,0:0:0:0:
196,188,2135,1,6,0:0:0:0:
244,340,2518,1,10,0:0:0:0:
352,224,2900,1,6,0:0:0:0:
196,188,3282,1,10,0:0:0:0:
416,284,3664,6,0,P|440:232|416:168,1,120,6|0,0:1|0:0,0:0:0:0:
396,140,4046,1,10,0:0:0:0:
396,140,4237,1,0,0:0:0:0:
352,224,4428,6,0,P|300:252|236:232,1,120,2|0,0:0|0:0,0:0:0:0:
208,216,4811,1,10,0:0:0:0:
208,216,5002,1,0,0:0:0:0:
288,164,5193,6,0,P|280:104|324:56,1,120,2|0,0:0|0:0,0:0:0:0:
352,48,5575,1,10,0:0:0:0:
352,48,5766,1,0,0:0:0:0:
360,128,5957,6,0,P|404:144|436:144,1,80,2|0,0:0|0:0,0:0:0:0:
292,48,6339,2,0,P|248:32|216:32,1,80,10|0,0:0|0:0,0:0:0:0:
164,112,6721,6,0,P|136:144|164:224,1,120,2|0,0:0|0:0,0:0:0:0:
184,240,7104,1,10,0:0:0:0:
184,240,7295,1,0,0:0:0:0:
128,328,7486,6,0,P|160:355|240:328,1,120,2|0,0:0|0:0,0:0:0:0:
254,307,7868,1,10,0:0:0:0:
254,307,8059,1,0,0:0:0:0:
272,204,8250,5,2,0:0:0:0:
441,268,8632,1,10,0:0:0:0:
342,116,9014,1,2,0:0:0:0:
332,297,9397,1,10,0:0:0:0:
447,157,9779,6,0,P|464:104|440:48,1,120,6|0,0:0|0:0,0:0:0:0:
408,24,10161,2,0,P|368:36|328:36,1,80,10|0,0:0|0:0,0:0:0:0:
384,112,10543,6,0,P|368:168|400:228,1,120,2|0,0:0|0:0,0:0:0:0:
420,252,10925,2,0,P|432:296|416:336,1,80,10|0,0:0|0:0,0:0:0:0:
336,284,11307,6,0,P|280:260|224:276,1,120,2|0,0:0|0:0,0:0:0:0:
196,300,11690,2,0,P|152:308|116:296,1,80,10|0,0:0|0:0,0:0:0:0:
168,216,12072,6,0,P|152:180|152:136,1,80,2|0,0:0|0:0,0:0:0:0:
308,104,12454,2,0,P|324:140|324:184,1,80,10|0,0:0|0:0,0:0:0:0:
308,104,12836,6,0,P|264:68|200:88,1,120,2|0,0:0|0:0,0:0:0:0:
180,112,13218,2,0,P|140:120|96:108,1,80,10|0,0:0|0:0,0:0:0:0:
244,144,13600,6,0,P|225:197|265:250,1,120,2|0,0:0|0:0,0:0:0:0:
292,268,13982,2,0,P|300:312|297:347,1,80,10|0,0:0|0:0,0:0:0:0:
192,300,14365,5,2,0:0:0:0:
381,193,14747,1,2,0:0:0:0:
194,82,15129,5,6,0:1:0:0:
196,170,15320,1,6,0:1:0:0:
271,125,15511,1,6,0:1:0:0:
256,192,15893,12,6,17421,0:0:0:0:
256,192,17613,6,0,P|300:180|340:188,2,80,0|8|0,0:0|0:0|0:0,0:0:0:0:
204,252,18186,1,2,0:0:0:0:
176,176,18377,1,2,0:0:0:0:
148,312,18568,2,0,P|104:324|64:316,1,80,8|0,0:0|0:0,0:0:0:0:
16,260,18951,5,2,0:0:0:0:
96,160,19142,1,0,0:0:0:0:
176,176,19333,2,0,P|216:172|256:148,1,80,8|0,0:0|0:0,0:0:0:0:
288,84,19715,2,0,P|322:65|362:61,1,80,2|2,0:0|0:0,0:0:0:0:
436,92,20097,2,0,L|452:176,1,80,8|0,0:0|0:0,0:0:0:0:
404,236,20479,6,0,P|396:280|408:320,2,80,2|0|8,0:0|0:0|0:0,0:0:0:0:
368,164,21053,2,0,P|300:140|232:192,2,160,2|2|2,0:0|0:0|0:0,0:0:0:0:
308,220,22008,6,0,P|316:301|261:348,1,160,2|8,0:0|0:0,0:0:0:0:
244,268,22581,1,0,0:0:0:0:
244,268,22677,1,2,0:0:0:0:
244,268,22772,2,0,P|208:252|164:256,2,80,2|2|8,0:0|0:0|0:0,0:0:0:0:
72,184,23537,6,0,P|56:144|60:104,1,80,2|0,0:0|0:0,0:0:0:0:
200,84,23919,2,0,P|216:124|212:164,1,80,8|0,0:0|0:0,0:0:0:0:
136,136,24301,1,2,0:0:0:0:
200,84,24492,1,2,0:0:0:0:
280,96,24683,2,0,P|320:100|360:88,1,80,8|0,0:0|0:0,0:0:0:0:
428,48,25065,5,2,0:0:0:0:
428,48,25256,2,0,P|496:100|480:168,1,160,0|2,0:0|0:0,0:0:0:0:
416,124,25830,1,2,0:0:0:0:
468,240,26021,1,2,0:0:0:0:
396,200,26212,2,0,P|352:200|316:216,1,80,8|0,0:0|0:0,0:0:0:0:
256,288,26594,6,0,P|184:280|156:200,1,160,2|8,0:0|0:0,0:0:0:0:
228,176,27167,2,0,P|175:125|99:151,1,160,2|0,0:0|0:0,0:0:0:0:
100,149,27740,1,10,0:0:0:0:
280,48,28123,5,2,0:0:0:0:
384,108,28314,1,0,0:0:0:0:
384,108,28409,1,0,0:0:0:0:
384,108,28505,1,8,0:0:0:0:
456,72,28696,2,0,P|428:40|392:28,1,80,0|2,0:0|0:0,0:0:0:0:
312,144,29078,2,0,P|340:176|376:188,1,80,2|6,0:0|0:0,0:0:0:0:
192,88,29651,5,6,0:1:0:0:
140,148,29842,1,0,0:0:0:0:
116,72,30033,1,8,0:0:0:0:
192,88,30225,1,0,0:0:0:0:
64,132,30416,2,0,P|48:172|56:220,1,80,2|2,0:0|0:0,0:0:0:0:
112,312,30798,2,0,L|200:320,1,80,8|0,0:0|0:0,0:0:0:0:
256,364,31180,6,0,P|272:324|264:276,1,80,2|0,0:0|0:0,0:0:0:0:
208,236,31562,1,8,0:0:0:0:
208,236,31753,1,0,0:0:0:0:
348,280,31944,2,0,P|388:292|428:292,1,80,2|2,0:0|0:0,0:0:0:0:
444,172,32326,2,0,P|404:160|364:160,1,80,8|0,0:0|0:0,0:0:0:0:
288,140,32709,5,2,0:0:0:0:
344,84,32900,1,0,0:0:0:0:
366,159,33091,1,8,0:0:0:0:
288,140,33282,2,0,P|268:56|320:8,2,160,2|2|2,0:0|0:0|0:0,0:0:0:0:
308,216,34237,6,0,P|232:256|168:224,1,160,2|8,0:0|0:0,0:0:0:0:
100,264,34811,1,0,0:0:0:0:
100,264,34906,1,0,0:0:0:0:
100,264,35002,2,0,P|92:220|108:180,2,80,2|2|8,0:0|0:0|0:0,0:0:0:0:
168,68,35766,6,0,B|252:100|252:32|336:64,1,160,6|8,0:0|0:0,0:0:0:0:
392,104,36339,1,0,0:0:0:0:
392,104,36435,1,0,0:0:0:0:
392,104,36530,2,0,P|444:140|500:120,2,120,2|2|2,0:0|0:0|0:0,0:0:0:0:
456,56,37295,5,2,0:0:0:0:
408,260,37677,1,8,0:0:0:0:
336,224,37868,1,0,0:0:0:0:
336,224,37963,1,0,0:0:0:0:
336,224,38059,2,0,P|328:280|368:328,2,120,2|2|2,0:0|0:0|0:0,0:0:0:0:
404,180,38823,6,0,P|336:140|268:184,1,160,2|8,0:0|0:0,0:0:0:0:
228,244,39397,2,0,P|192:264|152:260,2,80,0|2|2,0:0|0:0|0:0,0:0:0:0:
228,244,39970,1,8,0:0:0:0:
96,104,40352,5,6,0:0:0:0:
212,72,40543,2,2,L|244:40,2,40
176,188,40925,1,6,0:0:0:0:
96,104,41116,5,2,0:0:0:0:
212,72,41307,1,2,0:0:0:0:
176,188,41498,1,6,0:0:0:0:
344,92,41881,6,0,P|392:80|428:88,1,80,6|0,0:0|0:0,0:0:0:0:
432,220,42263,2,0,P|384:232|348:224,1,80,10|0,0:0|0:0,0:0:0:0:
388,156,42645,1,2,0:0:0:0:
432,220,42836,1,0,0:0:0:0:
312,288,43027,1,10,0:0:0:0:
268,224,43218,1,0,0:0:0:0:
188,212,43409,6,0,P|236:144|304:152,1,160,2|10,0:0|0:0,0:0:0:0:
268,224,43982,2,0,P|220:292|152:284,1,160,2|0,0:0|0:0,0:0:0:0:
92,224,44556,2,0,P|48:208|8:212,1,80,10|0,0:0|0:0,0:0:0:0:
41,285,44938,5,2,0:0:0:0:
72,76,45320,1,10,0:0:0:0:
72,76,45511,2,0,P|131:123|212:79,1,160,2|0,0:0|0:0,0:0:0:0:
272,52,46084,2,0,P|316:52|360:72,1,80,10|2,0:0|0:0,0:0:0:0:
400,164,46467,6,0,P|423:230|371:294,1,160,2|10,0:0|0:0,0:0:0:0:
112,220,47231,2,0,P|89:154|141:90,1,160,2|14,0:0|0:0,0:0:0:0:
256,192,47995,5,6,0:1:0:0:
320,140,48186,2,0,P|336:104|336:64,2,80,0|10|0,0:0|0:0|0:0,0:0:0:0:
244,112,48760,1,2,0:0:0:0:
256,192,48951,1,0,0:0:0:0:
320,140,49142,1,10,0:0:0:0:
176,164,49333,6,0,P|172:200|152:238,1,80,0|2,0:0|0:0,0:0:0:0:
20,184,49715,2,0,P|24:148|44:108,2,80,0|10|0,0:0|0:0|0:0,0:0:0:0:
100,176,50288,1,2,0:0:0:0:
152,238,50479,2,0,P|196:242|226:261,2,80,0|10|0,0:0|0:0|0:0,0:0:0:0:
72,248,51053,6,0,L|52:288,4,40,0|0|0|0|4,0:0|0:0|0:0|0:0|0:0,0:0:0:0:
180,68,51817,2,0,P|180:112|196:152,1,80,2|0,0:0|0:0,0:0:0:0:
256,96,52199,1,10,0:0:0:0:
440,248,52581,6,0,L|460:288,4,40,2|2|2|2|6,0:0|0:0|0:0|0:0|0:0,0:0:0:0:
332,68,53346,2,0,P|332:112|316:152,1,80,2|0,0:0|0:0,0:0:0:0:
256,96,53728,1,14,0:0:0:0:
256,276,54110,1,6,0:1:0:0:
135,252,54492,5,0,0:0:0:0:
205,213,54683,1,0,0:0:0:0:
256,276,54874,2,0,P|304:308|368:288,2,120,10|10|10,0:0|0:0|0:0,0:0:0:0:
320,228,55639,2,0,P|336:171|388:145,2,120,10|10|10,0:0|0:0|0:0,0:0:0:0:
400,224,56403,1,10,0:0:0:0:
112,160,56785,1,2,0:0:0:0:
320,156,57167,6,0,P|336:120|332:80,1,80,6|0,0:1|0:0,0:0:0:0:
256,200,57549,2,0,P|240:236|244:276,1,80,10|0,0:0|0:0,0:0:0:0:
244,120,57932,2,0,P|172:76|104:120,1,160,2|10,0:0|0:0,0:0:0:0:
173,157,58505,6,0,P|170:225|96:265,1,160,0|0,0:0|0:0,0:0:0:0:
98,185,59078,1,10,0:0:0:0:
224,284,59269,1,0,0:0:0:0:
288,236,59460,2,0,L|368:232,1,80,2|0,0:0|0:0,0:0:0:0:
420,348,59842,2,0,L|340:352,1,80,10|0,0:0|0:0,0:0:0:0:
484,300,60225,6,0,P|456:224|484:144,1,160,2|10,0:0|0:0,0:0:0:0:
436,84,60798,2,0,P|396:68|356:64,1,80,0|2,0:0|0:0,0:0:0:0:
276,124,61180,2,0,P|236:140|196:144,1,80,0|10,0:0|0:0,0:0:0:0:
136,88,61562,6,0,P|108:144|160:216,1,160
216,68,62135,1,10,0:0:0:0:
276,124,62326,1,0,0:0:0:0:
296,48,62518,2,0,L|332:16,2,40,2|8|0,0:0|0:0|0:0,0:0:0:0:
199,144,62900,1,10,0:0:0:0:
199,144,63091,1,2,0:0:0:0:
340,168,63282,6,0,P|396:216|372:292,1,160,6|10,0:0|0:0,0:0:0:0:
312,240,63855,1,0,0:0:0:0:
312,240,63951,1,0,0:0:0:0:
312,240,64046,2,0,P|272:244|232:256,1,80,2|0,0:0|0:0,0:0:0:0:
284,316,64428,1,10,0:0:0:0:
252,176,64619,6,0,P|240:96|304:56,1,160
316,132,65193,1,10,0:0:0:0:
252,176,65384,1,0,0:0:0:0:
176,156,65575,2,0,P|136:144|100:152,1,80,2|0,0:0|0:0,0:0:0:0:
136,224,65957,1,10,0:0:0:0:
136,64,66148,1,0,0:0:0:0:
212,88,66339,6,0,P|252:100|288:136,1,80,2|0,0:0|0:0,0:0:0:0:
344,76,66721,2,0,P|363:112|363:163,1,80,10|0,0:0|0:0,0:0:0:0:
440,176,67104,2,0,P|428:216|392:252,1,80,2|0,0:0|0:0,0:0:0:0:
436,316,67486,2,0,P|399:335|348:335,1,80,10|0,0:0|0:0,0:0:0:0:
320,244,67868,6,0,P|272:216|212:244,1,120,6|6,0:0|0:0,0:0:0:0:
72,304,68441,2,0,P|120:332|180:304,1,120,6|6,0:0|0:0,0:0:0:0:
144,104,69014,2,0,P|156:144|152:181,1,80,6|2,0:0|0:0,0:0:0:0:
76,152,69397,5,2,0:0:0:0:
436,232,69779,1,6,0:1:0:0:
300,148,70161,2,0,P|280:112|288:68,1,80,2|0,0:0|0:0,0:0:0:0:
360,96,70543,1,10,0:0:0:0:
376,176,70734,6,0,P|320:232|248:213,1,160
188,160,71307,2,0,P|148:144|112:144,1,80,2|0,0:0|0:0,0:0:0:0:
204,304,71690,2,0,P|244:320|280:320,1,80,2|0,0:0|0:0,0:0:0:0:
164,236,72072,1,10,0:0:0:0:
164,236,72263,1,2,0:0:0:0:
244,220,72454,6,0,P|264:184|264:140,2,80,2|0|10,0:0|0:0|0:0,0:0:0:0:
188,160,73027,1,6,0:1:0:0:
321,319,73409,1,6,0:1:0:0:
392,124,73791,6,0,P|352:52|280:60,1,160,6|0,0:0|0:0,0:0:0:0:
316,128,74365,2,0,P|284:152|244:156,1,80,10|0,0:0|0:0,0:0:0:0:
200,88,74747,1,2,0:0:0:0:
164,160,74938,1,2,0:0:0:0:
116,96,75129,2,0,L|36:88,1,80,10|10,0:0|0:0,0:0:0:0:
68,200,75511,6,0,P|56:248|68:284,1,80,6|0,0:0|0:0,0:0:0:0:
208,296,75893,2,0,P|220:248|208:212,1,80,10|0,0:0|0:0,0:0:0:0:
140,252,76275,1,2,0:0:0:0:
208,296,76467,1,0,0:0:0:0:
356,232,76658,2,0,P|396:220|433:219,1,80,10|0,0:0|0:0,0:0:0:0:
356,312,77040,6,0,P|284:268|288:192,1,160,2|10,0:0|0:0,0:0:0:0:
348,148,77613,2,0,P|313:88|229:86,1,160,0|0,0:0|0:0,0:0:0:0:
229,86,78186,1,10,0:0:0:0:
52,196,78568,6,0,L|32:276,1,80,2|2,0:0|0:0,0:0:0:0:
123,230,78951,2,0,L|104:308,1,80,2|2,0:0|0:0,0:0:0:0:
188,180,79333,2,0,L|227:176,7,40,2|2|2|2|2|2|2|2,0:0|0:0|0:0|0:0|0:0|0:0|0:0|0:0,0:0:0:0:
147,155,80097,6,0,P|119:72|198:34,1,192,2|2,0:0|0:0,0:0:0:0:
199,34,80861,1,6,0:0:0:0:
313,349,81244,1,6,0:0:0:0:
296,124,81626,6,0,P|348:84|404:108,1,120,6|0,0:1|0:0,0:0:0:0:
424,124,82008,1,10,0:0:0:0:
424,124,82199,1,0,0:0:0:0:
360,176,82390,6,0,P|368:241|319:277,1,120,2|0,0:0|0:0,0:0:0:0:
295,286,82772,1,10,0:0:0:0:
295,286,82963,1,0,0:0:0:0:
280,208,83154,6,0,P|240:192|204:196,1,80,2|2,0:0|0:0,0:0:0:0:
184,336,83537,2,0,P|224:352|260:348,1,80,2|2,0:0|0:0,0:0:0:0:
232,272,83919,1,2,0:0:0:0:
232,272,84110,1,2,0:0:0:0:
112,224,84301,2,0,L|72:220,2,40,10|8|8,0:0|0:0|0:0,0:0:0:0:
212,160,84683,6,0,P|200:84|268:48,1,160,6|2,0:0|0:0,0:0:0:0:
280,128,85256,5,2,0:0:0:0:
280,128,85352,1,2,0:0:0:0:
280,128,85447,2,0,P|343:165|403:116,1,160,6|2,0:0|0:0,0:0:0:0:
336,76,86021,5,2,0:0:0:0:
336,76,86116,1,2,0:0:0:0:
336,76,86212,1,6,0:1:0:0:
300,248,86594,1,6,0:1:0:0:
168,128,86976,1,6,0:1:0:0:
336,76,87358,1,2,0:0:0:0:
268,152,87740,5,6,0:0:0:0:
