osu file format v5

[General]
AudioFilename: Howling Soul.Mp3
AudioLeadIn: 1996
PreviewTime: -1
Countdown: 0
SampleSet: Normal
StackLeniency: 0.7
Mode: 0
LetterboxInBreaks: 1
EditorBookmarks: 31916,76083

[Metadata]
Title:Howling Soul
Artist:Katakiri Rekka
Creator:tom800510
Version:Unrivalled!!
Source:
Tags:

[Difficulty]
HPDrainRate:6
CircleSize:5
OverallDifficulty:8
SliderMultiplier:2.3
SliderTickRate:2

[Events]
//Background and Video events
0,0,"BG.jpg"
1,-769,"video[1].flv"
//Break Periods
2,95142,99526
//Storyboard Layer 0 (Background)
//Storyboard Layer 1 (Failing)
//Storyboard Layer 2 (Passing)
//Storyboard Layer 3 (Foreground)
//Storyboard Sound Samples
//Background Colour Transformations
3,100,0,0,0

[TimingPoints]
276,666.666666666667,4,1,0,80,1
105526,-100,4,2,0,62,0
110859,-100,4,2,0,51,0
113442,-100,4,2,0,44,0
114859,-100,4,1,0,30,0

[Colours]
Combo1 : 255,255,128
Combo2 : 213,137,245
Combo3 : 15,230,203
Combo4 : 192,192,192

[HitObjects]
120,73,276,1,0
188,75,442,1,0
257,76,609,1,0
326,76,776,1,0
394,76,942,1,0
397,214,1276,5,0
328,212,1442,1,0
258,212,1609,1,0
188,209,1776,1,0
119,211,1942,1,0
183,333,2276,2,0,B|220:305,4,28.75,0|0|0|0|8
324,331,2942,5,0
393,331,3109,1,0
391,261,3276,1,0
322,261,3442,1,0
321,191,3609,1,0
458,186,3942,5,0
458,116,4109,1,0
455,46,4276,1,0
386,44,4442,1,0
386,113,4609,1,0
263,49,4942,2,0,B|214:70,4,28.75,0|0|0|0|8
124,51,5609,5,0
124,120,5776,1,0
192,120,5942,1,0
192,120,6109,1,0
191,189,6275,1,0
328,191,6609,5,0
329,260,6775,1,0
329,260,6942,1,0
398,260,7109,1,0
396,329,7275,1,0
454,203,7609,2,0,B|461:166,4,28.75,0|0|0|0|8
451,64,8275,5,0
382,68,8442,2,0,B|308:67,1,57.5
254,66,8775,2,0,B|185:67,1,57.5
70,123,9276,5,0
72,191,9442,2,0,B|152:192,1,57.5
129,261,9776,2,0,B|211:261,1,57.5
305,191,10276,2,0,B|253:192,2,28.75
305,191,10609,5,4
372,70,10942,1,0
372,70,11109,1,0
475,71,11276,2,0,B|473:153,1,57.5
474,197,11609,1,0
474,197,11776,1,0
474,197,11942,1,8
395,310,12276,5,0
395,310,12359,1,0
291,310,12609,2,0,B|224:310,1,57.5
164,312,12942,1,0
164,312,13109,1,0
164,312,13276,1,8
60,220,13609,5,0
60,220,13692,1,0
163,222,13942,2,0,B|232:223,1,57.5
290,223,14276,1,0
290,223,14442,1,0
290,223,14609,1,8
402,142,14942,5,0
402,142,15109,1,0
298,144,15276,2,0,B|224:144,1,57.5
171,145,15609,1,0
171,145,15776,1,0
171,145,15942,1,8
68,53,16276,6,0,B|150:80,1,57.5
119,140,16609,2,8,B|54:161,1,57.5,8|0
66,226,16942,1,0
66,226,17109,1,0
66,226,17276,1,8
202,242,17609,6,0,B|160:318,1,57.5
239,314,17942,2,0,B|273:248,1,57.5,8|0
329,289,18276,1,0
392,314,18442,1,0
454,343,18609,1,8
466,205,18942,6,0,B|466:124,1,57.5
466,77,19276,2,0,B|385:77,1,57.5,8|0
339,74,19609,1,0
339,74,19776,1,0
339,74,19942,1,8
200,72,20275,6,0,B|115:72,1,57.5
73,69,20609,1,0
73,69,20692,1,0
73,69,20775,2,0,B|73:140,1,57.5,0|8
74,195,21109,1,0
74,195,21192,1,0
74,195,21275,1,4
74,332,21609,5,0
74,332,21692,1,0
74,332,21775,2,0,B|143:332,1,57.5
131,332,22109,1,0
200,333,22275,1,0
200,333,22359,1,0
200,333,22442,2,0,B|265:333,1,57.5,0|8
141,259,22942,5,0
141,259,23025,1,0
141,259,23109,2,0,B|200:259,1,57.5
198,259,23442,1,0
267,260,23609,1,0
267,260,23692,1,0
267,260,23775,2,0,B|335:260,1,57.5,0|8
205,190,24275,5,0
205,190,24359,1,0
205,190,24442,2,0,B|281:190,1,57.5
263,190,24775,1,0
331,190,24942,1,0
331,190,25025,1,0
331,190,25109,2,0,B|406:190,1,57.5,0|8
268,120,25609,5,0
268,120,25692,1,0
268,120,25775,2,0,B|333:120,1,57.5
325,120,26109,1,0
394,122,26275,1,0
394,122,26359,1,0
394,122,26442,2,0,B|460:122,1,57.5,0|8
417,263,26942,5,0
417,263,27025,1,0
417,263,27109,2,0,B|352:264,1,57.5
313,265,27442,1,0
264,264,27609,2,8,B|192:264,2,57.5
102,136,28275,5,0
102,136,28359,1,0
102,136,28442,2,0,B|167:137,1,57.5
206,138,28775,1,0
255,137,28942,2,8,B|327:137,2,57.5
256,192,29609,12,2,30275
256,192,30609,12,4,31275
154,76,32609,6,0,B|235:76,1,57.5
211,76,32942,1,2
211,76,33109,1,2
211,76,33275,2,0,B|277:76,1,57.5
268,76,33609,1,2
268,76,33775,1,2
268,76,33942,2,2,B|376:72|340:158,1,115
458,47,34609,1,2
458,116,34775,1,4
456,322,35275,5,0
456,322,35442,1,0
456,322,35609,2,0,B|379:321,1,57.5
329,320,35942,1,0
259,323,36109,2,2,B|205:260,1,57.5
223,210,36442,2,0,B|267:140,1,57.5
252,91,36775,2,2,B|212:42,1,57.5
146,48,37109,2,2,B|98:107,1,57.5,2|4
58,188,37942,6,0,B|58:258,1,57.5
58,315,38275,1,2
126,316,38442,1,2
126,246,38609,2,0,B|126:166,1,57.5
195,187,38942,1,2
195,187,39109,1,2
196,256,39276,2,0,B|196:323,1,57.5
196,313,39609,1,2
196,313,39776,1,2
196,313,39942,1,2
196,313,40109,1,2
402,315,40609,5,0
471,315,40776,1,0
472,246,40942,1,0
402,246,41109,1,0
402,246,41276,1,0
400,177,41442,2,2,B|462:123,1,57.5
386,99,41776,2,0,B|384:27,1,57.5
321,70,42109,2,2,B|255:94,1,57.5
204,118,42442,2,2,B|132:75,1,57.5,2|4
336,293,43276,6,0,B|236:293,1,57.5
232,344,43609,1,2
184,294,43776,1,2
138,344,43942,1,0
102,287,44109,2,2,B|43:203,1,57.5
136,243,44442,2,0,B|198:168,1,57.5
105,190,44776,2,2,B|42:127,1,57.5
131,141,45109,2,2,B|184:92,1,57.5,0|12
446,142,45942,6,0,B|489:202,2,57.5
412,81,46442,1,0
342,82,46609,1,2
342,82,46776,1,0
273,83,46942,1,2
273,83,47109,1,0
203,80,47276,1,2
203,80,47442,1,0
133,82,47609,1,0
133,82,47776,2,0,B|134:160,1,57.5,0|8
296,322,48609,5,0
296,322,48776,1,0
296,322,48942,2,2,B|183:321,1,57.5
169,326,49276,2,0,B|108:265,1,57.5
60,289,49609,2,2,B|35:199,1,57.5
112,227,49942,2,0,B|171:170,1,57.5
93,152,50276,2,2,B|117:87,1,57.5
176,123,50609,2,0,B|244:82,1,57.5,0|8
429,71,51276,5,0
429,71,51442,1,0
429,71,51609,2,0,B|429:210,1,115,0|0
470,240,52109,1,2
434,298,52276,1,0
365,298,52442,1,0
324,243,52609,1,2
255,245,52776,1,0
210,296,52942,1,2
141,296,53109,1,0
94,245,53276,1,0
94,245,53359,1,0
94,245,53442,1,0
94,245,53609,2,0,B|64:168,1,57.5,2|14
61,87,53942,5,0
122,62,54109,1,0
188,59,54276,1,0
330,60,54609,2,0,B|412:60,1,57.5
97,234,55609,5,0
138,288,55776,1,0
206,288,55942,1,0
342,298,56276,2,2,B|244:214,1,115,2|10
254,223,56776,1,0
308,182,56942,2,2,B|202:97,1,115,2|4
218,110,57442,1,4
256,192,57942,12,4,58942
104,128,59276,5,0
150,78,59442,1,0
217,67,59609,1,0
353,74,59942,2,0,B|436:74,1,57.5
445,276,60609,5,0
414,337,60776,1,0
345,340,60942,1,0
275,340,61109,1,0
274,341,61276,1,0
205,341,61442,1,0
205,341,61609,2,2,B|120:243,1,115
129,254,62109,1,2
194,232,62276,2,2,B|101:108,1,115
125,140,62776,1,4
125,140,62942,2,0,B|167:82,1,57.5
158,93,63276,2,0,B|250:93,1,57.5
216,93,63609,6,0,B|260:44,1,57.5,0|0
323,57,63942,1,0
323,57,64109,2,2,L|377:33|445:95,1,115
460,125,64609,1,0
463,194,64776,1,0
413,242,64942,2,2,L|368:278|322:240,1,115
254,241,65442,1,0
257,310,65609,1,0
187,311,65776,1,0
118,311,65942,6,2,L|70:275|124:236,1,115
118,173,66442,1,0
118,103,66609,1,0
48,104,66776,1,0
49,35,66942,2,2,L|167:35,1,115
233,37,67442,1,0
302,38,67609,1,0
371,38,67776,1,0
439,38,67942,1,8
439,38,68109,1,8
256,192,68276,12,2,69276
400,193,69609,5,0
401,123,69776,1,0
401,54,69942,2,0,L|264:53,1,115
216,56,70442,1,0
146,56,70609,1,0
76,56,70776,1,8
256,192,70942,12,2,71942
120,193,72276,5,0
257,195,72609,1,0
255,332,72942,1,0
393,333,73276,2,0,L|426:310,16,28.75
256,192,74942,12,4,75942
98,199,76276,6,0,L|219:148,1,115
195,85,76776,1,2
195,85,76859,1,2
195,85,76942,2,2,L|281:84,1,57.5
315,51,77276,1,0
383,53,77442,5,2
383,53,77526,1,2
383,53,77609,2,2,L|383:129,1,57.5
328,153,77942,1,0
328,222,78109,1,2
328,222,78192,1,2
328,222,78276,2,2,L|242:222,1,57.5
201,222,78609,5,0
140,188,78776,1,0
80,221,78942,1,2
80,221,79025,1,2
80,221,79109,2,2,L|80:297,1,57.5
141,310,79442,1,2
141,310,79525,1,2
141,310,79609,2,2,L|204:310,1,57.5
267,310,79942,5,8
314,260,80109,1,8
361,309,80275,1,8
406,257,80442,1,8
380,192,80609,1,8
425,139,80775,1,8
468,85,80942,6,0,L|398:46,1,57.5
367,105,81275,2,0,L|291:120,1,57.5
286,51,81609,1,2
286,51,81692,1,2
286,51,81775,2,2,L|211:35,1,57.5
235,107,82109,1,2
235,107,82192,1,2
235,107,82275,2,2,L|158:120,1,57.5
152,52,82609,2,0,L|78:24,1,57.5
62,90,82942,5,8
62,159,83109,1,8
62,228,83275,1,8
62,296,83442,1,8
127,317,83609,6,0,L|165:244,1,57.5
200,316,83942,2,0,L|270:268,1,57.5
233,215,84275,1,2
233,215,84359,1,2
233,215,84442,2,2,L|308:210,1,57.5
305,279,84775,1,0
365,310,84942,1,2
365,310,85025,1,2
365,310,85109,2,2,L|412:254,1,57.5
403,196,85442,5,8
352,149,85609,1,8
399,98,85775,1,8
345,54,85942,1,8
275,55,86109,1,8
228,106,86275,6,0,L|172:57,3,57.5
118,50,86942,1,2
118,50,87025,1,2
118,50,87109,2,2,L|63:91,1,57.5
91,150,87442,2,0,L|142:193,3,57.5
102,248,88109,1,2
102,248,88192,1,2
102,248,88275,2,2,L|39:299,1,57.5
102,336,88609,2,0,L|172:334,1,57.5
185,270,88942,5,8
240,229,89109,1,8
221,162,89275,1,8
279,126,89442,1,8
256,60,89609,5,2
443,192,89942,1,2
255,326,90275,1,2
67,193,90609,1,2
204,194,90942,1,2
204,194,91025,1,2
204,194,91109,2,2,L|338:194,1,115,0|4
128,60,91942,5,0
81,111,92109,1,0
113,171,92275,1,2
113,171,92359,1,2
113,171,92442,2,2,L|55:226,3,57.5
112,266,93109,1,0
177,299,93275,6,2,L|297:300,1,115,0|2
361,300,93775,1,8
411,253,93942,1,8
450,196,94109,2,2,L|450:76,1,115,2|2
381,85,94609,2,2,L|243:86,1,115,2|4
80,103,100275,6,0,B|172:101,3,57.5
181,89,100942,1,8
219,114,101109,1,8
255,86,101275,1,0
300,87,101442,2,8,B|398:86,1,57.5
391,55,101775,1,0
427,82,101942,1,0
428,128,102109,1,8
471,143,102275,1,8
384,305,102942,6,0,B|318:222,3,57.5
314,291,103609,1,8
279,260,103775,1,8
233,260,103942,1,0
194,234,104109,2,0,B|135:169,1,57.5,0|4
398,77,105609,6,0,B|459:67,2,57.5
356,159,106275,1,8
120,300,106942,6,0,B|44:308,2,57.5
199,253,107609,1,8
357,45,108275,6,0,B|441:75,1,57.5
440,99,108609,1,0
466,187,108942,1,8
434,273,109275,1,0
409,311,109442,1,0
296,334,109609,6,0,B|211:318,1,57.5
201,297,109942,1,0
142,225,110275,1,8
172,39,110942,5,0
216,26,111109,1,0
258,44,111275,1,0
344,76,111609,1,8
406,143,111942,1,0
412,188,112109,1,0
347,283,112275,5,0
312,313,112442,1,0
265,310,112609,1,0
173,303,112942,1,8
74,115,113609,5,0
96,74,113775,1,0
141,68,113942,1,0
232,60,114275,1,8
321,79,114609,1,0
349,114,114775,1,0
256,192,114942,5,0
