osu file format v5

[General]
AudioFilename: Howling Soul.Mp3
AudioLeadIn: 0
PreviewTime: -1
Countdown: 0
SampleSet: Normal
StackLeniency: 0.7
Mode: 0
LetterboxInBreaks: 1
EditorBookmarks: 31916

[Metadata]
Title:Howling Soul
Artist:Katakiri Rekka
Creator:tom800510
Version:Normal
Source:
Tags:

[Difficulty]
HPDrainRate:2
CircleSize:3
OverallDifficulty:4
SliderMultiplier:2.3
SliderTickRate:2

[Events]
//Background and Video events
0,0,"BG.jpg"
1,-769,"video[1].flv"
//Break Periods
2,73476,74956
//Storyboard Layer 0 (Background)
//Storyboard Layer 1 (Failing)
//Storyboard Layer 2 (Passing)
//Storyboard Layer 3 (Foreground)
//Storyboard Sound Samples
//Background Colour Transformations
3,100,0,0,0

[TimingPoints]
276,666.666666666667,4,1,0,81,1

[Colours]
Combo1 : 255,255,128
Combo2 : 213,137,245
Combo3 : 15,230,203
Combo4 : 192,192,192

[HitObjects]
400,120,32609,2,0,B|304:-2|156:35|104:128,1,345
192,208,33942,1,8
312,208,34276,1,8
448,224,35276,6,0,B|338:360|128:355|48:224,1,460
120,136,36942,1,8
40,48,37276,1,8
88,280,37942,6,0,B|179:351|328:350|432:256,1,345
312,200,39276,1,8
192,200,39609,1,8
256,192,40609,12,4,42609
112,88,43275,6,0,B|190:16|288:96,1,172.5
392,88,44109,1,8
424,288,45942,6,0,B|346:367|232:272,1,172.5
136,288,46775,1,0
256,16,47609,5,8
256,136,47942,1,8
40,248,48609,6,0,B|99:352|236:321,1,172.5
308,327,49442,1,8
456,90,51275,5,0
329,92,51609,1,0
139,92,52109,1,0
139,281,52609,1,0
265,281,52942,2,8,B|328:349|388:242,1,115,8|4
54,106,53942,5,0
52,233,54275,1,0
155,176,54609,1,0
155,176,54775,1,2
430,68,55609,1,0
431,186,55942,1,0
312,188,56275,1,0
310,69,56609,1,0
191,71,56942,1,0
194,189,57275,1,0
194,189,57442,1,2
112,76,59275,5,0
112,198,59609,1,0
110,326,59942,1,0
110,326,60109,1,2
285,298,60609,1,0
283,179,60942,1,0
281,60,61275,1,0
281,60,61442,1,0
281,60,61609,1,2
399,64,61942,1,0
399,182,62275,1,0
399,300,62609,1,4
68,169,63609,6,0,B|51:54|185:70,1,172.5
414,232,64942,2,0,B|432:354|300:306,1,172.5
124,302,65942,1,0
213,224,66275,1,0
306,151,66609,1,0
395,73,66942,2,2,B|75:344,1,402.5,2|4
54,137,68609,5,0
126,44,68942,1,0
197,138,69275,1,0
270,45,69609,1,0
346,134,69942,1,0
269,43,70275,1,0
198,137,70609,1,0
198,137,70775,1,2
32,200,71275,5,0
32,318,71609,1,0
150,320,71942,1,0
152,201,72275,1,0
270,201,72609,1,0
270,319,72942,1,0
270,319,73275,1,4
180,91,76275,6,0,B|266:2|362:128,1,172.5
254,183,77109,1,0
182,277,77442,1,0
257,368,77775,1,2
330,275,78109,1,0
450,144,78609,6,0,B|404:87|328:114,1,115
175,111,79442,1,0
175,111,79609,1,2
354,59,80942,6,0,B|270:164|475:131|380:263,1,230,0|0
257,371,82109,1,0
79,362,82609,1,0
35,252,82942,1,2
146,43,83609,5,0
264,46,83942,1,0
382,47,84276,1,2
380,224,84776,1,0
380,224,84942,1,6
372,323,86276,6,0,B|249:257|112:344,1,230,0|2
28,194,87442,1,0
145,60,87942,1,0
262,44,88276,2,2,B|399:22|413:166,1,172.5
128,191,89609,5,0
246,192,89942,1,2
364,192,90276,1,0
245,192,90609,1,2
126,192,90942,2,0,B|-1:140|115:129|155:131|10:223,1,172.5,0|4
349,194,92276,5,0
433,276,92609,1,2
309,312,92942,1,0
225,220,93276,1,2
107,228,93609,2,2,B|20:149|248:179|96:64,1,172.5
306,60,94609,1,0
401,130,94942,1,4
