osu file format v5

[General]
AudioFilename: Howling Soul.Mp3
AudioLeadIn: 0
PreviewTime: -1
Countdown: 0
SampleSet: Normal
StackLeniency: 0.7
Mode: 0
LetterboxInBreaks: 1
EditorBookmarks: 31916

[Metadata]
Title:Howling Soul
Artist:Katakiri Rekka
Creator:tom800510
Version:Hard
Source:
Tags:

[Difficulty]
HPDrainRate:5
CircleSize:5
OverallDifficulty:6
SliderMultiplier:2.3
SliderTickRate:2

[Events]
//Background and Video events
0,0,"BG.jpg"
1,-769,"video[1].flv"
//Break Periods
2,95126,99210
//Storyboard Layer 0 (Background)
//Storyboard Layer 1 (Failing)
//Storyboard Layer 2 (Passing)
//Storyboard Layer 3 (Foreground)
//Storyboard Sound Samples
//Background Colour Transformations
3,100,0,0,0

[TimingPoints]
276,666.666666666667,4,1,1,81,1
105526,-100,4,2,1,70,0
110859,-100,4,2,1,53,0
114859,-100,4,1,1,31,0

[Colours]
Combo1 : 255,255,128
Combo2 : 213,137,245
Combo3 : 15,230,203
Combo4 : 192,192,192

[HitObjects]
84,71,32609,5,0
84,71,32775,1,0
191,155,33109,1,0
91,248,33442,2,2,B|213:355|361:243,1,287.5,2|2
91,168,34942,5,0
92,304,35275,1,0
92,304,35442,1,2
228,306,35775,1,0
364,306,36109,1,2
176,223,36609,1,0
312,220,36942,2,2,B|432:168,1,115,2|2
164,71,37942,5,0
164,71,38109,1,0
300,71,38442,1,0
436,71,38775,1,2
69,162,40609,5,0
69,162,40776,1,0
37,296,41109,1,2
170,329,41442,2,2,B|255:252|352:360,1,172.5
415,229,42276,2,2,B|494:193|422:84,1,115,2|6
175,90,43276,5,0
175,90,43442,1,0
51,152,43776,1,0
79,285,44109,2,2,B|196:126|133:344|278:363|215:142|309:138|320:356|378:125,1,402.5,2|2
156,299,45942,5,0
156,299,46109,1,0
72,189,46442,1,2
157,80,46776,1,0
294,72,47109,2,2,B|384:113,3,57.5
256,200,47942,1,4
492,343,48609,5,0
492,343,48776,1,0
387,252,49109,1,0
489,159,49442,1,2
167,68,51276,5,0
304,69,51609,1,0
304,206,51942,1,2
304,206,52109,1,2
97,207,52609,2,2,B|228:207,1,115
212,207,53276,1,4
434,44,53942,5,0
335,141,54276,1,0
237,43,54609,2,0,B|176:113,1,57.5,0|8
448,324,55609,5,0
310,326,55942,1,0
171,326,56276,1,0
33,328,56609,1,0
171,326,56942,1,0
309,327,57276,1,0
309,327,57442,2,0,B|404:131|254:238|159:326|104:236|244:123,1,402.5,8|4
439,316,59276,5,0
339,220,59609,1,0
233,131,59942,1,0
233,131,60109,1,8
84,131,61276,5,0
84,131,61442,1,0
84,131,61609,1,8
84,268,61942,1,0
221,257,62276,2,0,B|219:136,1,115,0|4
63,61,63609,5,0
63,198,63942,1,2
67,266,64109,2,2,B|283:344,1,172.5,2|0
366,311,64942,1,0
459,209,65276,1,2
462,140,65442,2,2,B|295:78,1,172.5
161,71,66276,5,0
258,168,66609,1,0
363,79,66942,2,2,B|370:250|228:312|92:236,1,345
140,257,68109,1,6
256,192,68609,12,8,69276
140,86,69609,5,0
67,203,69942,1,0
140,86,70276,1,0
207,205,70609,1,0
207,205,70776,1,8
256,192,71276,12,2,71942
344,112,72276,5,0
344,249,72609,1,0
467,187,72942,1,0
466,325,73276,2,8,B|322:396|203:277,1,230
183,192,74276,1,4
256,192,74942,12,4,75942
253,36,76276,5,0
451,93,76776,2,2,B|369:86|335:180,1,115
314,273,77442,2,2,B|231:261|210:337,1,115
88,266,78109,1,0
86,59,78609,1,0
86,59,78942,1,2
259,181,79442,1,2
330,180,79609,1,2
388,93,80942,6,2,B|451:133,3,57.5,2|2|2|2
439,193,81609,1,8
258,92,82109,1,8
83,202,82609,1,8
110,66,82942,1,4
111,342,83609,1,0
248,340,83942,1,0
246,201,84275,1,2
452,197,84775,1,0
452,197,84942,1,6
132,82,86275,6,0,B|71:135,3,57.5
60,183,86942,1,8
175,354,87442,1,8
381,351,87942,1,8
484,258,88275,2,2,B|496:172|425:71,1,172.5
97,60,89609,5,8
234,64,89942,1,8
372,64,90275,1,8
234,64,90609,1,8
159,180,90942,2,2,B|339:180,1,172.5,2|4
193,334,91942,5,8
124,328,92109,1,8
84,271,92275,1,8
76,133,92609,1,0
195,64,92942,2,8,B|286:40|345:89,1,115
446,65,93609,2,8,B|504:180|446:259,1,172.5
258,197,94609,1,0
262,334,94942,1,4
256,192,100275,12,0,100942
256,192,101442,5,2
256,192,101609,12,0,102275
256,192,102942,12,0,103609
256,192,104109,5,0
73,53,105609,5,0
71,329,106275,1,8
440,54,106942,5,0
438,330,107609,1,8
62,86,108275,6,0,B|184:40,1,115
307,50,108942,1,8
465,275,109609,6,0,B|334:361,1,115,0|0
230,329,110275,1,8
377,48,110942,6,0,B|449:168,1,115
401,279,111609,1,8
126,312,112275,6,0,B|66:178,1,115
105,71,112942,1,8
440,55,113609,5,0
438,331,114275,1,0
256,192,114942,5,0
