osu file format v5

[General]
AudioFilename: Arkadia.mp3
AudioLeadIn: 0
PreviewTime: -1
Countdown: 1
SampleSet: Normal
StackLeniency: 0.7
Mode: 0
LetterboxInBreaks: 1

[Metadata]
Title:Arukadeia Baredo
Artist:Katakiri Rekka
Creator:tom800510
Version:Normal
Source:
Tags:

[Difficulty]
HPDrainRate:3
CircleSize:3
OverallDifficulty:5
SliderMultiplier:1.7
SliderTickRate:2

[Events]
//Background and Video events
0,0,"bg_Arkadia.png"
1,0,"bg.avi.avi"
//Break Periods
2,11771,22669
2,32385,34298
2,44164,45893
2,86679,90065
//Storyboard Layer 0 (Background)
//Storyboard Layer 1 (Failing)
//Storyboard Layer 2 (Passing)
//Storyboard Layer 3 (Foreground)
//Storyboard Sound Samples
//Background Colour Transformations
3,100,163,162,255

[TimingPoints]
4210,368.098159509202,4,1,0,81,1

[HitObjects]
414,186,4578,2,2,B|412:99|340:37|226:53,1,255,2|2
115,52,5498,1,0
113,111,5682,2,2,L|68:186|116:261,1,170
231,252,6418,2,2,L|181:185|233:104,1,170
227,112,6970,1,4
341,248,7522,6,2,C|341:188|403:194|400:129,1,170
423,33,8259,1,0
254,61,8811,5,8
373,192,9363,1,8
256,326,9915,1,8
139,191,10467,1,8
254,61,11019,6,8,B|448:77|230:154|501:158|166:242|500:156|434:212,1,255,8|4
451,207,23719,6,0,B|391:149|363:236|306:177|248:221|178:138|209:52,1,340
87,91,24823,1,0
97,274,25375,1,0
97,274,25559,1,0
341,272,26295,6,0,B|426:204|292:134|414:16,1,255
452,144,27216,6,0,B|519:234|404:209|472:302,1,170,0|0
351,330,27952,6,0,B|238:246|514:292|155:118|387:101|347:64,1,255,0|2
98,44,29240,6,0,B|30:126|131:187,1,170,0|0
72,213,29792,1,0
74,274,29976,1,0
125,307,30160,6,0,B|35:309,2,85
186,311,30713,6,0,B|227:231|75:252|167:140,1,170
209,165,31265,6,0,B|306:99,1,85
382,51,31817,6,0,B|449:153|278:130|427:212,1,170,0|2
111,319,35498,6,0,B|195:190|357:413|423:205,1,340
423,118,36602,1,0
254,44,37154,1,0
254,44,37338,1,0
82,87,38075,6,0,B|12:237|207:236|80:353,1,255,0|0
220,271,38995,6,0,B|273:188|168:190|210:73,1,170
305,49,39731,6,0,B|481:197|215:152|342:269,1,255,0|2
206,32,41019,6,0,B|89:71|232:102|148:168,1,170
115,148,41571,1,0
115,210,41756,1,0
160,251,41940,6,0,B|68:251,2,85
183,308,42492,6,0,B|309:340|208:203|284:178,1,170
223,147,43044,6,0,B|306:79,1,85
405,50,43596,6,0,B|459:123|292:92|411:218,1,170,0|2
465,198,47093,6,0,B|404:16|168:60,1,340
83,193,48381,1,4
269,194,48933,2,2,B|157:195,3,85
370,192,50038,6,0,B|372:283|304:324|72:314,1,340
89,128,51326,1,4
275,133,51694,2,2,B|398:133,3,85
378,40,52983,6,0,B|472:56|492:125|494:256|448:323|388:334,1,340
237,321,54271,1,4
135,249,54639,5,0
84,212,54823,1,0
118,160,55007,1,4
340,48,55743,6,0,B|436:69|457:200,1,170
397,199,56295,1,0
396,261,56479,1,0
352,305,56663,6,0,B|470:304,2,85
289,300,57216,6,0,B|208:228|338:211|303:113,1,170
288,92,57768,1,0
225,92,57952,1,0
96,304,58688,6,0,B|300:304,1,170
328,303,59240,1,0
389,298,59424,2,0,B|462:209|385:128,1,170
273,137,60160,1,0
256,192,60344,12,4,61633
450,144,63105,2,0,L|437:72|313:31,1,170
315,96,63657,2,0,L|404:119|415:202,1,170
414,258,64209,1,0
297,301,64578,6,0,B|218:372|125:284,1,170
143,237,65130,1,0
93,199,65314,2,0,B|22:156|127:122,1,85
141,103,65682,1,0
258,62,66050,6,0,B|442:63,1,170
429,125,66602,1,0
429,187,66786,1,0
432,249,66970,2,0,B|357:324|268:239,1,170
279,188,67522,1,4
147,44,69179,6,0,B|32:190,1,170
67,299,69915,2,0,B|196:140,1,170
250,68,70651,1,0
312,69,70835,1,0
374,72,71019,1,0
436,73,71203,1,0
439,321,71940,6,0,B|439:143,1,170
439,151,72492,1,0
314,151,72860,1,0
314,151,73044,2,0,B|316:337,1,170,0|4
172,64,74884,6,0,L|76:75|60:168,1,170
65,209,75436,2,0,L|66:316,1,85
128,294,75805,2,0,L|128:188,1,85
251,196,76357,6,0,L|268:113|357:73,1,170
407,80,76909,2,0,L|409:199,1,85
410,227,77277,2,0,L|411:340,1,85
286,304,77829,6,0,C|236:227|295:159,1,170
287,107,78381,2,0,C|192:107,1,85
199,44,78749,2,0,C|73:45,1,85
69,94,79117,1,0
69,94,79302,1,4
108,197,80958,6,0,C|302:198,3,170
402,198,82430,1,0
443,152,82614,1,0
485,197,82798,1,0
444,245,82983,1,0
158,46,84271,5,0
157,170,84639,1,0
157,294,85007,2,0,C|276:294,1,85
383,89,85927,6,0,C|384:204,1,85
384,236,86295,1,0
384,298,86479,1,4
254,56,91265,5,8
386,186,91817,1,8
259,322,92369,1,8
134,183,92921,1,8
259,45,93473,6,8,C|259:153,1,85
259,192,93841,1,8
259,192,94025,1,12
