osu file format v9

[General]
AudioFilename: Answer.mp3
AudioLeadIn: 1500
PreviewTime: -1
Countdown: 1
SampleSet: Soft
StackLeniency: 0.7
Mode: 0
LetterboxInBreaks: 1

[Editor]
DistanceSpacing: 1
BeatDivisor: 4
GridSize: 8

[Metadata]
Title:Answer
Artist:Katakiri Rekka
Creator:taka1235
Version:Insane
Source:
Tags:

[Difficulty]
HPDrainRate:7
CircleSize:5
OverallDifficulty:8
ApproachRate:8
SliderMultiplier:1.6
SliderTickRate:1

[Events]
//Background and Video events
0,0,"19.jpg"
//Break Periods
//Storyboard Layer 0 (Background)
//Storyboard Layer 1 (Fail)
//Storyboard Layer 2 (Pass)
//Storyboard Layer 3 (Foreground)
//Storyboard Sound Samples
//Background Colour Transformations
3,100,163,162,255

[TimingPoints]
82,267.857142857143,4,2,0,66,1,0
550,-133.333333333333,4,2,0,45,0,0
7046,-200,4,2,0,66,0,0
8117,-100,4,1,0,66,0,0
9189,-83.3333333333333,4,1,0,60,0,1
13742,-83.3333333333333,4,2,0,55,0,1
14010,-83.3333333333333,4,1,0,55,0,1
14278,-83.3333333333333,4,2,0,55,0,1
14546,-83.3333333333333,4,1,0,55,0,1
14814,-83.3333333333333,4,2,0,55,0,1
15082,-83.3333333333333,4,1,0,55,0,1
15349,-83.3333333333333,4,2,0,55,0,1
15617,-83.3333333333333,4,2,0,70,0,1
17760,-83.3333333333333,4,1,0,60,0,1
22314,-83.3333333333333,4,2,0,55,0,1
22582,-83.3333333333333,4,1,0,55,0,1
22849,-83.3333333333333,4,2,0,55,0,1
23117,-83.3333333333333,4,1,0,55,0,1
23385,-83.3333333333333,4,2,0,55,0,1
23653,-83.3333333333333,4,1,0,55,0,1
23921,-83.3333333333333,4,2,0,55,0,1
24189,-100,4,1,0,55,0,1
24323,-100,4,2,0,55,0,1
25260,-100,4,1,0,55,0,1
25662,-200,4,1,0,55,0,1
26332,-200,4,2,0,48,0,0
26342,-200,4,2,0,51,0,0
35974,-200,4,2,0,40,0,0
37046,-200,4,2,0,30,0,0
38117,-200,4,2,0,20,0,0
40796,-200,4,1,0,40,0,0
42135,-133.333333333333,4,1,0,40,0,0
45885,-100,4,1,0,50,0,0
58407,-100,4,2,0,26,0,0
60282,-133.333333333333,4,1,0,60,0,0
62760,-83.3333333333333,4,1,0,65,0,1
65573,-83.3333333333333,4,2,0,50,0,1
67046,-83.3333333333333,4,1,0,65,0,1
69189,-83.3333333333333,4,2,0,75,0,1
69256,-83.3333333333333,4,1,0,65,0,1
69590,-83.3333333333333,4,2,0,75,0,1
69657,-83.3333333333333,4,1,0,65,0,1
69992,-83.3333333333333,4,2,0,75,0,1
70059,-83.3333333333333,4,1,0,65,0,1
70394,-83.3333333333333,4,2,0,75,0,1
70461,-83.3333333333333,4,1,0,65,0,1
70796,-83.3333333333333,4,2,0,75,0,1
71332,-83.3333333333333,4,1,0,65,0,1
75617,-100,4,2,0,60,0,0
77224,-100,4,1,0,65,0,0
77760,-100,4,2,0,65,0,0
79903,-100,4,1,0,60,0,0
80707,-133.333333333333,4,1,0,60,0,0

[Colours]
Combo1 : 255,104,104
Combo2 : 255,128,192
Combo3 : 165,255,74
Combo4 : 234,0,234
Combo5 : 255,255,125

[HitObjects]
64,88,617,1,0
96,112,751,1,0
136,120,885,1,0
176,112,1019,1,0
200,80,1153,1,0
208,40,1287,1,0
248,64,1421,1,0
296,48,1555,2,2,B|344:8|416:32,2,119.999996423721
288,96,2224,2,0,B|288:128|320:152,1,59.9999982118607
360,144,2492,2,0,B|368:176|328:208,1,59.9999982118607
328,288,2760,5,0
304,320,2894,1,0
264,336,3028,1,0
224,328,3162,1,0
192,304,3296,1,0
184,264,3430,1,0
144,272,3564,1,0
104,248,3698,2,2,B|40:216|-16:288,2,119.999996423721
144,224,4367,2,0,B|176:192|144:160,1,59.9999982118607
104,176,4635,2,0,B|80:144|96:104,1,59.9999982118607
56,40,4903,5,0
88,16,5037,1,0
128,8,5171,1,0
168,16,5305,1,0
200,48,5439,1,0
224,80,5573,1,0
256,56,5707,1,0
296,72,5840,2,2,B|336:144|264:200,2,119.999996423721
320,40,6510,2,0,B|336:8|376:16,1,59.9999982118607
400,32,6778,2,0,B|432:64|408:96,1,59.9999982118607
256,192,7046,12,0,7983
440,224,8117,6,0,B|344:208|296:328,1,160,4|0
256,344,8519,1,0
240,272,8653,2,0,B|224:176,1,80
120,72,8921,2,0,B|136:168,1,80
152,272,9189,5,4
72,328,9323,1,0
64,232,9457,1,8
64,232,9590,1,0
144,176,9724,2,0,B|256:144|320:288,1,192.000004577637,0|8
448,304,10126,6,0,B|344:336,1,96.0000022888184,2|0
304,184,10394,2,0,B|400:216,1,96.0000022888184,2|8
480,80,10662,2,0,B|376:96,1,96.0000022888184,2|0
288,96,10930,2,0,B|208:16,2,96.0000022888184,2|8|2
264,256,11332,5,4
352,224,11465,1,0
280,160,11599,1,8
280,160,11733,1,0
192,200,11867,2,0,B|80:192|40:304,1,192.000004577637,0|8
208,304,12269,6,0,B|120:352,1,96.0000022888184,2|0
24,208,12537,2,0,B|120:240,1,96.0000022888184,2|8
200,88,12805,2,0,B|96:112,1,96.0000022888184,2|0
320,120,13073,2,0,B|304:16,2,96.0000022888184,2|8|2
224,272,13474,6,0,B|264:240|336:256,1,96.0000022888184
408,288,13742,2,0,B|392:344,2,48.0000011444092,4|0|0
192,168,14010,6,0,B|144:152|96:192,1,96.0000022888184
32,256,14278,2,0,B|64:320,2,48.0000011444092,4|0|0
336,112,14546,6,0,B|392:104|456:152,1,96.0000022888184
472,216,14814,2,0,B|456:272,2,48.0000011444092,4|0|0
200,40,15082,6,0,B|144:24|88:56,1,96.0000022888184
40,112,15349,2,0,B|64:184,2,48.0000011444092,4|0|0
176,200,15617,6,0,B|200:256|168:304|104:320|56:272,1,192.000004577637,4|0
192,216,16019,6,0,B|216:272|184:320|120:336|72:288,1,192.000004577637,4|0
208,232,16421,6,0,B|232:288|200:336|136:352|88:304,1,192.000004577637,4|0
224,248,16823,6,0,B|248:304|216:352|152:368|104:320,1,192.000004577637,4|0
32,288,17224,5,4
480,288,17492,1,4
376,32,17760,5,0
440,104,17894,1,0
344,120,18028,2,0,B|320:160|336:224,1,96.0000022888184,8|0
416,264,18296,2,0,B|296:224|232:336,1,192.000004577637,0|8
64,328,18698,6,0,B|104:360|160:344,1,96.0000022888184,2|0
248,232,18965,2,0,B|192:232|160:272,1,96.0000022888184,2|8
40,144,19233,2,0,B|96:128|152:184,1,96.0000022888184,2|0
248,88,19501,2,0,B|194:90|162:42,2,96.0000022888184,2|8|2
272,208,19903,5,4
336,280,20037,1,0
368,192,20171,2,0,B|400:144|368:80,1,96.0000022888184,8|0
432,16,20439,2,0,B|360:104|248:48,1,192.000004577637,0|8
64,56,20840,6,0,B|104:96|152:80,1,96.0000022888184,2|0
272,144,21108,2,0,B|216:136|176:184,1,96.0000022888184,2|8
32,216,21376,2,0,B|88:208|120:256,1,96.0000022888184,2|0
200,336,21644,2,0,B|164:377|108:353,2,96.0000022888184,2|8|2
216,208,22046,6,0,B|272:208|296:264,1,96.0000022888184
192,320,22314,2,0,B|160:368,2,48.0000011444092,4|0|0
104,176,22582,6,0,B|56:144|80:80,1,96.0000022888184
200,104,22849,2,0,B|248:88,2,48.0000011444092,4|0|0
312,256,23117,6,0,B|264:296|304:352,1,96.0000022888184
408,320,23385,2,0,B|456:336,2,48.0000011444092,4|0|0
376,96,23653,6,0,B|320:64|360:0,1,96.0000022888184
456,32,23921,2,0,B|504:16,2,48.0000011444092
464,168,24189,6,0,B|432:256,1,80,0|2
328,240,24590,1,0
280,224,24724,2,0,B|304:304,1,80
264,344,24992,1,0
120,344,25260,6,0,B|32:320,1,80
8,184,25662,2,0,B|208:240,1,200,0|2
312,128,26867,5,0
408,40,27403,2,0,B|488:88|432:192,1,160,2|0
336,248,28474,1,0
224,184,29010,5,0
224,184,29144,1,0
200,248,29412,1,0
176,304,29680,1,0
176,304,29814,2,0,B|88:344|32:256,1,160
24,200,30617,5,0
120,216,31019,2,0,B|160:160|128:88,1,120
88,56,31689,1,0
152,40,31957,1,0
200,80,32224,6,0,B|288:96,1,80
304,152,32760,2,0,B|328:216|280:272,1,120
368,320,33564,1,0
448,240,33832,2,0,B|504:168|448:80,1,160
112,48,34903,5,4
400,96,35439,1,0
120,48,35974,5,4
392,96,36510,1,0
128,48,37046,5,4
384,96,37582,1,0
136,48,38117,5,4
376,96,38653,1,0
312,152,39189,5,4
344,232,40260,1,4
440,256,40796,5,4
480,72,41332,5,0
384,104,41733,1,0
296,48,42135,2,0,B|192:0|128:112,1,179.999994635582,2|0
96,80,42671,1,2
32,192,42939,1,2
64,216,43073,1,0
104,216,43206,1,2
128,184,43340,1,0
128,144,43474,5,2
104,112,43608,1,0
120,72,43742,1,2
160,56,43876,1,2
200,64,44010,1,0
224,96,44144,1,2
256,64,44278,6,0,B|320:112|280:208|208:192|192:280|272:344,1,299.999991059304,4|0
257,331,45082,1,0
257,331,45215,1,0
257,331,45349,1,0
257,331,45483,1,0
257,331,45617,1,0
257,331,45751,1,0
320,288,45885,6,0,B|408:256|464:336,1,160,2|0
504,280,46287,1,2
408,200,46689,2,0,B|384:160|400:112,1,80,2|0
440,72,46957,1,2
328,8,47224,1,2
248,112,47492,1,2
104,40,47760,6,0,B|24:0,2,80
80,120,48162,2,0,B|0:144,2,80
120,192,48564,2,0,B|64:272,2,80
192,216,48965,2,0,B|208:320,2,80
176,128,49367,1,0
408,64,49635,1,0
360,320,49903,1,0
144,272,50171,6,0,B|40:296,1,80,2|0
8,208,50439,1,2
96,176,50573,2,0,B|152:96|248:136,1,160,0|0
216,40,50974,1,2
432,104,51242,1,0
352,320,51510,1,2
136,256,51778,1,2
280,88,52046,6,0,B|328:72|360:128,1,80
424,48,52314,2,0,B|360:112|416:208,1,160
488,256,52715,2,0,B|464:344,1,80
384,280,52983,2,0,B|320:216|232:248,1,160
184,328,53385,2,0,B|96:304,1,80
40,240,53653,1,0
40,240,53787,1,0
128,208,53921,1,0
128,208,54055,1,0
256,240,54189,6,0,B|352:280|400:192,1,160,2|0
480,160,54590,1,0
400,112,54724,2,0,B|424:32,1,80,2|0
328,56,54992,2,0,B|240:16|176:104,2,160,0|0|2
288,144,55662,1,0
144,272,55930,1,0
56,240,56064,1,2
72,336,56198,1,0
144,272,56332,6,0,B|240:248|304:352,1,160,2|0
376,288,56733,1,0
312,216,56867,2,0,B|392:184,1,80
424,96,57135,2,0,B|496:144|464:248,2,160,2|0|2
344,40,57805,2,0,B|248:56,1,80
200,128,58073,2,0,B|104:88,2,80,0|2|0
336,216,58474,5,0
336,216,58608,1,0
336,216,58742,1,0
336,216,58876,1,0
336,216,59144,1,0
336,216,59278,1,0
72,328,59814,5,0
224,24,60349,2,0,B|96:-8|40:120|88:232|216:224|216:224|248:192|248:192|224:184|224:184|224:120|224:120|240:120|240:120|208:120|208:120,1,539.999983906746,4|0
296,72,61689,5,2
472,280,62090,1,2
184,336,62492,1,2
48,40,62760,5,4
48,40,62827,1,0
48,40,62894,1,0
136,104,63028,2,0,B|248:72|304:192,1,192.000004577637,2|2
384,112,63430,2,0,B|400:64|376:16,1,96.0000022888184,0|2
472,112,63698,2,0,B|448:168|496:224,1,96.0000022888184,0|0
448,304,63965,1,2
352,256,64099,2,0,B|240:216|168:320,1,192.000004577637,0|2
88,256,64501,2,0,B|104:360,2,96.0000022888184,0|2|0
160,176,64903,1,2
64,136,65037,1,0
144,64,65171,5,0
352,24,65439,1,0
296,112,65573,6,0,B|280:168|336:224,1,96.0000022888184,2|0
400,168,65840,2,2,B|312:232|360:352,2,192.000004577637
488,112,66510,1,0
488,112,66577,1,2
488,112,66644,1,0
392,64,66778,2,0,B|304:24,1,96.0000022888184,4|0
216,88,67046,5,4
216,88,67113,1,0
216,88,67180,1,0
272,176,67314,2,0,B|256:232|304:272,1,96.0000022888184,2|0
216,336,67582,1,2
216,336,67715,1,0
120,296,67849,1,2
184,208,67983,2,0,B|72:152|0:280,1,192.000004577637,2|0
48,352,68385,1,2
320,256,68653,1,2
80,48,68921,1,2
176,288,69189,6,0,B|56:288,2,96.0000022888184,4|0|0
336,216,69590,2,0,B|440:216,2,96.0000022888184,4|0|0
144,136,69992,2,0,B|48:136,2,96.0000022888184,4|0|0
384,56,70394,2,0,B|480:56,2,96.0000022888184,4|0|4
256,16,70796,2,0,B|184:80|328:128|232:208,2,192.000004577637,4|4|4
32,176,71599,5,2
32,176,71733,1,0
112,128,71867,2,2,B|144:168|112:248,1,96.0000022888184
64,296,72135,1,0
160,288,72269,2,0,B|272:240|336:360,1,192.000004577637,2|0
416,312,72671,1,2
480,64,72939,1,2
264,136,73207,1,2
104,32,73474,5,2
32,208,73742,1,0
80,288,73876,1,2
192,128,74144,1,0
280,80,74278,1,2
336,264,74546,1,2
336,264,74613,1,0
336,264,74680,1,0
408,328,74814,1,0
424,232,74948,1,2
352,176,75082,5,2
352,176,75215,1,0
352,176,75349,1,0
352,176,75483,1,2
352,176,75617,2,0,B|320:112|360:48|432:32|496:112,1,240,4|0
432,160,76153,1,2
432,160,76287,1,0
472,312,76555,1,2
472,312,76689,1,0
320,264,76957,1,0
160,208,77225,5,2
160,208,77358,1,0
160,208,77492,1,2
160,208,77626,1,0
160,208,77760,2,0,B|192:272|152:336|80:352|16:272,1,240,4|0
80,224,78296,1,2
80,224,78430,1,0
40,72,78698,1,2
40,72,78832,1,0
192,120,79099,5,2
360,320,79367,1,2
440,64,79635,1,2
400,176,79903,5,4
280,256,80305,1,4
184,152,80707,2,0,B|128:64|24:104,1,179.999994635582,4|0
16,136,81242,2,0,B|32:200,1,59.9999982118607
64,192,81510,2,0,B|56:256,2,59.9999982118607
168,336,82046,5,4
168,336,82180,1,0
224,224,82448,1,0
224,224,82582,1,0
168,112,82849,2,0,B|232:24|336:80,1,179.999994635582
360,56,83385,2,0,B|344:128,1,59.9999982118607
312,128,83653,2,0,B|336:200,1,59.9999982118607
328,224,83921,2,0,B|392:208,1,59.9999982118607
408,184,84189,5,4
464,320,84590,1,4
320,352,84992,2,0,B|248:272|144:312,1,179.999994635582,4|0
120,336,85528,1,0
56,264,85796,1,0
112,192,86064,2,0,B|96:136,1,59.9999982118607
56,96,86332,5,0
72,48,86465,1,0
56,96,86599,1,0
120,80,86733,5,0
144,32,86867,1,0
120,80,87001,1,0
176,104,87135,5,0
208,64,87269,1,0
176,104,87403,1,0
200,152,87537,5,0
248,136,87671,1,0
200,152,87805,1,0
184,216,87939,5,0
240,232,88073,1,0
184,216,88207,1,0
136,272,88340,5,2
