osu file format v9

[General]
AudioFilename: Answer.mp3
AudioLeadIn: 1500
PreviewTime: 62757
Countdown: 0
SampleSet: Normal
StackLeniency: 0.7
Mode: 0
LetterboxInBreaks: 0

[Editor]
DistanceSpacing: 1.1
BeatDivisor: 2
GridSize: 4

[Metadata]
Title:Answer
Artist:Katakiri Rekka
Creator:DeathBlood
Version:Normal
Source:G-Senjou no Maou
Tags:Akabei Soft2 The Devil on G-string Opening Kitsuneko Laurier Scarlet Sisters

[Difficulty]
HPDrainRate:3
CircleSize:3
OverallDifficulty:3
ApproachRate:4
SliderMultiplier:0.7
SliderTickRate:1

[Events]
//Background and Video events
0,0,"BG4.jpg"
Video,0,"Answer.avi"
//Break Periods
//Storyboard Layer 0 (Background)
//Storyboard Layer 1 (Fail)
//Storyboard Layer 2 (Pass)
//Storyboard Layer 3 (Foreground)
//Storyboard Sound Samples
//Background Colour Transformations
3,100,163,162,255

[TimingPoints]
615,267.857142857143,4,2,0,60,1,0
6373,-100,4,2,0,20,0,0
6641,-100,4,2,0,60,0,0
8115,-100,4,1,0,45,0,0
9052,-100,4,1,0,60,0,0
24052,-100,4,2,0,40,0,0
25190,-100,4,1,0,60,0,0
26195,-100,4,2,0,45,0,0
41329,-100,4,1,1,60,0,0
45615,-100,4,1,0,60,0,0
58472,-100,4,2,0,40,0,0
60347,-100,4,1,0,60,0,0
61329,-100,4,2,0,40,0,0
61507,-100,4,2,0,60,0,0
62757,-100,4,1,0,80,0,1
69119,-100,4,2,0,90,0,1
71463,-100,4,1,0,90,0,1
75615,-100,4,1,0,90,0,0
75882,-100,4,2,0,80,0,0
79030,-100,4,1,0,60,0,0

[Colours]
Combo1 : 167,124,205
Combo2 : 181,45,45
Combo3 : 94,134,200

[HitObjects]
312,136,615,2,0,B|396:136,2,69.9999999999999,2|0|0
256,192,1418,1,0
204,248,1686,2,0,B|132:248,2,69.9999999999999,2|0|0
256,308,2490,5,0
256,308,2757,1,2
256,308,3025,2,0,B|400:308,1,140
396,152,4097,2,0,B|468:152,1,69.9999999999999,2|0
256,192,4632,12,4,6507
76,136,7043,6,2,B|140:88|208:136,1,140
256,192,7847,1,2
308,248,8115,1,2
308,248,8382,2,0,B|308:324,2,69.9999999999999,2|2|2
360,192,9186,6,0,B|400:216|448:180,1,69.9999999999999
472,256,9722,2,0,B|496:292|468:332,1,69.9999999999999
324,348,10525,1,0
200,256,11061,6,4,B|176:292|204:336,1,69.9999999999999
120,336,11597,2,0,B|80:356|40:332,1,69.9999999999999
20,268,12132,1,0
120,148,12668,1,0
208,272,13204,1,0
256,212,13472,6,0,B|292:212|292:212|340:260|340:260|388:260,1,140,4|0
376,184,14275,1,0
376,108,14543,2,0,B|412:108|412:108|460:60|460:60|504:60,2,140,0|0|4
280,40,16016,1,4
188,108,16418,1,4
276,184,16820,1,4
276,184,17222,2,0,B|276:268,1,69.9999999999999
200,256,17757,6,0,B|120:256,1,69.9999999999999
128,180,18293,2,0,B|52:180,1,69.9999999999999
160,68,19097,2,0,B|196:68|196:68|272:144,1,140
328,192,19900,6,0,B|400:192,2,69.9999999999999,4|0|0
268,244,20704,1,0
212,100,21240,2,0,B|176:100|176:100|96:180,1,140
256,192,22043,12,4,24186
108,88,24722,5,0
260,88,25257,2,0,B|384:88,1,105,0|4
392,280,26329,6,0,B|328:312|256:280,1,140,4|2
188,188,27266,2,0,B|144:148|76:184,1,105,2|0
84,256,27936,1,0
128,320,28204,1,0
204,344,28472,2,0,B|272:352|344:308,1,140,2|0
360,200,29409,2,0,B|320:148|256:156,2,105,2|0|0
276,248,30615,6,0,B|224:292|132:292,2,140,2|0|2
208,112,32222,2,0,B|256:64|256:64|304:116,1,140,2|0
304,272,33293,2,0,B|256:324|256:324|200:260,2,140,2|0|2
324,120,34900,6,0,B|160:120,1,140,4|0
188,276,35972,2,0,B|352:276,1,140,4|0
476,240,37043,2,0,B|424:188|424:188|472:140,1,140,4|0
324,192,38115,2,0,B|168:192,1,140,4|0
256,328,39186,5,4
392,52,40257,1,4
84,52,41329,2,0,B|136:104|136:104|192:104,2,105,4|0|4
392,72,43204,5,4
352,136,43472,2,4,B|300:188|300:188|264:188,2,105
116,96,45615,5,4
164,156,45882,2,0,B|236:156|236:156|284:108,1,140
360,108,46686,2,0,B|412:160|412:160|480:160,1,140
420,296,47757,6,0,B|308:296,1,105
200,296,48561,2,0,B|92:296,2,105
256,244,49632,1,4
256,192,50168,12,0,52043
304,144,52579,5,0
304,144,53115,2,0,B|236:76|236:76|172:76,1,140
256,216,54186,6,0,B|256:284|256:284|492:284,2,280,4|0|4
180,216,56597,2,0,B|100:216,1,69.9999999999999
104,292,57132,1,0
24,288,57400,2,0,B|24:120,1,140,4|0
172,192,58472,6,0,B|252:192,2,69.9999999999999
96,192,59275,1,0
208,88,59811,1,4
356,40,60347,2,0,B|448:172|336:332,1,280,4|0
280,316,61686,5,2
188,244,62088,1,2
96,312,62490,2,0,B|96:236,1,69.9999999999999,2|4
152,188,63025,5,0
276,276,63561,1,0
276,276,64097,2,0,B|292:336|364:336|380:252,1,140
372,120,65168,2,0,B|348:60|280:60|264:136,2,140
340,256,66775,1,4
340,256,67311,6,0,B|200:256,1,140
144,112,68382,2,0,B|144:44|144:44|68:44,1,140
16,96,69186,2,4,B|16:168|16:168|76:168,1,105,4|4
164,168,69990,2,4,B|236:168|236:168|236:228,1,105,4|4
236,316,70793,2,4,B|312:316,1,69.9999999999999
440,240,71597,6,0,B|372:172|304:248,1,140
180,308,72668,2,0,B|248:376|320:296,1,140
316,236,73472,6,0,B|316:164|316:164|280:128,1,105,4|0
176,132,74275,2,0,B|68:132,1,105,4|0
144,224,75079,2,0,B|296:224,1,140,0|4
316,72,76150,6,0,B|388:72|388:72|388:152,1,140,2|2
244,192,77222,2,0,B|172:192|172:192|172:112,1,140,2|2
60,228,78293,2,0,B|60:300|60:300|132:300,1,140,0|2
204,300,79097,1,0
204,300,79365,2,0,B|276:300,1,69.9999999999999
256,192,79900,12,4,81507
116,100,82043,5,0
180,196,82445,1,0
244,100,82847,2,0,B|308:76|308:76|376:92|372:140,2,140,4|0|4
176,132,84186,5,0
92,212,84588,1,0
204,244,84990,2,0,B|240:304|240:304|204:360|156:352,2,140,4|0|4
256,192,86329,12,4,88338
