osu file format v9

[General]
AudioFilename: Answer.mp3
AudioLeadIn: 1500
PreviewTime: 62757
Countdown: 0
SampleSet: Soft
StackLeniency: 0.7
Mode: 0
LetterboxInBreaks: 0

[Editor]
DistanceSpacing: 1
BeatDivisor: 2
GridSize: 4

[Metadata]
Title:Answer
Artist:Katakiri Rekka
Creator:DeathBlood
Version:Laurier
Source:G-Senjou no Maou
Tags:Akabei Soft2 The Devil on G-string Opening Kitsuneko Laurier Scarlet Sisters

[Difficulty]
HPDrainRate:2
CircleSize:3
OverallDifficulty:2
ApproachRate:3
SliderMultiplier:0.5
SliderTickRate:1

[Events]
//Background and Video events
0,0,"BG5.jpg"
Video,0,"Answer.avi"
//Break Periods
//Storyboard Layer 0 (Background)
//Storyboard Layer 1 (Fail)
//Storyboard Layer 2 (Pass)
//Storyboard Layer 3 (Foreground)
//Storyboard Sound Samples
//Background Colour Transformations
3,100,163,162,255

[TimingPoints]
615,267.857142857143,4,2,0,60,1,0
8115,-100,4,1,0,60,0,0
26329,-100,4,2,0,60,0,0
41329,-100,4,1,0,60,0,0
52043,-100,4,2,0,60,0,0
54186,-100,4,1,0,60,0,0
58472,-100,4,2,0,60,0,0
62757,-100,4,1,0,80,0,1
75615,-100,4,1,0,60,0,0
86329,-100,4,1,0,40,0,0

[Colours]
Combo1 : 167,124,205
Combo2 : 181,45,45
Combo3 : 94,134,200

[HitObjects]
256,316,615,2,0,B|320:320|352:272,1,100,0|2
440,256,1686,2,0,B|424:200|368:188,1,100,0|2
312,112,2757,2,0,B|264:88|216:112,2,100,0|2|0
264,200,4365,1,2
264,296,4900,6,0,B|176:296|160:208|160:208|96:184,1,200
16,152,6507,1,2
96,96,7043,2,0,B|136:56|200:72,1,100,0|2
256,144,8115,5,0
344,192,8650,1,0
440,200,9186,2,0,B|440:264|376:280,1,100,4|0
288,276,10257,1,0
188,276,10793,1,0
128,192,11329,6,0,B|152:136|216:136,1,100,4|0
304,136,12400,1,0
256,224,12936,1,0
256,320,13472,6,0,B|208:304|192:312|152:288,1,100,4|0
80,232,14543,2,0,B|128:216|128:200|168:184,1,100
256,144,15615,2,0,B|320:96|396:116|396:116|432:184|380:264,1,300,4|0
288,288,17757,6,0,B|240:280|232:296|184:288,2,100,4|0|0
328,192,19365,1,0
392,112,19900,2,0,B|432:152|424:216,2,100,4|0|0
296,96,21507,1,0
256,192,22043,6,0,B|160:232|56:192,2,200,4|4|0
456,192,25257,1,0
320,48,26329,6,0,B|288:96|216:96,1,100,4|2
144,48,27400,2,0,B|112:104|152:152,1,100,0|2
232,192,28472,5,0
256,288,29007,1,2
328,216,29543,2,0,B|376:232|376:232|432:216,1,100,0|2
376,128,30615,6,0,B|328:112|328:112|272:128,1,100,0|2
208,192,31686,1,0
128,128,32222,2,0,B|80:112|80:96|32:80,2,100,2|0|2
224,88,33829,2,0,B|280:72|328:88,1,100,0|2
408,136,34900,5,4
488,192,35436,1,2
488,296,35972,2,0,B|432:304|408:248,1,100,4|2
328,192,37043,6,0,B|280:184|216:192,1,100,4|2
176,280,38115,2,0,B|224:288|288:280,1,100,4|2
376,280,39186,5,4
256,120,40257,1,4
152,288,41329,6,0,B|88:240|88:152,2,150,4|4|0
232,232,43472,2,0,B|296:184|296:96,2,150,4|4|0
256,328,45615,6,0,B|312:336|360:304,1,100,4|0
432,248,46686,2,0,B|464:208|440:152,1,100
368,88,47757,2,0,B|320:48|320:48|288:80|224:80,2,150,4|0|0
304,168,49900,5,4
256,256,50436,1,0
152,256,50972,2,0,B|120:208|56:208,1,100
256,192,52043,12,0,53650
316,264,54186,6,0,B|376:211|370:123,1,150,4|0
324,112,55257,2,0,B|276:136|228:112,1,100,4|0
136,80,56329,6,0,B|56:112|64:208,1,150,4|0
64,248,57400,2,0,B|80:304|144:304,1,100,4|0
232,272,58472,2,0,B|312:248|392:272,1,150,4|2
256,192,60347,12,4,61686
96,192,62757,6,0,B|136:160|200:152,1,100,4|0
272,216,63829,2,0,B|232:248|168:256,1,100,0|0
88,288,64900,2,0,B|24:192|88:96,1,200
184,120,66507,1,0
272,72,67043,6,0,B|328:56|376:72,1,100,4|0
328,160,68115,2,0,B|384:168|408:216,1,100
312,256,69186,2,0,B|240:296|168:272|168:272|160:192|232:144,1,300,4|0
320,88,71329,6,0,B|376:72|424:88,1,100,4|0
472,168,72400,2,0,B|496:224|472:272,1,100
376,296,73472,1,4
280,320,74007,1,0
184,288,74543,1,0
256,220,75079,6,0,B|264:180|240:156|264:108,2,100,0|4|0
160,192,76686,2,0,B|168:152|144:128|168:80,1,100
248,40,77757,6,0,B|304:40|336:88,1,100,4|0
432,88,78829,2,0,B|432:144|384:176,1,100
392,272,79900,2,0,B|304:280|280:184|280:184|128:184,1,300,4|0
36,180,82043,6,0,B|48:92|140:64,2,150,4|0|0
84,268,84186,2,0,B|160:300|232:264,2,150,4|0|0
256,192,86329,12,4,88338
