osu file format v9

[General]
AudioFilename: Answer.mp3
AudioLeadIn: 1500
PreviewTime: 62757
Countdown: 0
SampleSet: Normal
StackLeniency: 0.5
Mode: 0
LetterboxInBreaks: 0

[Editor]
DistanceSpacing: 1
BeatDivisor: 2
GridSize: 4

[Metadata]
Title:Answer
Artist:Katakiri Rekka
Creator:DeathBlood
Version:Kitsuneko
Source:G-Senjou no Maou
Tags:Akabei Soft2 The Devil on G-string Opening Kitsuneko Laurier Scarlet Sisters

[Difficulty]
HPDrainRate:7
CircleSize:4
OverallDifficulty:7
ApproachRate:9
SliderMultiplier:1.64
SliderTickRate:1

[Events]
//Background and Video events
0,0,"BG2.jpg"
Video,0,"Answer.avi"
//Break Periods
//Storyboard Layer 0 (Background)
//Storyboard Layer 1 (Fail)
//Storyboard Layer 2 (Pass)
//Storyboard Layer 3 (Foreground)
//Storyboard Sound Samples
//Background Colour Transformations
3,100,163,162,255

[TimingPoints]
615,267.857142857143,4,2,0,40,1,0
615,-133.333333333333,4,2,0,40,0,0
7713,-100,4,2,0,40,0,0
8115,-100,4,1,0,50,0,0
24320,-100,4,2,0,50,0,0
25257,-100,4,1,0,50,0,0
25659,-200,4,1,0,50,0,0
26329,-200,4,2,0,40,0,0
41329,-133.333333333333,4,1,0,50,0,0
58472,-133.333333333333,4,1,0,40,0,0
58606,-133.333333333333,4,2,0,40,0,0
60347,-133.333333333333,4,2,0,66,0,0
61686,-100,4,1,0,66,0,0
62757,-100,4,1,0,80,0,1
75079,-133.333333333333,4,1,0,80,0,1
75615,-133.333333333333,4,1,0,66,0,0
79900,-200,4,1,0,50,0,0
83115,-200,4,1,0,56,0,0
84186,-200,4,1,0,50,0,0
86329,-100,4,1,0,80,0,0

[Colours]
Combo1 : 128,128,128
Combo2 : 181,45,45
Combo3 : 94,134,200
Combo4 : 167,124,205
Combo5 : 192,192,192

[HitObjects]
204,332,615,5,0
204,332,748,2,0,B|268:348,2,61.4999981671572,0|2|0
132,288,1150,2,0,B|68:304,2,61.4999981671572,0|2|0
180,220,1552,2,0,B|144:220|124:200|124:200|116:136,2,122.999996334314,0|2|0
236,160,2222,1,2
412,276,2490,1,2
412,276,2623,1,0
340,232,2757,6,0,B|320:260|332:296,1,61.4999981671572,0|0
412,276,3025,2,0,B|432:248|420:212,1,61.4999981671572,2|0
412,136,3293,2,0,B|484:120,2,61.4999981671572,0|2|0
336,104,3695,2,0,B|324:72|276:68|276:68|220:80,2,122.999996334314,0|2|0
324,184,4365,2,0,B|300:316,1,122.999996334314,2|2
108,64,4900,6,0,B|132:140,1,61.4999981671572
88,196,5168,2,0,B|164:220,1,61.4999981671572,2|0
168,296,5436,2,0,B|148:324|108:312,2,61.4999981671572,0|2|0
228,236,5838,2,0,B|276:192|348:204,1,122.999996334314,0|2
416,244,6239,2,0,B|440:320,2,61.4999981671572,0|0|2
364,52,6775,1,2
244,348,7043,37,0
244,348,7177,1,0
296,272,7311,1,2
296,272,7445,1,0
376,316,7579,1,0
376,316,7713,2,0,B|356:364|320:372|320:372|236:344,1,164,2|2
164,316,8114,5,0
164,316,8181,1,0
164,316,8248,2,0,B|96:324|96:324|80:348,2,82
236,272,8650,1,0
256,260,8784,1,0
280,248,8918,1,0
300,236,9052,1,0
324,224,9186,6,0,B|376:224|408:184,1,82,4|0
412,112,9454,2,0,B|360:112|328:152,1,82,4|0
256,140,9722,2,0,B|192:176|140:180|88:156,1,164,0|0
40,104,10123,1,0
104,56,10257,2,0,B|144:72|184:56,1,82
264,32,10525,1,0
340,64,10659,2,0,B|420:52|476:80|500:116,2,164,0|0|0
256,140,11329,38,0,B|252:184|276:220,1,82,4|0
356,240,11597,1,0
274,218,11731,1,0
236,292,11865,2,0,B|172:344|80:336,1,164,0|0
44,264,12266,1,0
84,192,12400,2,0,B|128:196|168:168,1,82
184,92,12668,1,0
112,44,12802,2,0,B|80:88|96:164|168:172,1,164
236,208,13204,2,0,B|276:192|320:192,1,82
424,224,13472,5,4
424,224,13606,1,0
424,224,13740,2,0,B|460:292|460:292|460:336|416:364,2,164
468,152,14409,1,0
400,96,14543,5,0
400,96,14677,1,0
400,96,14811,2,0,B|404:156|328:188|276:148,1,164
216,96,15213,1,0
140,60,15347,2,0,B|96:52|60:84,1,82
40,188,15615,38,0,B|28:276|84:340,1,164,4|0
260,248,16016,2,0,B|272:160|216:96,1,164,4|0
16,196,16418,6,0,B|4:284|60:348,1,164,4|0
292,256,16820,2,0,B|304:168|248:104,1,164,4|0
164,88,17222,1,4
164,88,17490,1,4
368,168,17757,6,0,B|412:180|452:152,1,82,4|0
464,72,18025,1,0
384,52,18159,1,0
384,52,18293,2,0,B|304:36|304:36|240:48|248:92,1,164
260,168,18695,1,0
260,168,18829,2,0,B|272:212|264:256,1,82
256,332,19097,1,0
340,352,19231,2,0,B|392:368|444:336|444:336|452:312|448:272,2,164
265,249,19900,37,4
184,236,20034,1,0
172,316,20168,2,0,B|84:344,1,82
28,288,20436,2,0,B|76:268|92:184|56:136,1,164
96,68,20838,2,0,B|176:24|256:56,1,164
308,120,21240,1,0
380,76,21373,2,0,B|468:64,2,82
308,120,21775,2,0,B|288:160|316:200,1,82
408,256,22043,5,4
408,256,22177,1,0
408,256,22311,2,0,B|412:313|324:349|280:304,1,164
244,236,22713,1,0
285,308,22847,2,0,B|196:348,1,82
128,336,23115,5,0
76,272,23248,1,0
140,220,23382,2,0,B|192:140|140:60,2,164
280,44,24186,37,4
280,44,24320,2,0,B|276:88|292:132,1,82,2|0
372,132,24588,1,0
328,200,24722,1,2
328,200,24856,1,0
328,200,24990,2,0,B|352:276|316:344|316:344|288:352,1,164
256,280,25391,5,0
416,308,25659,2,0,B|468:312|504:296|516:268|516:268|496:240|472:244,1,164
416,308,26329,22,0,B|332:324|256:280,1,164,4|0
216,208,26998,1,2
176,80,27266,1,2
176,80,27400,2,0,B|88:60,1,82,0|2
24,168,27936,6,0,B|8:208|20:248,1,82,0|2
108,340,28472,2,0,B|180:352|232:340|272:308,1,164
352,308,29141,1,2
456,208,29409,2,0,B|376:228,1,82,2|0
352,308,29811,2,0,B|360:352|408:376,2,82,2|2|0
316,152,30615,53,0
316,152,30748,1,2
316,152,31016,2,0,B|256:172|196:152,1,123,0|2
380,100,31552,2,0,B|460:84|460:84|500:104,1,123,0|2
316,152,32222,2,0,B|236:172,1,82,0|2
256,288,32757,6,0,B|184:284|168:216,2,123,0|2|0
352,352,33829,2,0,B|436:332,1,82
512,312,34365,1,2
432,72,34900,54,0,B|356:108|268:68,1,164,4|8
273,70,35570,1,2
332,192,35838,1,2
332,192,35972,2,0,B|416:212,2,82,0|0|8
200,128,36775,5,2
200,128,36909,1,0
200,128,37043,2,0,B|184:168|200:208,2,82,0|0|8
236,288,37847,1,2
236,288,37981,2,0,B|296:260|360:280,1,123
180,352,38650,2,0,B|140:372|100:360,1,82,8|2
40,300,39186,1,4
28,168,39454,53,0
88,228,39722,2,0,B|156:220|156:220|172:196,2,82,2|0|4
108,144,40525,2,0,B|140:112|184:112|232:128|240:180,1,164,2|0
88,228,41329,21,4
244,260,41597,1,0
244,260,41731,2,0,B|336:252|336:252|352:228,1,122.999996334314
360,148,42132,2,0,B|388:96|452:104|452:104|468:128,2,122.999996334314
202,100,42936,1,0
136,52,43070,1,0
60,80,43204,1,4
48,160,43338,1,0
112,208,43472,5,4
320,84,43739,1,0
320,84,43873,2,0,B|256:64|196:104,1,122.999996334314
192,180,44275,2,0,B|228:236|202:297,2,122.999996334314
424,180,45079,1,0
424,180,45213,2,0,B|492:192,2,61.4999981671572
344,168,45614,1,4
212,80,45882,6,0,B|156:52|88:72,1,122.999996334314
40,132,46284,1,0
40,132,46418,2,0,B|32:172|48:196,1,61.4999981671572
96,256,46686,2,0,B|128:312|72:348|72:348|56:336,2,122.999996334314
256,272,47489,2,0,B|328:288,1,61.4999981671572
396,304,47757,37,0
468,264,47891,1,0
408,204,48025,1,0
408,204,48159,2,0,B|420:144|420:144|404:112|384:96,1,122.999996334314,4|0
256,72,48561,5,0
296,144,48695,1,0
224,180,48829,1,0
224,180,48963,2,0,B|212:240|212:240|228:272|248:288,1,122.999996334314,4|0
320,332,49364,2,0,B|304:360|304:360|256:388|216:364,1,122.999996334314,4|4
76,288,49900,1,4
56,104,50168,5,4
132,124,50302,1,0
168,52,50436,2,0,B|208:40|208:40|232:56,2,61.4999981671572
132,124,50838,2,0,B|120:192|164:244,1,122.999996334314
232,272,51239,1,0
424,348,51507,1,0
492,308,51641,1,0
424,268,51775,1,0
300,88,52043,38,0,B|368:64|416:100,2,122.999996334314
240,140,52713,1,0
276,212,52847,2,0,B|256:280,1,61.4999981671572
100,340,53248,1,0
100,340,53382,2,0,B|116:364|116:364|180:376|208:340,2,122.999996334314
32,164,54186,5,4
112,152,54320,1,0
112,152,54454,2,0,B|96:244|96:244|60:260,2,122.999996334314
124,72,55123,1,4
204,84,55257,2,0,B|272:60|328:84,1,122.999996334314,0|0
428,32,55659,2,0,B|484:56|476:104|476:104|448:124,1,122.999996334314,0|0
372,144,56061,1,0
372,144,56195,1,0
420,208,56329,6,0,B|408:240|412:276,1,61.4999981671572,4|0
364,336,56597,2,0,B|312:376|244:364,2,122.999996334314
360,252,57266,1,4
432,208,57400,2,0,B|460:224|496:224,2,61.4999981671572
372,144,57802,1,0
188,56,58070,2,0,B|160:40|124:40,1,61.4999981671572
268,112,58472,37,0
268,112,58606,1,2
268,112,58739,1,0
268,112,58873,2,0,B|300:164|284:232,1,122.999996334314,0|0
244,304,59275,1,2
244,304,59811,1,2
256,192,60347,12,0,61686
256,192,62088,37,0
256,192,62489,6,0,B|288:196|288:196|328:244|312:288|276:312,1,164,0|4
80,352,63025,5,0
8,284,63159,1,0
88,224,63293,1,0
88,224,63427,2,0,B|144:148|104:68,1,164
372,48,63963,1,0
372,48,64097,2,0,B|420:40|452:72,1,82
484,160,64364,2,0,B|508:232|496:296|468:328,1,164
380,344,64766,5,0
288,304,64900,1,0
296,204,65034,1,0
296,204,65168,2,0,B|320:148|240:100|240:100|200:112,1,164
88,152,65570,2,0,B|96:196|136:212,1,82
296,204,65838,6,0,B|400:176|400:176|432:184|456:208,1,164
460,316,66239,2,0,B|420:340|372:344,1,82
288,304,66507,1,0
192,324,66641,1,0
128,252,66775,2,0,B|72:228|8:268|8:268|0:308,1,164,4|4
76,88,67311,37,0
160,36,67445,1,0
256,64,67579,1,0
356,44,67713,2,0,B|420:28|468:88|468:88|520:72,2,164
264,104,68382,2,0,B|272:148|248:196,1,82
128,224,68650,2,0,B|120:180|144:132,2,82
192,300,69052,1,0
280,348,69186,6,0,B|368:368|440:324,1,164,4|0
424,80,69588,2,0,B|336:60|264:104,1,164,4|0
268,360,69989,6,0,B|356:380|428:336,1,164,4|0
448,56,70391,2,0,B|360:36|288:80,1,164,4|0
256,172,70793,1,4
256,172,71061,1,4
124,332,71329,37,4
36,284,71463,1,0
108,212,71597,2,0,B|164:196|164:196|196:208,2,82
28,152,71998,1,0
88,72,72132,1,0
88,72,72266,2,0,B|164:36|224:40|256:56,1,164
344,72,72668,6,0,B|336:116|356:160,1,82
424,220,72936,2,0,B|468:232|512:216,2,82
352,152,73338,1,0
272,92,73472,6,0,B|208:40|116:64,1,164,4|0
88,228,73873,2,0,B|152:280|244:256,1,164,4|0
424,220,74275,2,0,B|436:268|436:268|412:312,2,82,4|0|0
300,36,74811,37,0
300,36,74945,1,0
300,36,75079,2,0,B|228:56,1,61.4999981671572
172,160,75347,2,0,B|244:140,1,61.4999981671572
308,204,75614,6,0,B|336:264|320:336,1,122.999996334314,4|0
88,228,76150,1,0
88,228,76284,2,0,B|100:260|100:292|100:292|72:312|64:348,2,122.999996334314
68,132,76954,2,0,B|104:112|132:116,1,61.4999981671572
216,160,77222,2,0,B|248:184|288:184|308:176|308:176|328:144,1,122.999996334314
412,108,77623,5,0
412,108,77757,2,0,B|428:152|416:208|388:228,1,122.999996334314,4|0
212,68,78293,1,0
212,68,78427,2,0,B|120:52|120:52|80:72,1,122.999996334314
60,160,78829,2,0,B|72:224,1,61.4999981671572
164,260,79097,2,0,B|172:296|156:324|124:336|124:336|84:328,2,122.999996334314
288,136,79900,5,4
400,80,80168,2,0,B|388:124,1,41,0|4
476,176,80570,1,0
476,176,80704,2,0,B|496:264|436:332,1,164,4|0
320,296,81507,2,0,B|332:340,1,41,0|0
156,100,82043,5,4
256,68,82311,1,0
256,68,82445,2,0,B|316:52|316:52|364:60|372:92,1,123,4|4
256,168,83114,6,0,B|244:212,1,41,0|0
156,100,83516,1,0
128,248,83784,2,0,B|144:292,1,41
16,176,84186,37,4
52,80,84454,1,0
52,80,84588,1,4
156,100,84856,1,0
156,100,84989,2,0,B|236:116|236:116|284:104|300:60,2,164,4|0|4
256,336,86329,22,0,B|300:352|336:328,1,82,4|0
392,260,86597,2,0,B|472:276,1,82,0|4
372,172,86864,2,0,B|452:159,1,82,0|0
324,60,87132,54,0,B|244:44,1,82,4|0
268,136,87400,2,0,B|187:148,1,82,0|4
276,224,87668,2,0,B|204:263,1,82,0|0
76,344,87936,5,4
104,256,88070,1,0
64,172,88204,1,0
64,172,88338,1,4
