osu file format v9

[General]
AudioFilename: Answer.mp3
AudioLeadIn: 1500
PreviewTime: 62757
Countdown: 0
SampleSet: Soft
StackLeniency: 0.7
Mode: 0
LetterboxInBreaks: 0

[Editor]
DistanceSpacing: 1.2
BeatDivisor: 4
GridSize: 4

[Metadata]
Title:Answer
Artist:Katakiri Rekka
Creator:DeathBlood
Version:Hard
Source:G-Senjou no Maou
Tags:Akabei Soft2 The Devil on G-string Opening Kitsuneko Laurier Scarlet Sisters

[Difficulty]
HPDrainRate:5
CircleSize:4
OverallDifficulty:5
ApproachRate:7
SliderMultiplier:1.4
SliderTickRate:1

[Events]
//Background and Video events
0,0,"BG3.jpg"
Video,0,"Answer.avi"
//Break Periods
//Storyboard Layer 0 (Background)
//Storyboard Layer 1 (Fail)
//Storyboard Layer 2 (Pass)
//Storyboard Layer 3 (Foreground)
//Storyboard Sound Samples
//Background Colour Transformations
3,100,163,162,255

[TimingPoints]
615,267.857142857143,4,2,0,40,1,0
8115,-100,4,1,0,40,0,0
9186,-100,4,1,0,60,0,0
24253,-100,4,2,0,60,0,0
25257,-100,4,1,0,60,0,0
26128,-100,4,1,0,5,0,0
26329,-133.333333333333,4,2,0,45,0,0
41329,-100,4,1,0,60,0,0
58405,-100,4,2,0,60,0,0
59744,-100,4,2,0,45,0,0
61329,-100,4,2,0,5,0,0
61507,-100,4,1,0,40,0,0
62757,-100,4,1,0,80,0,1
69119,-100,4,2,0,90,0,1
71216,-100,4,1,0,80,0,1
75615,-100,4,1,0,90,0,0
75882,-133.333333333333,4,2,0,70,0,0
79365,-133.333333333333,4,1,0,70,0,0
86061,-100,4,1,0,60,0,0

[Colours]
Combo1 : 167,124,205
Combo2 : 181,45,45
Combo3 : 94,134,200

[HitObjects]
432,48,615,1,2
432,48,748,2,0,B|460:132|376:188,1,140,2|0
312,176,1150,2,0,B|224:200|240:304,1,140,2|0
168,324,1552,2,0,B|140:356|60:356|36:320,1,140,2|0
0,256,1954,1,2
148,168,2222,2,0,B|180:140|180:60|144:36,1,140,2|2
64,184,2757,6,0,B|32:212|32:292|68:316,1,140,2|0
140,348,3159,1,0
208,300,3293,2,0,B|236:268|316:268|340:304,1,140,2|2
272,356,3695,2,0,B|272:208,1,140,2|0
248,136,4097,1,2
88,192,4365,1,2
88,192,4632,1,2
197,318,4900,5,2
197,318,5034,2,0,B|241:318|293:250|265:194,1,140,2|0
324,148,5436,2,0,B|352:116|432:116|456:152,1,140,2|0
400,216,5838,2,0,B|372:248|292:248|268:212,1,140,2|0
224,144,6240,1,2
224,144,6507,2,0,B|196:112|116:112|92:148,1,140,2|0
136,292,7043,6,0,B|216:292,1,70,2|0
268,224,7311,2,0,B|184:224,1,70
136,156,7579,2,0,B|216:156,1,70,2|0
268,88,7847,2,0,B|184:88,2,70,0|0|4
448,132,8382,6,0,B|472:172|440:220,1,70
384,248,8650,2,0,B|337:248|311:197,1,70,0|0
312,132,8918,2,0,B|334:91|392:94,1,70,0|0
436,44,9186,6,0,B|380:-8|304:32,1,140,4|0
240,84,9588,1,0
176,140,9722,2,0,B|102:178|46:126,1,140,0|0
110,71,10123,2,0,B|183:32|239:84,1,140,0|0
280,156,10525,2,0,B|296:196|352:212,1,70
412,204,10793,2,0,B|488:204,2,70
256,244,11329,6,0,B|208:260|208:340|256:364,1,140,4|0
312,304,11731,1,0
364,240,11865,2,0,B|404:220|404:140|356:124,1,140,0|0
272,132,12266,2,0,B|256:168|164:168|148:132,2,140
304,52,12936,2,0,B|380:52,2,70
136,60,13472,6,0,B|92:72|64:136|88:184,1,140,4|0
164,204,13873,1,0
244,232,14007,2,0,B|266:271|229:336|181:350,1,140,4|0
116,319,14409,2,0,B|88:280|125:215|173:201,1,140,4|0
163,119,14811,1,0
320,64,15079,2,0,B|372:76|392:128,1,70
396,180,15347,2,0,B|413:230|376:268,1,70
336,308,15615,6,0,B|308:344|240:356|176:320,1,140,4|0
124,256,16016,2,0,B|152:220|220:208|284:244,1,140,4|0
340,232,16418,2,0,B|376:204|388:136|352:72,1,140,4|0
288,20,16819,2,0,B|252:48|240:116|276:180,1,140,4|0
252,236,17222,1,0
252,236,17490,1,0
88,196,17757,6,0,B|88:244|144:288|196:280,1,140,4|0
252,236,18159,1,0
252,236,18293,2,0,B|291:229|347:273|347:321,1,140
428,336,18695,2,0,B|476:336|520:280|512:228,2,140
348,320,19365,2,0,B|260:320,2,70
460,192,19900,6,0,B|462:149|409:95|369:101,1,140,4|0
288,84,20302,1,0
288,84,20436,2,0,B|256:112|255:188|288:212,1,140,0|0
372,220,20838,2,0,B|412:248|412:332|368:364,2,140
320,284,21507,2,0,B|248:340,2,70
484,192,22043,6,0,B|452:164|384:164|348:192,1,140,4|0
288,244,22445,1,0
220,296,22579,2,0,B|188:324|120:324|84:296,1,140,0|0
32,232,22981,2,0,B|4:200|4:132|32:96,1,140,0|0
84,36,23382,1,0
256,36,23650,5,0
208,116,23784,1,0
304,116,23918,1,0
172,224,24186,5,4
340,224,24454,1,0
256,368,24722,2,0,B|256:292,2,70
256,200,25257,6,0,B|256:104,1,70
392,44,25659,2,0,B|468:96|468:244|384:296,1,280,4|0
332,344,26329,6,0,B|216:392|128:320,1,209.999993741512,4|2
92,292,26998,1,2
24,212,27266,2,0,B|-4:168|72:104|124:152,1,157.500006008148,2|2
192,224,27936,6,0,B|296:224,1,105.000004005432,2|0
364,300,28472,2,0,B|440:280|456:180,1,157.499995306134,2|0
452,132,29007,1,2
420,92,29141,2,0,B|372:64|320:88,2,104.999996870756,2|0|2
452,132,29811,2,0,B|252:216,1,209.999993741512,2|0
204,304,30615,6,0,B|256:336|324:300,1,104.999996870756,2|0
324,260,31016,2,0,B|356:208|416:216,1,104.999996870756,2|0
460,188,31418,2,0,B|456:120|364:64|292:100,1,209.999993741512,2|0
236,180,32222,5,2
140,140,32490,1,2
140,244,32757,2,0,B|76:256|24:200|32:144,2,157.499995306134,2|0|2
244,244,33829,2,0,B|348:244,2,104.999996870756,2|0|2
76,120,34900,6,0,B|92:68|192:24|260:44,1,209.999993741512,4|2
256,96,35570,2,0,B|256:208,1,104.999996870756,2|0
256,256,35972,2,0,B|319:274|419:230|435:178,1,209.999993741512,4|2
368,96,36775,1,2
304,176,37043,2,0,B|320:228|420:272|483:253,1,209.999993741512,4|2
424,340,37847,1,2
424,340,37981,6,0,B|488:340,2,52.4999984353781,0|4|0
376,320,38382,2,0,B|308:312|276:264,1,104.999996870756,2|0
256,172,38918,1,2
256,68,39186,1,4
184,144,39454,6,0,B|60:144,2,104.999996870756,2|0|2
256,220,40257,1,4
328,144,40525,2,0,B|452:144,2,104.999996870756,2|0|2
201,233,41329,6,0,B|157:301|200:364,1,140
312,364,41731,2,0,B|355:301|311:233,1,140
255,149,42132,2,0,B|212:84|40:84|0:152,1,280,4|0
96,288,42936,6,0,B|192:288,1,70
236,236,43204,2,0,B|316:236,1,70,4|0
368,176,43472,2,0,B|432:124|496:180,1,140,0|0
432,232,43873,2,0,B|432:76,1,140,0|0
256,192,44275,12,4,45615
204,280,45882,6,0,B|268:328|368:272,1,140
400,232,46284,2,0,B|348:160|400:72,1,140
472,96,46686,1,0
472,96,46954,2,0,B|524:168|472:256,2,140
316,36,47757,6,0,B|316:132,1,70
256,280,48159,2,0,B|256:200,1,70
196,36,48561,2,0,B|196:120,1,70
136,280,48963,2,0,B|136:352,2,70
136,196,49365,1,0
196,36,49632,2,0,B|340:36,1,140,4|0
436,160,50168,6,0,B|512:160,2,70
352,160,50570,1,0
352,160,50838,2,0,B|304:124|192:124|152:160,1,210
40,284,51507,1,0
40,284,51641,1,0
40,284,51775,2,0,B|64:320|144:320|168:280,2,140
80,208,52445,6,0,B|80:112,2,70
208,316,52981,1,0
208,316,53248,2,0,B|247:316|271:292,1,70
268,136,53650,2,0,B|292:112|336:112,1,70
412,120,53918,1,0
412,120,54186,6,0,B|472:148|472:288|396:324,1,210,4|0
348,260,54722,2,0,B|320:224|248:224|224:260,1,140
160,312,55123,1,0
160,312,55257,2,0,B|108:293|108:153|168:125,1,210,0|0
224,68,55793,2,0,B|248:104|324:104|348:68,1,140
464,192,56329,6,0,B|256:192,1,210,4|0
84,192,56998,1,0
84,192,57132,2,0,B|40:200|24:280|72:312,2,140
152,144,57802,1,0
308,84,58070,2,0,B|308:180,1,70
256,316,58472,5,0
256,316,58740,2,0,B|256:232,1,70
256,76,59141,2,0,B|256:144,1,70
256,316,59811,5,4
256,192,60347,12,0,61418
256,60,61686,5,0
256,88,62088,1,0
256,116,62490,1,0
256,256,62757,5,4
256,256,63025,6,0,B|280:284|372:288|400:240,1,140
440,192,63427,1,0
284,132,63695,2,0,B|252:140|228:216|260:260,1,140
196,312,64097,2,0,B|168:344|92:344|64:304,2,140
256,256,64766,2,0,B|272:219|364:219|380:259,1,140
456,284,65168,2,0,B|492:269|492:177|455:161,1,140
404,96,65570,1,0
264,180,65838,6,0,B|226:194|161:129|177:94,1,140
248,48,66240,1,0
332,48,66373,1,0
404,96,66507,2,0,B|420:131|355:196|317:182,2,140,0|0|4
248,48,67311,5,0
88,96,67579,1,0
88,96,67713,2,0,B|72:131|137:196|175:182,1,140
256,204,68115,2,0,B|296:224|312:300|256:340,2,140
172,60,68918,1,0
76,192,69186,6,0,B|-4:192,2,70,4|0|0
164,252,69588,2,0,B|248:252,2,70,4|0|0
76,308,69990,2,0,B|-8:308,2,70,4|0|0
164,364,70391,2,0,B|304:364,1,140,4|0
392,308,70793,1,4
392,308,71061,1,4
392,308,71329,1,4
476,128,71597,6,0,B|448:104|392:104,1,70
328,104,71865,2,0,B|292:104|263:127,2,70
368,176,72266,2,0,B|368:240|317:285|261:285,1,140
212,316,72668,2,0,B|180:348|96:348|68:304,1,140
48,144,73204,1,0
48,144,73472,6,0,B|64:112|152:112|180:152,1,140
208,224,73873,2,0,B|196:257|258:320|306:311,1,140
352,244,74275,2,0,B|368:212|456:212|484:252,2,140
300,312,74945,1,0
220,336,75079,6,0,B|144:336,1,70
80,256,75347,2,0,B|160:256,1,70
256,256,75615,1,4
256,256,75882,5,2
360,192,76150,2,0,B|440:192|440:192|472:232|448:276,2,157.499995306134,2|2|2
256,120,77222,2,0,B|256:16,2,104.999996870756,0|2|4
256,256,78025,1,0
152,192,78293,2,0,B|72:192|72:192|40:232|64:276,2,157.499995306134,2|2|2
256,120,79365,2,0,B|256:228,1,104.999996870756,0|0
256,192,79900,12,0,81775
332,264,82043,5,0
320,76,82445,1,0
156,172,82847,2,0,B|96:196|96:196|8:152|44:56,2,209.999993741512,4|0|4
240,76,84186,5,0
222,263,84588,1,0
399,194,84990,2,0,B|462:179|462:179|542:236|491:326,2,209.999993741512,4|0|0
256,192,86329,12,4,88338
