osu file format v9

[General]
AudioFilename: (^3^)chu.mp3
AudioLeadIn: 0
PreviewTime: 82476
Countdown: 0
SampleSet: Soft
StackLeniency: 0.7
Mode: 0
LetterboxInBreaks: 0

[Editor]
DistanceSpacing: 0.9
BeatDivisor: 4
GridSize: 4

[Metadata]
Title:(^3^)chu Dere Rhapsody
Artist:Katakiri Rekka
Creator:MiLu
Version:Insane
Source:Goshujin-sama Daisuki
Tags:score suirenn05 Rare R_a_r_e

[Difficulty]
HPDrainRate:7
CircleSize:4
OverallDifficulty:7
ApproachRate:8
SliderMultiplier:2
SliderTickRate:2

[Events]
//Background and Video events
0,0,"bg.jpg"
//Break Periods
//Storyboard Layer 0 (Background)
//Storyboard Layer 1 (Fail)
//Storyboard Layer 2 (Pass)
//Storyboard Layer 3 (Foreground)
//Storyboard Sound Samples
//Background Colour Transformations
3,100,163,162,255

[TimingPoints]
14352,357.142857142857,4,2,1,80,1,0
18548,-100,4,2,1,60,0,0
19977,-100,4,2,1,80,0,0
24352,-100,4,2,1,70,0,0
25691,-100,4,2,1,50,0,0
25869,-100,4,2,1,80,0,0
37209,-100,4,2,1,60,0,0
37298,-100,4,2,1,80,0,0
47834,-100,4,2,1,50,0,0
48101,-100,4,2,1,55,0,0
48280,-100,4,2,1,60,0,0
48459,-100,4,2,1,65,0,0
48637,-100,4,2,1,70,0,0
60066,-100,4,2,1,80,0,0
60155,-100,4,2,1,70,0,0
81226,-100,4,2,2,80,0,0
82923,-100,4,2,1,90,0,1
83191,-100,4,2,2,90,0,1
87209,-100,4,2,1,90,0,1
87387,-100,4,2,2,90,0,1
88548,-100,4,2,1,90,0,1
88905,-100,4,2,2,90,0,1
92923,-100,4,2,1,90,0,1
93191,-100,4,2,2,90,0,1
93369,-100,4,2,1,90,0,1
93726,-100,4,2,2,90,0,1
93994,-100,4,2,2,80,0,0
94351,-100,4,2,1,90,0,1
94619,-100,4,2,2,90,0,1
98637,-100,4,2,1,90,0,1
98905,-100,4,2,2,90,0,1
100066,-100,4,2,1,90,0,1
100334,-100,4,2,2,90,0,1
104351,-100,4,2,1,90,0,1
104619,-100,4,2,2,90,0,1
108637,-100,4,2,1,80,0,0
125869,-100,4,2,1,90,0,0

[Colours]
Combo1 : 255,255,81
Combo2 : 11,175,255
Combo3 : 0,255,128
Combo4 : 255,136,196

[HitObjects]
184,52,14351,2,0,B|160:96|176:152,1,100,4|2
256,184,14709,2,0,B|292:152,2,50,0|0|2
180,236,15066,1,0
260,352,15244,1,2
372,268,15423,1,0
293,150,15601,1,2
82,227,15780,6,0,B|126:251|180:236,1,100,4|2
256,184,16137,1,0
256,184,16226,1,0
256,184,16316,1,2
173,30,16494,2,0,B|173:82|173:82|140:116,1,100,0|2
338,353,16851,2,0,B|338:301|338:301|372:268,1,100,0|2
432,140,17209,5,4
356,188,17387,1,2
256,184,17566,2,0,B|272:136,2,50,0|0|2
216,320,17923,1,0
140,272,18101,1,2
124,184,18280,1,0
148,96,18459,1,2
256,184,18637,6,0,B|356:188,1,100,0|8
316,52,18994,2,0,B|216:48,1,100,0|8
288,172,19351,2,0,B|388:176,1,100,0|8
416,166,19619,1,0
444,177,19709,2,0,B|468:236|448:276,1,100,8|8
400,352,20066,6,0,B|320:292,1,100,4|2
116,352,20423,2,0,B|160:320,2,50,0|0|2
91,213,20780,1,0
168,96,20959,1,2
288,172,21137,1,0
208,288,21316,1,2
26,335,21494,6,0,B|76:324|76:324|116:352,1,100,4|2
256,360,21851,1,0
256,360,21941,1,0
256,360,22030,1,2
382,255,22209,2,0,B|354:295|354:295|304:288,1,100,0|2
129,255,22566,2,0,B|157:295|157:295|208:288,1,100,0|2
256,212,22923,5,4
304,80,23101,1,2
168,52,23280,2,0,B|132:20,2,50,0|0|2
197,189,23637,2,0,B|200:238,1,50
224,172,23816,2,0,B|256:212,1,50,2|0
248,140,23994,2,0,B|295:154,1,50
256,95,24173,2,0,B|304:80,1,50,2|0
344,64,24351,5,8
460,144,24530,1,0
420,280,24709,1,8
420,280,24798,1,0
420,280,24887,1,0
420,280,24976,1,0
420,280,25066,2,0,B|384:292|384:292|360:284|360:284|324:300,2,100,8|0|8
176,112,25780,6,0,B|232:124|256:76|256:76|284:124|348:112,2,200,4|8|0
112,176,26673,1,0
112,176,26762,1,0
112,176,26851,2,0,B|152:204|148:264,1,100,8|0
124,300,27119,1,0
152,336,27209,2,0,B|252:344,1,100
468,268,27566,2,0,B|368:260,1,100,8|0
344,348,27923,5,0
284,280,28101,1,2
312,192,28280,1,8
400,176,28459,1,2
112,208,28637,6,0,B|180:240|252:200|240:108,2,200,0|8|0
56,80,29530,1,0
56,80,29619,1,0
56,80,29709,2,0,B|152:112,1,100,8|0
196,120,29976,1,0
241,114,30066,2,0,B|337:146,1,100
408,268,30423,2,0,B|448:236|432:176,1,100,8|0
480,100,30780,5,0
400,56,30959,1,2
312,60,31137,1,8
241,114,31316,1,2
356,340,31494,6,0,B|312:316|312:256|312:256|272:288|216:288,2,200,4|8|0
408,268,32387,1,0
412,168,32566,1,8
241,114,32744,1,0
241,114,32834,1,0
241,114,32923,2,0,B|200:144|200:144|148:136,1,100
28,72,33280,2,0,B|69:42|69:42|121:50,1,100,8|0
76,184,33637,5,0
124,260,33816,1,2
200,212,33994,1,8
151,136,34173,1,2
272,288,34351,6,0,B|308:244|312:180|280:136|241:114,2,200,0|8|0
188,324,35244,1,0
124,260,35423,1,8
160,176,35601,1,0
248,200,35780,2,0,B|296:216|348:208,1,100
416,148,36137,2,0,B|388:105|382:53,1,100,8|0
296,36,36494,1,0
128,104,36673,5,2
157,102,36762,1,0
186,110,36852,1,8
212,124,36941,1,0
234,143,37030,1,2
247,169,37119,1,0
248,200,37209,6,0,B|224:244|240:300,1,100,4|0
268,332,37477,1,0
312,328,37566,2,0,B|363:333|393:281,1,100,8|0
316,236,37923,1,0
348,152,38102,1,0
436,136,38280,1,8
188,32,38459,5,0
188,32,38548,1,0
188,32,38637,2,0,B|148:64|156:124,1,100
256,220,38994,2,0,B|156:248,1,100,8|0
172,336,39352,1,0
88,304,39530,1,2
76,216,39709,1,8
144,156,39887,1,2
432,188,40066,5,0
416,276,40244,1,0
348,215,40423,2,0,B|231:184|160:248,2,200,8|0|8
372,352,41316,5,0
372,352,41405,1,0
372,352,41494,2,0,B|320:360|320:360|284:328,1,100
248,224,41852,2,0,B|196:216|196:216|160:248,1,100,8|0
112,324,42209,1,0
112,184,42387,1,2
248,224,42566,1,8
212,88,42744,1,2
56,268,42923,6,0,B|100:248|156:256,1,100,4|0
188,288,43191,1,0
220,320,43280,2,0,B|320:328,1,100,8|0
340,240,43637,1,0
432,236,43816,1,0
440,324,43994,1,8
260,340,44173,5,0
220,320,44262,1,0
188,288,44352,2,0,B|188:188,1,100
312,56,44709,2,0,B|312:156,1,100,8|0
340,240,45066,2,0,B|384:256|384:256|432:236,1,100,0|2
444,96,45423,2,0,B|348:132,1,100,8|2
308,148,45691,1,0
288,188,45780,6,0,B|232:196|200:152,1,100
216,64,46137,1,8
128,36,46316,1,0
92,120,46494,2,0,B|112:168|100:224,1,100
188,244,46852,2,0,B|239:250|282:289,1,100,8|0
342,347,47209,5,8
188,244,47387,1,0
428,120,47566,1,8
76,60,47744,1,0
256,72,47923,5,8
256,81,48012,1,0
256,90,48102,1,0
256,100,48191,1,0
256,109,48280,1,0
256,118,48369,1,0
256,128,48459,1,0
256,137,48548,1,0
256,146,48637,6,0,B|268:196,1,50,4|0
262,224,48816,2,0,B|246:272,1,50
217,278,48994,2,0,B|169:258,1,50,2|0
143,271,49173,2,0,B|107:307,1,50
77,307,49352,2,0,B|41:267,1,50
58,243,49530,2,0,B|54:195,1,50,2|0
78,175,49709,2,0,B|114:143,1,50,0|2
137,121,49887,2,0,B|121:73,1,50,0|0
144,54,50066,6,0,B|192:38,3,50
211,61,50423,2,0,B|259:77,3,50,2|0|0|0
283,60,50780,2,0,B|331:44,3,50,0|0|2|0
353,63,51137,2,0,B|401:79,3,50,0|0|2|0
416,104,51494,5,0
405,132,51584,1,0
400,161,51673,1,0
406,190,51762,1,0
423,214,51852,1,2
443,236,51941,1,0
448,265,52030,1,0
437,292,52119,1,0
410,307,52209,1,0
380,299,52298,1,0
350,295,52387,1,0
320,302,52477,1,0
294,318,52566,1,0
270,336,52655,1,2
240,338,52744,1,0
210,334,52834,1,0
182,321,52923,6,0,B|133:334,3,50,2|0|0|0
142,289,53280,2,0,B|93:302,3,50,0|0|2|0
105,258,53637,2,0,B|56:271,3,50
64,224,53994,6,0,B|41:203,7,25,2|0|0|0|0|0|0|0
66,196,54352,6,0,B|110:164,1,50,4|0
134,201,54530,2,0,B|186:225,1,50
208,257,54709,2,0,B|236:305,1,50,2|0
278,300,54887,2,0,B|304:257,1,50
348,249,55066,2,0,B|396:261,1,50
414,220,55244,2,0,B|366:208,1,50,2|0
352,164,55423,2,0,B|400:176,1,50,0|2
432,145,55602,2,0,B|384:133,1,50
356,97,55780,6,0,B|320:64,3,50
276,79,56137,2,0,B|227:81,3,50,2|0|0|0
180,80,56494,2,0,B|147:116,3,50,0|0|2|0
107,142,56852,2,0,B|109:190,3,50,0|0|2|0
134,229,57209,5,0
163,236,57298,1,0
179,260,57387,1,0
183,289,57477,1,0
188,318,57566,1,2
210,338,57655,1,0
238,348,57744,1,0
268,348,57834,1,0
296,338,57923,1,0
318,318,58012,1,0
328,290,58102,1,0
322,260,58191,1,0
310,232,58280,1,0
287,211,58369,1,2
257,202,58459,1,0
227,207,58548,1,0
195,218,58637,6,0,B|151:188,1,50,2|0
83,198,58816,2,0,B|127:168,1,50
192,156,58994,2,0,B|148:126,1,50,0|0
80,136,59173,2,0,B|124:106,1,50,2|0
159,83,59352,1,2
199,63,59441,1,0
243,61,59530,1,0
283,80,59619,1,0
308,117,59709,1,2
306,162,59798,1,0
275,194,59887,1,0
258,235,59977,1,0
256,280,60066,6,0,B|288:316|344:320,1,100,4|0
384,296,60334,1,0
388,252,60423,2,0,B|372:204|388:152,1,100,8|0
392,61,60780,2,0,B|308:117,1,100,2|0
120,61,61137,2,0,B|204:117,1,100,8|0
256,248,61494,6,0,B|232:292|176:304,1,100
144,272,61762,1,0
100,280,61852,2,0,B|36:200,1,100,8|0
116,156,62209,1,2
260,116,62387,1,0
120,60,62566,1,8
200,188,62744,1,0
208,36,62923,6,0,B|168:72|172:124|172:124|68:104,2,200,2|2|2
260,116,63816,2,0,B|292:152|352:148,1,100,2|0
416,212,64173,2,0,B|428:264|404:308,1,100,2|0
232,252,64530,5,0
232,252,64619,1,0
232,252,64709,2,0,B|280:236|336:248,1,100,2|0
416,212,65066,1,0
416,212,65244,1,2
340,48,65423,1,0
340,48,65602,1,2
176,128,65780,6,0,B|220:148|228:208,1,100,4|0
232,252,66048,1,0
212,292,66137,2,0,B|112:312,1,100,8|0
56,184,66494,2,0,B|108:196|88:228|140:236,1,100,2|0
456,184,66852,2,0,B|404:196|424:228|372:236,1,100,8|0
256,156,67209,6,0,B|308:168|352:136,1,100
332,96,67477,1,0
312,56,67566,2,0,B|208:56,1,100,8|0
232,196,67923,1,2
332,96,68102,1,0
448,176,68280,1,8
432,316,68459,1,0
292,324,68637,6,0,B|248:352|248:352|192:296|112:332,2,200,2|2|2
360,264,69530,1,2
360,264,69619,1,0
360,264,69709,2,0,B|320:232|324:176,1,100,0|2
384,108,70066,1,0
248,228,70244,6,0,B|224:280,2,50,0|0|2
240,140,70602,1,0
324,176,70780,1,2
351,186,70869,1,0
368,210,70959,1,0
375,238,71048,1,0
360,264,71137,2,0,B|320:296|268:296,1,100,0|2
227,273,71405,1,0
188,296,71494,2,0,B|135:295|95:263,1,100,4|0
168,96,71852,6,0,B|216:80|216:80|256:120|296:80|296:80|352:96,1,200,8|0
351,186,72387,2,0,B|320:228|328:284,1,100,0|8
184,280,72744,2,0,B|192:228|161:186,1,100,0|2
88,132,73102,1,0
168,96,73280,2,0,B|256:148,1,100,8|0
332,100,73637,6,0,B|360:60|420:60,1,100,2|0
180,100,73994,2,0,B|152:60|92:60,1,100,10|0
372,144,74352,2,0,B|420:148|450:200,1,100,2|0
140,144,74709,2,0,B|91:148|61:200,1,100,8|0
368,204,75066,2,0,B|384:304,1,100,0|0
144,204,75423,2,0,B|128:304,1,100,2|0
268,320,75780,5,2
384,181,75959,1,0
245,65,76137,1,2
129,204,76316,1,0
264,236,76494,2,0,B|300:272|360:264,1,100,2|0
384,181,76852,1,0
248,152,77030,5,0
248,152,77119,1,0
248,152,77209,2,0,B|228:84|296:24|376:52,2,200,4|0|0
300,224,78102,1,0
384,181,78280,2,0,B|416:224|416:224|408:272,1,100,0|0
360,348,78637,5,2
272,324,78816,1,0
184,348,78994,2,0,B|152:305|152:305|160:257,1,100
212,188,79352,1,2
300,224,79530,1,0
384,180,79709,2,0,B|419:139|419:139|415:91,1,100
240,60,80066,5,2
272,324,80244,1,0
168,176,80423,1,0
344,208,80602,1,0
72,212,80780,1,0
256,100,80959,1,0
440,212,81137,1,0
256,252,81316,5,0
256,242,81405,1,0
256,232,81494,1,4
344,208,81673,1,4
256,100,81852,1,0
168,208,82030,2,0,B|136:264|49:247|37:157|91:131,1,200,4|0
164,88,82566,1,2
256,100,82744,1,0
256,100,82834,1,0
256,100,82923,6,0,B|356:112,1,100,4|0
416,240,83280,2,0,B|388:340,1,100,8|0
344,328,83548,1,0
300,336,83637,2,0,B|244:320|200:340,1,100
116,364,83994,1,8
256,248,84173,5,0
256,248,84262,1,0
256,248,84352,2,0,B|272:200|264:144,1,100
224,68,84709,1,8
224,68,84887,1,0
96,124,85066,5,0
108,167,85155,1,0
143,194,85244,1,0
187,200,85334,1,0
225,176,85423,1,8
368,68,85602,1,0
404,152,85780,5,2
404,152,85869,1,0
404,152,85959,2,0,B|412:204,1,50
392,340,86137,1,10
392,340,86227,1,0
392,340,86316,2,0,B|370:291,1,50
292,180,86494,1,2
292,180,86584,1,0
292,180,86673,2,0,B|272:229,1,50
188,336,86852,1,10
188,336,86941,1,0
188,336,87030,2,0,B|155:294,1,50,0|0
172,228,87209,6,0,B|184:176|144:116|80:120|36:152,2,200,4|8|0
88,340,88101,1,8
88,340,88191,1,0
88,340,88280,2,0,B|188:336,1,100,8|0
284,44,88637,6,0,B|244:88|260:188|332:208,1,200,4|8
448,288,89173,1,0
448,288,89351,2,0,B|368:308|368:308|332:292|332:292|256:312,1,200,0|8
180,264,89887,5,0
180,264,89976,1,0
180,264,90066,2,0,B|192:216|168:168,1,100
332,264,90423,2,0,B|320:216|344:168,1,100,8|0
256,60,90780,2,0,B|256:124|256:124|248:148|248:148|248:172|248:172|256:196|256:196|256:256,1,200,0|8
288,340,91316,1,0
428,336,91494,5,2
372,164,91673,1,0
84,336,91851,1,10
140,164,92030,1,0
464,76,92209,1,2
300,148,92387,1,0
48,76,92566,1,10
212,148,92744,1,0
488,252,92923,6,0,B|408:268|364:188|400:120,1,200,4|8
24,252,93459,2,0,B|104:268|148:188|112:120,1,200,4|8
113,122,93905,1,0
113,122,93994,1,8
184,268,94173,1,0
328,116,94351,6,0,B|336:216,1,100,4|0
272,280,94709,1,8
184,268,94887,1,0
184,268,94976,1,0
184,268,95066,2,0,B|128:276|108:324,2,100,0|0|8
356,316,95601,5,0
356,316,95691,1,0
356,316,95780,2,0,B|424:240,1,100
356,116,96137,2,0,B|288:192,1,100,8|0
112,232,96494,2,0,B|83:164|154:93|222:116,1,200,0|8
256,200,97030,1,0
337,314,97209,5,2
346,314,97298,1,0
356,316,97387,2,0,B|408:320,1,50
267,282,97566,1,10
258,282,97655,1,0
248,284,97744,2,0,B|196:288,1,50
348,232,97923,1,2
357,232,98012,1,0
367,234,98101,2,0,B|419:238,1,50
256,200,98280,1,10
247,200,98369,1,0
237,202,98459,2,0,B|185:206,1,50
136,252,98637,6,0,B|88:248|48:188|64:112|112:92,2,200,4|8|0
244,340,99530,1,8
256,200,99709,1,8
296,220,99798,1,0
340,216,99887,1,0
378,192,99976,1,0
397,150,100066,2,0,B|431:105|411:49|357:16|301:36,1,200,4|8
52,244,100601,1,0
52,244,100691,1,0
52,244,100780,2,0,B|86:289|145:284|191:240|186:181,1,200,0|8
56,56,101316,5,0
56,56,101405,1,0
56,56,101494,2,0,B|164:72,1,100
456,136,101851,2,0,B|348:152,1,100,8|0
256,252,102209,2,0,B|252:292|252:292|260:308|260:308|256:348,2,100,0|0|8
156,156,102744,1,0
360,288,102923,5,2
456,136,103101,1,0
152,288,103280,1,10
56,136,103459,1,0
356,156,103637,1,2
436,316,103816,1,0
156,156,103994,1,10
76,316,104173,1,0
164,88,104351,6,0,B|208:44|296:44|348:88,2,200,4|8|0
132,172,105244,1,8
135,201,105334,1,0
137,231,105423,2,0,B|149:283|129:331,1,100,8|0
220,220,105780,5,0
304,188,105959,1,2
388,212,106137,2,0,B|436:228|464:272,1,100,8|2
356,360,106494,1,0
328,276,106673,1,2
304,188,106851,1,8
220,220,107030,5,2
220,220,107119,1,0
220,220,107209,1,0
144,268,107387,1,2
140,176,107566,1,8
136,88,107744,2,0,B|108:68,3,25,2|0|0|0
216,128,108101,1,2
384,60,108280,1,8
444,232,108459,1,0
276,300,108637,6,0,B|236:300|236:300|220:292|220:292|176:292,1,100,4|2
92,316,108994,2,0,B|60:352,2,50,0|0|2
112,228,109351,1,0
276,300,109530,1,2
96,272,109709,1,0
276,256,109887,1,2
92,316,110066,6,0,B|132:316|132:316|148:324|148:324|192:324,1,100,4|2
276,300,110423,1,0
276,300,110512,1,0
276,300,110601,1,2
364,192,110780,1,0
300,128,110959,1,2
212,128,111137,1,0
148,192,111316,1,2
182,328,111494,6,0,B|216:292|276:300,1,100,4|2
364,312,111851,2,0,B|396:276,2,50,0|0|2
452,336,112209,1,0
276,300,112387,1,2
440,224,112566,1,0
264,196,112744,1,2
108,288,112923,6,0,B|148:256|144:192,1,100,0|8
404,288,113280,2,0,B|364:256|368:192,1,100,0|8
112,84,113637,2,0,B|156:104|212:96,1,100,0|8
256,96,113905,1,0
302,96,113994,2,0,B|346:76|400:84,1,100,8|8
332,208,114351,6,0,B|248:268,1,100,4|2
208,348,114709,1,0
179,340,114798,1,0
158,318,114887,1,2
164,228,115066,1,0
292,284,115244,1,2
348,156,115423,1,0
220,100,115601,1,2
40,120,115780,6,0,B|88:140|140:136,1,100,4|2
308,76,116137,2,0,B|336:36,2,50,0|0|2
224,344,116494,1,0
292,284,116673,1,2
224,224,116851,1,0
288,160,117030,1,2
64,160,117209,6,0,B|112:144,1,50,4|0
144,176,117387,2,0,B|192:192,1,50,2|0
224,224,117566,1,0
224,224,117655,1,0
224,224,117744,1,2
292,284,117923,1,0
348,156,118101,1,2
220,100,118280,1,0
164,228,118459,1,2
428,276,118637,5,8
348,156,118816,1,0
224,224,118994,1,8
224,224,119084,1,0
224,224,119173,1,0
224,224,119262,1,0
224,224,119351,2,0,B|188:236|188:236|164:228|164:228|128:244,2,100,8|0|8
436,40,120066,6,0,B|452:88|452:88|444:136,1,100,4|0
428,276,120423,1,0
428,276,120512,1,0
428,276,120601,1,0
304,127,120780,6,0,B|284:146|284:146|297:177|284:216,1,100,4|0
292,356,121137,1,0
292,356,121226,1,0
292,356,121316,1,0
284,216,121494,6,0,B|274:201|274:201|254:203|254:203|246:185|246:185|226:187|226:187|211:174,1,100,4|0
84,108,121851,1,0
84,108,121941,1,0
84,108,122030,1,0
203,273,122209,6,0,B|210:173,1,100,4|0
220,28,122566,1,0
220,28,122655,1,0
220,28,122744,1,0
328,120,122923,6,0,B|376:140,2,50,4|0|0
184,120,123280,2,0,B|137:139,2,50,4|0|0
372,248,123637,2,0,B|391:296,2,50,4|0|0
140,248,123994,2,0,B|120:296,2,50,4|0|0
256,328,124351,5,4
372,248,124530,1,0
376,108,124709,1,4
256,36,124887,1,0
136,108,125066,1,4
140,248,125244,1,0
256,288,125423,5,4
256,278,125512,1,0
256,268,125601,1,0
256,257,125691,1,0
256,247,125780,1,4
256,192,125869,12,2,127030
