osu file format v9

[General]
AudioFilename: (^3^)chu.mp3
AudioLeadIn: 0
PreviewTime: 82476
Countdown: 0
SampleSet: Soft
StackLeniency: 0.7
Mode: 0
LetterboxInBreaks: 0

[Editor]
DistanceSpacing: 1.2
BeatDivisor: 4
GridSize: 4

[Metadata]
Title:(^3^)chu Dere Rhapsody
Artist:Katakiri Rekka
Creator:MiLu
Version:Easy
Source:Goshujin-sama Daisuki
Tags:score suirenn05 Rare R_a_r_e

[Difficulty]
HPDrainRate:3
CircleSize:3
OverallDifficulty:2
ApproachRate:4
SliderMultiplier:0.8
SliderTickRate:2

[Events]
//Background and Video events
0,0,"bg.jpg"
//Break Periods
//Storyboard Layer 0 (Background)
//Storyboard Layer 1 (Fail)
//Storyboard Layer 2 (Pass)
//Storyboard Layer 3 (Foreground)
//Storyboard Sound Samples
//Background Colour Transformations
3,100,163,162,255

[TimingPoints]
14352,357.142857142857,4,2,1,80,1,0
81405,-100,4,2,2,80,0,0
82923,-100,4,2,1,90,0,1
93994,-100,4,2,1,80,0,0
94351,-100,4,2,1,90,0,1
108637,-100,4,2,1,80,0,0
125691,-100,4,2,1,90,0,0

[Colours]
Combo1 : 255,255,81
Combo2 : 11,175,255
Combo3 : 0,255,128
Combo4 : 255,136,196

[HitObjects]
400,300,14351,2,0,B|364:320|324:312,2,80,4|0|2
408,108,15780,2,0,B|328:108,1,80
232,108,16494,1,2
164,288,17209,6,0,B|128:268|120:224,1,80
132,128,17923,1,2
312,60,18637,2,0,B|368:64|408:120|392:180,1,160,8|8
284,332,20066,6,0,B|284:252,1,80,4|0
192,272,20780,1,2
220,80,21494,2,0,B|184:52|140:56,2,80,0|0|2
256,276,22923,6,0,B|292:304|336:300,2,80,0|0|2
396,144,24351,2,0,B|328:76|248:124,1,160,8|8
124,264,25780,6,0,B|144:300|184:316,1,80,4|8
248,260,26494,2,0,B|289:259|323:285,1,80,2|8
396,348,27209,1,2
456,272,27566,1,0
440,172,27923,1,2
284,284,28637,6,0,B|252:308|208:304,1,80,2|8
228,212,29351,2,0,B|212:175|172:156,1,80,2|8
76,148,30066,2,0,B|92:308,1,160,2|2
284,324,31494,6,0,B|276:240,1,80,4|8
180,248,32209,2,0,B|131:179,1,80,2|8
40,200,32923,1,2
72,108,33280,1,0
164,96,33637,1,2
256,264,34351,6,0,B|268:304|308:324,1,80,2|8
352,240,35066,2,0,B|361:199|336:162,1,80,2|8
244,172,35780,2,0,B|224:120|268:64|328:64,1,160,2|0
408,244,37209,6,0,B|420:288|412:328,1,80,4|8
320,352,37923,1,2
140,280,38637,2,0,B|60:268,1,80,2|8
88,176,39352,1,2
280,188,40066,6,0,B|356:216|436:176,1,160,2|2
380,96,41137,1,8
280,104,41494,2,0,B|276:264,1,160,2|2
100,340,42923,6,0,B|80:300|84:260,1,80,4|8
140,184,43637,1,2
256,28,44352,1,2
216,116,44709,1,8
280,188,45066,1,2
452,132,45780,5,2
464,228,46137,2,0,B|456:312,1,80,8|2
368,344,46852,1,8
284,296,47209,2,0,B|252:296|252:296|236:308|236:308|204:308,2,80,8|8|0
488,112,48637,5,4
396,140,48994,2,0,B|352:156|312:124|312:76,2,120,2|2|0
388,236,50423,2,0,B|404:280|372:320|324:320,2,120,2|2|0
292,232,51852,5,2
224,300,52209,1,0
60,204,52923,1,2
208,80,53637,1,2
344,220,54352,5,4
296,304,54709,2,0,B|356:324|408:284,2,120,2|2|0
224,240,56137,2,0,B|164:220|112:260,2,120,2|2|0
272,156,57566,5,2
344,220,57923,1,0
208,356,58637,1,2
16,340,59352,1,2
116,176,60066,6,0,B|156:184|156:184|192:168,1,80,4|8
280,128,60780,1,2
424,252,61494,2,0,B|432:212|432:212|416:176,1,80,0|8
368,92,62209,1,2
232,212,62923,6,0,B|178:226|127:175|135:115,2,160,4|0|2
328,212,64709,1,0
280,296,65066,1,2
88,320,65780,6,0,B|72:284|72:284|80:244,1,80,4|8
108,152,66494,1,2
284,76,67209,2,0,B|248:92|248:92|208:84,1,80,2|8
116,56,67923,1,2
100,248,68637,6,0,B|114:301|184:320|232:283,2,160,4|0|0
180,196,70423,1,2
100,140,70780,1,2
156,60,71137,1,2
236,116,71494,6,0,B|312:140|396:132,1,160,4|0
460,312,72923,2,0,B|384:288|300:296,1,160,2|2
116,348,74352,6,0,B|52:296|80:200,1,160,2|0
172,180,75423,1,2
172,180,75780,2,0,B|248:200,2,80,2|0|0
120,100,76852,1,0
208,64,77209,6,0,B|364:108,1,160,4|0
248,264,78637,2,0,B|224:296|228:344,1,80,2|0
132,356,79352,2,0,B|136:313|112:281,1,80,2|0
96,184,80066,6,0,B|72:216|28:224,2,80,2|0|0
256,80,81494,1,2
256,176,81852,2,0,B|256:216,1,40,4|4
364,312,82566,1,2
364,312,82923,6,0,B|328:240,1,80,4|0
232,224,83637,2,0,B|268:152,1,80,2|0
364,136,84352,2,0,B|376:96|364:56,2,80,2|0|4
236,280,85780,6,0,B|204:308|160:312,1,80,2|0
172,216,86494,2,0,B|163:174|182:134,1,80,2|0
260,192,87209,2,0,B|300:205|325:241,2,80,4|2|0
208,112,88280,1,2
112,100,88637,6,0,B|76:176,1,80,4|0
124,256,89351,2,0,B|160:332,1,80,2|0
256,328,90066,2,0,B|324:280|408:328,1,160,2|4
456,140,91494,6,0,B|416:136|384:104,1,80,2|0
344,192,92209,2,0,B|313:222|273:226,1,80,2|0
220,148,92923,1,2
256,60,93280,2,0,B|220:48|176:56,2,80,2|0|2
336,112,94351,6,0,B|344:191,1,80,4|0
256,232,95066,2,0,B|247:311,1,80,2|0
340,332,95780,2,0,B|376:312|396:275,2,80,2|0|4
148,308,97209,6,0,B|68:304,1,80,2|0
36,212,97923,2,0,B|116:216,1,80,2|0
148,124,98637,2,0,B|68:120,2,80,2|0|2
312,220,100066,6,0,B|288:184|280:144,1,80,4|0
296,52,100780,2,0,B|260:72|216:76,1,80,4|0
124,68,101494,2,0,B|124:124|124:124|136:164|136:164|136:228,1,160,4|4
292,344,102923,6,0,B|256:320|212:324,1,80,2|0
120,324,103637,2,0,B|96:288|100:244,1,80,2|0
176,192,104351,2,0,B|212:240|288:232,2,120,2|2|0
232,112,105780,5,2
52,184,106494,1,2
244,200,107209,2,0,B|228:264|172:292|120:276,1,160,2|8
184,84,108637,6,0,B|264:100,1,80,4|0
356,120,109351,1,2
268,292,110066,2,0,B|228:288|188:300,1,80,4|0
100,336,110780,1,2
228,188,111494,6,0,B|204:156|208:112,1,80,2|0
304,124,112209,2,0,B|342:138|383:123,1,80,2|0
444,196,112923,2,0,B|447:253|373:293|327:262,1,160,8|8
384,68,114351,6,0,B|304:80,1,80,4|0
304,176,115066,1,2
112,152,115780,1,4
120,248,116137,1,0
168,332,116494,1,2
344,264,117209,6,0,B|300:276|264:260,1,80,2|0
186,205,117923,2,0,B|142:217|120:248,1,80,2|0
76,332,118637,2,0,B|156:332,2,80,8|0|8
128,148,120066,5,4
212,320,120780,1,4
384,236,121494,1,4
300,64,122209,1,4
256,148,122566,1,0
351,163,122923,6,0,B|372:192|384:236,1,80,4|4
368,332,123637,2,0,B|328:336|288:323,1,80,4|4
236,244,124351,5,4
256,148,124709,1,2
176,96,125066,1,4
108,160,125423,1,2
256,192,125780,12,2,127030
