osu file format v14

[General]
AudioFilename: Girl meets Love_01.mp3
AudioLeadIn: 0
PreviewTime: 195213
Countdown: 0
SampleSet: Soft
StackLeniency: 0.7
Mode: 0
LetterboxInBreaks: 1
WidescreenStoryboard: 0

[Editor]
Bookmarks: 5808,8402,10997,21375,29159
DistanceSpacing: 1
BeatDivisor: 4
GridSize: 4
TimelineZoom: 1

[Metadata]
Title:Girl meets Love
TitleUnicode:Girl meets Love
Artist:Katakiri Rekka & Suzuyu
ArtistUnicode:片霧烈火 & 鈴湯
Creator:Rizia
Version:Hana
Source:花咲ワークスプリング!
Tags:hana saki work spring! opening game visual novel saga planets kawaiwkyik
BeatmapID:838542
BeatmapSetID:383596

[Difficulty]
HPDrainRate:7
CircleSize:4
OverallDifficulty:8
ApproachRate:9
SliderMultiplier:1.8
SliderTickRate:2

[Events]
//Background and Video events
0,0,"yande.re 318352 hanasaki_work_spring saga_planets seifuku shiranui_inori syroh thighhighs.jpg",0,0
//Break Periods
2,109791,114181
//Storyboard Layer 0 (Background)
//Storyboard Layer 1 (Fail)
//Storyboard Layer 2 (Pass)
//Storyboard Layer 3 (Foreground)
//Storyboard Sound Samples

[TimingPoints]
619,324.324324324324,4,2,1,40,1,0
619,-133.333333333333,4,2,1,40,0,0
8402,-100,4,1,1,40,0,0
10997,-100,4,1,1,60,0,0
22754,-100,4,1,1,5,0,0
22835,-100,4,1,1,60,0,0
23078,-100,4,1,1,5,0,0
23159,-100,4,1,1,60,0,0
25348,-100,4,1,1,5,0,0
25429,-100,4,1,1,60,0,0
25673,-100,4,1,1,5,0,0
25754,-100,4,1,1,60,0,0
27943,-100,4,1,1,5,0,0
28024,-100,4,1,1,60,0,0
28267,-100,4,1,1,5,0,0
28348,-100,4,1,1,60,0,0
31754,-133.333333333333,4,2,1,40,0,0
35646,-100,4,2,1,50,0,0
36781,-100,4,2,1,60,0,0
41808,-125,4,2,1,60,0,0
42132,-111.111111111111,4,2,1,60,0,0
47159,-100,4,2,1,60,0,0
56402,-111.111111111111,4,2,1,60,0,0
56727,-83.3333333333333,4,2,1,60,0,0
57051,-71.4285714285714,4,2,1,60,0,0
57700,-100,4,2,1,60,0,0
64186,-125,4,2,1,60,0,0
64429,-125,4,2,1,5,0,0
64510,-100,4,2,1,60,0,0
64754,-100,4,2,1,5,0,0
64835,-83.3333333333333,4,2,1,60,0,0
65078,-83.3333333333333,4,2,1,5,0,0
65159,-71.4285714285714,4,2,1,60,0,0
65402,-71.4285714285714,4,2,1,5,0,0
65483,-100,4,1,1,60,0,1
71646,-83.3333333333333,4,1,1,60,0,1
71970,-100,4,1,1,60,0,1
72943,-83.3333333333333,4,1,1,60,0,1
73267,-100,4,1,1,60,0,1
82024,-83.3333333333333,4,1,1,60,0,1
82348,-100,4,1,1,60,0,1
83321,-83.3333333333333,4,1,1,60,0,1
83646,-100,4,1,1,60,0,1
86240,-125,4,1,1,50,0,0
91429,-100,4,1,1,60,0,1
92402,-83.3333333333333,4,1,1,60,0,1
92727,-100,4,1,1,60,0,1
93700,-83.3333333333333,4,1,1,60,0,1
94024,-100,4,1,1,60,0,1
99213,-100,4,1,1,60,0,0
114781,-133.333333333333,4,2,1,40,0,0
118673,-100,4,2,1,50,0,0
119808,-100,4,2,1,60,0,0
124673,-125,4,2,1,60,0,0
125159,-111.111111111111,4,2,1,60,0,0
130186,-100,4,2,1,60,0,0
139429,-111.111111111111,4,2,1,60,0,0
139754,-83.3333333333333,4,2,1,60,0,0
140078,-71.4285714285714,4,2,1,60,0,0
140727,-100,4,2,1,60,0,0
148510,-100,4,1,1,60,0,1
154673,-83.3333333333333,4,1,1,60,0,1
154997,-100,4,1,1,60,0,1
155970,-83.3333333333333,4,1,1,60,0,1
156294,-100,4,1,1,60,0,1
165051,-83.3333333333333,4,1,1,60,0,1
165375,-100,4,1,1,60,0,1
166348,-83.3333333333333,4,1,1,60,0,1
166673,-100,4,1,1,60,0,1
169267,-125,4,1,1,60,0,0
174456,-100,4,1,1,60,0,1
175429,-83.3333333333333,4,1,1,60,0,1
175754,-100,4,1,1,60,0,1
176727,-83.3333333333333,4,1,1,60,0,1
177051,-100,4,1,1,60,0,1
182240,-100,4,1,1,60,0,0
195213,-133.333333333333,4,1,1,60,0,0
200078,-55.5555555555556,4,1,1,60,0,0
200402,-100,4,1,1,60,0,1
201375,-83.3333333333333,4,1,1,60,0,1
201700,-100,4,1,1,60,0,1
202673,-83.3333333333333,4,1,1,60,0,1
202997,-100,4,1,1,60,0,1
204943,-100,4,1,1,60,0,0
205591,-100,4,1,1,60,0,1
211754,-83.3333333333333,4,1,1,60,0,1
212078,-100,4,1,1,60,0,1
213051,-83.3333333333333,4,1,1,60,0,1
213375,-100,4,1,1,60,0,1
215970,-125,4,1,1,60,0,0
221159,-100,4,1,1,60,0,1
222132,-83.3333333333333,4,1,1,60,0,1
222456,-100,4,1,1,60,0,1
223429,-83.3333333333333,4,1,1,60,0,1
223754,-100,4,1,1,60,0,1
228943,-100,4,1,1,60,0,0
238997,-66.6666666666667,4,1,1,60,0,0
239321,-100,4,1,1,60,0,1
239402,-100,4,1,1,60,0,0

[Colours]
Combo1 : 253,225,68
Combo2 : 255,0,0
Combo3 : 192,192,192
Combo4 : 158,121,200

[HitObjects]
80,168,619,6,0,P|144:176|208:128,1,135.000005149842,4|0,0:0|0:0,0:0:0:0:
288,156,1105,1,0,0:0:0:0:
356,248,1267,2,0,P|304:236|212:232,1,135.000005149842,2|0,0:0|0:0,0:0:0:0:
404,316,1754,2,0,P|428:284|408:184,1,135.000005149842,2|0,0:0|0:0,0:0:0:0:
288,156,2240,5,0,0:0:0:0:
288,156,2402,1,0,0:0:0:0:
204,212,2564,2,0,P|188:168|188:132,1,67.5000025749208,2|0,0:0|0:0,0:0:0:0:
202,49,2889,2,0,P|202:99|186:147,1,101.250003862381,2|0,0:1|0:0,0:0:0:0:
164,164,3213,6,0,P|120:152|32:136,1,135.000005149842,2|0,0:0|0:0,0:0:0:0:
61,259,3700,1,0,0:0:0:0:
196,252,3862,2,0,P|150:251|61:259,1,135.000005149842,2|0,0:0|0:0,0:0:0:0:
136,356,4348,1,0,0:0:0:0:
332,320,4510,6,0,P|344:280|340:252,1,67.5000025749208,2|0,0:0|0:0,0:0:0:0:
204,212,4835,2,0,P|192:172|196:144,1,67.5000025749208,2|0,0:0|0:0,0:0:0:0:
336,36,5159,2,0,P|360:40|316:64,1,135.000005149842,0|0,1:0|0:0,0:0:0:0:
344,64,5808,6,0,P|360:116|368:224,1,135.000005149842,4|0,1:0|0:0,0:0:0:0:
296,272,6294,1,0,0:0:0:0:
200,228,6456,2,0,P|184:176|176:68,1,135.000005149842,4|0,1:0|0:0,0:0:0:0:
460,332,7105,6,0,P|392:338|328:357,1,135.000005149842,4|0,1:0|0:0,0:0:0:0:
72,296,7754,2,0,P|104:256|196:252,1,135.000005149842,4|0,1:0|0:0,0:0:0:0:
332,340,8402,5,4,0:0:0:0:
352,200,8564,1,0,0:0:0:0:
224,256,8727,1,8,0:0:0:0:
264,112,8889,1,0,0:0:0:0:
264,112,8970,1,0,0:0:0:0:
264,112,9051,1,0,0:0:0:0:
424,264,9213,2,0,L|360:280,1,45
184,192,9375,2,0,L|248:176,1,45
400,128,9537,6,0,P|416:88|320:0,1,180,4|0,0:0|0:0,0:0:0:0:
128,96,10024,1,0,0:0:0:0:
288,116,10186,1,0,0:0:0:0:
170,234,10348,2,0,L|190:170,1,45,2|0,0:0|0:0,0:0:0:0:
200,8,10510,2,0,L|213:50,1,45,2|0,0:0|0:0,0:0:0:0:
336,200,10673,1,0,0:0:0:0:
308,32,10835,1,0,0:0:0:0:
256,244,10997,6,0,P|240:304|236:348,1,90,4|8,0:0|0:0,0:0:0:0:
416,172,11321,1,0,0:0:0:0:
420,356,11483,1,8,0:0:0:0:
420,356,11564,1,0,0:0:0:0:
420,356,11646,2,0,P|413:311|400:268,1,90,0|8,0:0|0:0,0:0:0:0:
252,156,11970,1,0,0:0:0:0:
170,234,12132,6,0,B|38:218|38:218|94:186,1,180,8|8,0:0|0:0,0:0:0:0:
252,156,12618,1,0,0:0:0:0:
78,194,12781,2,0,L|88:144,1,45,8|0,0:0|0:0,0:0:0:0:
200,92,12943,2,0,P|196:40|188:4,1,90,0|8,0:0|0:0,0:0:0:0:
170,234,13267,2,0,P|217:256|252:267,1,90,2|8,0:0|0:0,0:0:0:0:
448,200,13591,5,4,0:0:0:0:
252,156,13754,1,8,0:0:0:0:
368,268,13916,1,0,0:0:0:0:
404,104,14078,1,8,0:0:0:0:
404,104,14159,1,0,0:0:0:0:
404,104,14240,1,0,0:0:0:0:
360,300,14402,1,8,0:0:0:0:
412,72,14564,1,0,0:0:0:0:
352,332,14727,6,0,P|304:352|192:284,1,180,8|8,0:0|0:0,0:0:0:0:
312,96,15213,1,0,0:0:0:0:
412,228,15375,1,8,0:0:0:0:
412,228,15456,1,0,0:0:0:0:
412,228,15537,2,0,P|456:232|516:208,1,90,4|8,0:2|0:0,0:0:0:0:
268,16,15862,1,0,0:0:0:0:
236,48,15943,1,0,0:0:0:0:
224,92,16024,1,0,0:0:0:0:
232,136,16105,1,0,0:0:0:0:
260,172,16186,6,0,L|152:164,1,90,4|8,0:0|0:0,0:0:0:0:
48,240,16510,1,0,0:0:0:0:
152,336,16673,1,8,0:0:0:0:
152,336,16754,1,0,0:0:0:0:
152,336,16835,2,0,L|260:344,1,90,4|8,0:0|0:0,0:0:0:0:
76,256,17159,1,0,0:0:0:0:
264,204,17321,5,8,0:0:0:0:
128,116,17483,1,0,0:0:0:0:
272,232,17646,1,8,0:0:0:0:
252,16,17808,1,0,0:0:0:0:
172,204,17970,2,0,L|160:272,1,45,8|0,0:0|0:0,0:0:0:0:
372,260,18132,2,0,P|364:212|348:168,1,90,0|8,0:0|0:0,0:0:0:0:
292,324,18456,1,4,0:0:0:0:
448,192,18618,1,8,0:0:0:0:
276,108,18781,5,0,0:0:0:0:
296,308,18943,1,8,0:0:0:0:
184,164,19105,1,0,0:0:0:0:
124,324,19267,1,8,0:0:0:0:
124,324,19348,1,0,0:0:0:0:
124,324,19429,2,0,L|56:336,1,45
24,212,19591,2,0,L|68:204,1,45,8|0,0:0|0:0,0:0:0:0:
216,240,19754,1,0,0:0:0:0:
360,76,19916,6,0,P|340:48|200:64,1,180,4|0,0:0|0:0,0:0:0:0:
216,240,20402,1,8,0:0:0:0:
276,108,20564,1,0,0:0:0:0:
276,108,20646,1,0,0:0:0:0:
276,108,20727,1,0,0:0:0:0:
152,172,20889,1,8,0:0:0:0:
368,244,21051,1,0,0:0:0:0:
124,324,21213,1,8,0:0:0:0:
384,360,21375,6,0,L|396:252,1,90,6|8,0:0|0:0,0:0:0:0:
275,107,21700,2,0,L|285:197,1,90,0|8,0:0|0:0,0:0:0:0:
285,197,21943,1,0,0:0:0:0:
285,197,22024,1,0,0:0:0:0:
160,72,22186,1,8,0:0:0:0:
104,244,22348,1,0,0:0:0:0:
388,212,22510,6,0,P|386:151|365:77,1,135,4|0,0:0|0:0,0:0:0:0:
240,28,22835,2,4,P|200:72|200:148,1,135
220,248,23159,5,8,0:0:0:0:
220,248,23240,1,0,0:0:0:0:
220,248,23321,2,0,P|276:240|320:228,1,90,0|8,0:0|0:0,0:0:0:0:
456,268,23646,1,0,0:0:0:0:
300,136,23808,1,8,0:0:0:0:
288,352,23970,6,0,P|232:360|188:372,1,90,4|8,0:0|0:0,0:0:0:0:
124,220,24294,1,0,0:0:0:0:
316,272,24456,1,8,0:0:0:0:
316,272,24537,1,0,0:0:0:0:
316,272,24618,1,0,0:0:0:0:
228,88,24781,1,8,0:0:0:0:
392,224,24943,1,0,0:0:0:0:
424,12,25105,6,0,P|412:64|396:160,1,135,4|0,0:0|0:0,0:0:0:0:
448,297,25429,2,0,P|396:285|300:269,1,135,4|0,0:0|0:0,0:0:0:0:
200,312,25754,6,0,P|208:268|224:232,1,45,8|0,0:0|0:0,0:0:0:0:
228,172,25916,2,0,P|280:160|324:144,1,90,0|8,0:0|0:0,0:0:0:0:
112,56,26240,6,0,L|48:72,1,45
16,176,26402,2,0,L|80:160,1,45
144,208,26564,6,0,P|132:276|124:312,1,90,4|8,0:0|0:0,0:0:0:0:
228,172,26889,1,0,0:0:0:0:
288,316,27051,1,8,0:0:0:0:
288,316,27132,1,0,0:0:0:0:
288,316,27213,1,0,0:0:0:0:
288,108,27375,1,8,0:0:0:0:
448,208,27537,1,0,0:0:0:0:
344,16,27700,6,0,P|296:32|204:48,1,135,4|0,0:0|0:0,0:0:0:0:
132,88,28024,2,0,P|198:99|262:119,1,135,4|0,0:0|0:0,0:0:0:0:
332,176,28348,1,8,0:0:0:0:
332,176,28429,1,0,0:0:0:0:
332,176,28510,2,0,P|312:244|304:280,1,90,0|8,0:0|0:0,0:0:0:0:
416,344,28835,1,0,0:0:0:0:
216,220,28997,1,8,0:0:0:0:
424,128,29159,5,4,0:0:0:0:
120,192,29808,1,4,0:0:0:0:
424,256,30294,5,4,0:0:0:0:
204,192,30618,1,4,0:0:0:0:
424,128,30943,1,4,0:0:0:0:
232,296,31105,6,0,P|184:292|116:264,1,90,4|0,0:0|2:0,0:0:0:0:
144,104,31429,2,0,P|187:91|232:88,1,90,0|0,0:0|2:0,0:0:0:0:
344,192,31754,5,4,1:0:0:0:
316,324,32078,1,0,0:0:0:0:
188,284,32402,2,0,P|152:272|68:312,1,135.000005149842,8|0,0:0|0:0,0:0:0:0:
24,236,32889,1,0,0:0:0:0:
24,236,32970,1,0,0:0:0:0:
24,236,33051,2,0,P|32:192|44:160,1,67.5000025749208
92,56,33375,2,0,P|104:116|144:180,2,135.000005149842,2|8|0,0:0|0:0|0:0,0:0:0:0:
256,120,34348,5,0,0:0:0:0:
164,184,34673,1,2,0:0:0:0:
312,216,34997,1,8,0:0:0:0:
176,300,35321,5,0,0:0:0:0:
320,360,35483,1,0,0:0:0:0:
320,360,35564,1,0,0:0:0:0:
320,360,35646,6,0,B|332:288|332:288|300:304,1,90,4|0,0:0|0:0,0:0:0:0:
88,260,35970,2,0,B|76:332|76:332|108:316,1,90,4|0,0:0|0:0,0:0:0:0:
392,184,36294,1,0,1:0:0:0:
368,148,36375,1,0,1:0:0:0:
324,132,36456,1,0,1:0:0:0:
280,136,36537,1,0,1:0:0:0:
244,164,36618,1,0,1:0:0:0:
200,172,36700,1,0,1:0:0:0:
160,152,36781,6,0,P|136:104|216:-4,1,180,4|0,1:0|0:0,0:0:0:0:
352,52,37267,1,8,0:0:0:0:
312,216,37429,1,0,0:0:0:0:
224,88,37591,1,2,0:0:0:0:
392,152,37754,1,0,0:0:0:0:
228,248,37916,1,8,0:0:0:0:
408,296,38078,6,0,P|440:248|412:128,1,180,4|0,0:0|0:0,0:0:0:0:
244,164,38564,1,8,0:0:0:0:
392,112,38727,1,0,0:0:0:0:
200,72,38889,1,2,0:0:0:0:
328,204,39051,1,0,0:0:0:0:
140,268,39213,1,8,0:0:0:0:
288,40,39375,6,0,P|272:100|248:232,1,180,4|0,0:0|0:0,0:0:0:0:
336,332,39862,1,8,0:0:0:0:
344,240,40024,1,0,0:0:0:0:
416,292,40186,1,2,0:0:0:0:
264,368,40348,1,0,0:0:0:0:
456,216,40510,1,8,0:0:0:0:
176,344,40673,1,4,0:0:0:0:
212,156,41646,5,0,0:0:0:0:
148,96,41808,2,0,P|136:52|148:4,1,72,0|0,1:0|0:0,0:0:0:0:
300,184,42132,6,0,P|232:176|156:260,2,161.999995056153,4|8|0,0:0|0:0|0:0,0:0:0:0:
384,232,42943,1,0,0:0:0:0:
448,160,43105,2,0,P|456:120|448:68,2,80.9999975280763,8|2|0,0:0|0:0|0:0,0:0:0:0:
264,96,43591,6,0,P|304:91|343:99,1,80.9999975280763,0|8,0:0|0:0,0:0:0:0:
148,128,43916,2,0,P|143:87|151:48,1,80.9999975280763,2|0,0:0|0:0,0:0:0:0:
236,216,44240,1,0,0:0:0:0:
124,252,44402,2,0,P|84:264|36:284,1,80.9999975280763,8|0,0:0|0:0,0:0:0:0:
224,336,44727,6,0,P|288:304|400:336,2,161.999995056153,0|8|2,0:0|0:0|0:0,0:0:0:0:
208,144,45537,1,0,0:0:0:0:
288,280,45700,1,8,0:0:0:0:
120,356,45862,2,0,P|109:306|107:250,1,80.9999975280763
304,200,46186,2,0,P|314:150|316:94,1,80.9999975280763,0|8,0:0|0:0,0:0:0:0:
192,28,46510,1,0,0:0:0:0:
56,212,46673,5,0,1:0:0:0:
60,224,46754,1,0,1:0:0:0:
64,236,46835,1,0,1:0:0:0:
68,248,46916,1,0,1:0:0:0:
72,260,46997,1,0,1:0:0:0:
76,272,47078,1,0,1:0:0:0:
80,284,47159,6,0,P|124:264|240:324,1,180,4|0,0:0|0:0,0:0:0:0:
180,152,47646,1,8,0:0:0:0:
336,328,47808,1,0,0:0:0:0:
288,128,47970,1,2,0:0:0:0:
232,344,48132,1,0,0:0:0:0:
108,120,48294,1,8,0:0:0:0:
360,244,48456,6,0,P|392:204|372:72,1,180,4|0,0:0|0:0,0:0:0:0:
168,64,48943,1,8,0:0:0:0:
288,152,49105,1,0,0:0:0:0:
96,196,49267,1,2,0:0:0:0:
304,148,49429,1,0,0:0:0:0:
68,92,49591,1,8,0:0:0:0:
276,256,49754,6,0,P|212:272|92:312,1,180,4|0,0:0|0:0,0:0:0:0:
152,124,50240,1,8,0:0:0:0:
264,232,50402,1,0,0:0:0:0:
88,288,50564,1,2,0:0:0:0:
220,164,50727,1,0,0:0:0:0:
292,376,50889,1,8,0:0:0:0:
120,208,51051,5,4,0:0:0:0:
416,176,51375,1,4,0:0:0:0:
160,336,51537,1,0,1:0:0:0:
132,312,51618,1,0,1:0:0:0:
116,280,51700,1,0,1:0:0:0:
112,244,51781,1,0,1:0:0:0:
120,208,51862,5,8,1:0:0:0:
340,68,52024,1,8,0:3:0:0:
156,112,52186,1,8,0:0:0:0:
352,240,52348,1,8,0:3:0:0:
136,96,52510,6,0,P|140:44|152:0,1,90,4|0,0:0|0:0,0:0:0:0:
272,184,52835,2,0,P|268:236|256:280,1,90,0|0,1:0|0:0,0:0:0:0:
84,236,53159,2,0,P|128:222|172:222,1,90,0|0,1:0|0:0,0:0:0:0:
368,332,53483,2,0,P|408:312|437:276,1,90,0|0,1:0|0:0,0:0:0:0:
328,64,53808,5,0,1:0:0:0:
352,240,53970,1,0,0:0:0:0:
496,172,54132,2,0,B|456:152|456:152|396:160,1,90,0|0,1:0|0:0,0:0:0:0:
187,169,54456,2,0,B|227:189|227:189|287:181,1,90,0|0,1:0|0:0,0:0:0:0:
411,157,54781,1,0,1:0:0:0:
272,272,54943,1,0,0:0:0:0:
448,348,55105,6,0,P|460:300|464:256,1,90,0|0,1:0|0:0,0:0:0:0:
312,128,55429,2,0,P|316:172|327:216,1,90,0|0,1:0|0:0,0:0:0:0:
232,348,55754,1,0,1:0:0:0:
327,216,55916,1,0,0:0:0:0:
152,156,56078,1,0,1:0:0:0:
352,224,56240,1,0,0:0:0:0:
116,284,56402,6,0,P|64:296|16:320,1,80.9999975280763,4|0,1:0|0:0,0:0:0:0:
212,88,56727,2,0,P|234:129|226:209,1,107.999996704102,4|0,1:0|0:0,0:0:0:0:
7,217,57051,2,0,P|47:153|163:165,1,188.999994232178,4|0,1:0|0:0,0:0:0:0:
216,276,57375,2,0,L|352:252,1,125.999996154785,0|0,1:0|0:0,0:0:0:0:
480,228,57700,6,0,P|480:180|452:128,1,90,4|0,1:2|0:0,0:0:0:0:
323,168,58024,2,0,P|323:216|351:268,1,90,0|0,1:0|0:0,0:0:0:0:
464,364,58348,2,0,P|404:348|356:344,1,90,0|0,1:0|0:0,0:0:0:0:
196,363,58673,2,0,P|202:318|215:275,1,90,0|0,1:0|0:0,0:0:0:0:
272,96,58997,5,0,1:0:0:0:
339,253,59159,1,0,0:0:0:0:
264,72,59321,1,0,1:0:0:0:
192,236,59483,1,0,0:0:0:0:
352,148,59646,1,0,1:0:0:0:
168,248,59808,1,0,0:0:0:0:
412,296,59970,1,0,1:0:0:0:
184,136,60132,1,0,0:0:0:0:
184,136,60213,1,0,0:0:0:0:
184,136,60294,6,0,P|176:80|264:0,1,180,4|8,0:0|0:0,0:0:0:0:
432,200,60781,1,0,0:0:0:0:
432,200,60862,1,0,0:0:0:0:
432,200,60943,2,0,P|448:152|440:104,1,90
268,264,61267,2,0,P|290:260|312:259,1,45,10|0,0:0|0:0,0:0:0:0:
428,304,61429,1,0,0:0:0:0:
184,324,61591,6,0,P|168:276|176:228,1,90
324,96,61916,1,8,0:0:0:0:
349,301,62078,1,0,0:0:0:0:
349,301,62159,1,0,0:0:0:0:
349,301,62240,2,0,P|312:270|280:229,1,90
304,56,62564,2,0,P|296:104|276:151,1,90,8|0,0:0|0:0,0:0:0:0:
112,220,62889,5,4,1:0:0:0:
296,160,63051,1,0,0:0:0:0:
136,96,63213,1,0,0:0:0:0:
204,320,63375,5,4,1:0:0:0:
332,164,63537,1,0,0:0:0:0:
104,248,63700,1,0,0:0:0:0:
328,364,63862,6,0,P|335:334|340:300,1,45,0|0,1:0|1:0,0:0:0:0:
224,88,64024,2,0,P|216:117|212:152,1,45,0|0,1:0|1:0,0:0:0:0:
340,240,64186,6,0,P|400:232|460:228,1,108,4|0,0:0|0:0,0:0:0:0:
480,268,64510,6,2,P|399:261|318:250,1,135,2|2,0:1|0:1,0:1:0:0:
228,308,64835,6,2,P|196:264|220:152,1,161.999995056153,2|0,0:1|0:1,0:1:0:0:
312,48,65159,6,2,B|336:103|336:103|296:227,1,188.999994232178,2|2,0:1|0:0,0:1:0:0:
120,296,65483,6,0,P|112:248|108:188,1,90,4|8,0:0|0:0,0:0:0:0:
184,80,65808,1,0,0:0:0:0:
224,192,65970,1,8,0:0:0:0:
224,192,66051,1,0,0:0:0:0:
224,192,66132,1,0,0:0:0:0:
112,172,66294,1,8,0:0:0:0:
304,100,66456,1,0,0:0:0:0:
120,296,66618,1,8,0:0:0:0:
332,368,66781,5,0,0:0:0:0:
352,200,66943,1,8,0:0:0:0:
320,352,67105,1,0,0:0:0:0:
248,168,67267,1,8,0:0:0:0:
248,168,67348,1,0,0:0:0:0:
248,168,67429,1,0,0:0:0:0:
388,280,67591,1,8,0:0:0:0:
184,352,67754,2,0,L|76:336,1,90,0|8,0:0|0:0,0:0:0:0:
264,192,68078,5,0,0:0:0:0:
304,336,68240,1,8,0:0:0:0:
168,216,68402,1,0,0:0:0:0:
316,112,68564,1,8,0:0:0:0:
316,112,68646,1,0,0:0:0:0:
316,112,68727,2,0,P|328:60|324:4,1,90,0|8,0:0|0:0,0:0:0:0:
156,127,69051,2,0,P|156:171|167:215,1,90,0|8,0:0|0:0,0:0:0:0:
388,280,69375,6,0,P|344:291|299:291,1,90,0|8,0:0|0:0,0:0:0:0:
84,240,69700,1,0,0:0:0:0:
328,188,69862,1,8,0:0:0:0:
328,188,69943,1,0,0:0:0:0:
328,188,70024,1,0,0:0:0:0:
148,336,70186,1,8,0:0:0:0:
180,88,70348,1,4,0:0:0:0:
272,268,70510,1,8,0:0:0:0:
84,144,70673,5,4,0:0:0:0:
268,56,70835,1,0,0:0:0:0:
268,56,70916,1,0,0:0:0:0:
268,56,70997,1,0,0:0:0:0:
272,268,71159,2,0,P|344:284|428:180,1,180,4|0,0:0|0:0,0:0:0:0:
320,8,71646,6,0,P|308:60|328:132,1,107.999996704102,2|0,0:0|0:0,0:0:0:0:
421,221,71970,5,4,0:0:0:0:
468,80,72132,1,0,0:0:0:0:
468,80,72213,1,0,0:0:0:0:
468,80,72294,1,0,0:0:0:0:
296,224,72456,2,0,P|252:236|140:152,1,180,4|0,0:0|0:0,0:0:0:0:
308,360,72943,6,0,L|428:336,1,107.999996704102,2|0,0:0|0:0,0:0:0:0:
460,232,73267,5,4,0:0:0:0:
316,192,73429,1,8,0:0:0:0:
460,148,73591,1,0,0:0:0:0:
316,108,73753,1,8,0:0:0:0:
316,108,73835,1,0,0:0:0:0:
316,108,73916,1,0,0:0:0:0:
192,212,74078,1,8,0:0:0:0:
384,152,74240,1,0,0:0:0:0:
252,52,74402,1,8,0:0:0:0:
164,300,74564,6,0,P|208:304|264:268,1,90,4|8,0:0|0:0,0:0:0:0:
469,176,74889,2,0,P|424:170|383:151,1,90,4|8,0:0|0:0,0:0:0:0:
112,56,75213,2,0,L|124:112,1,45
192,212,75375,2,0,L|201:167,1,45
268,100,75537,2,0,P|292:120|316:136,1,45
352,224,75700,2,0,P|369:209|387:196,1,45
436,72,75862,5,4,0:0:0:0:
476,268,76024,1,8,0:0:0:0:
340,140,76186,1,0,0:0:0:0:
296,304,76348,1,8,0:0:0:0:
296,304,76429,1,0,0:0:0:0:
296,304,76510,1,0,0:0:0:0:
172,140,76673,1,8,0:0:0:0:
36,268,76835,1,0,0:0:0:0:
76,72,76997,1,8,0:0:0:0:
216,303,77159,6,0,P|224:264|228:208,1,90,0|8,0:0|0:0,0:0:0:0:
76,160,77483,1,0,0:0:0:0:
120,336,77646,1,8,0:0:0:0:
120,336,77727,1,0,0:0:0:0:
120,336,77808,1,0,0:0:0:0:
296,304,77970,1,8,0:0:0:0:
108,352,78132,1,0,0:0:0:0:
308,316,78294,1,8,0:0:0:0:
176,152,78456,6,0,P|172:112|196:60,1,90,0|8,0:0|0:0,0:0:0:0:
396,96,78781,2,0,P|363:119|306:124,1,90,0|8,0:0|0:0,0:0:0:0:
314,126,79024,1,0,0:0:0:0:
314,126,79105,1,0,0:0:0:0:
448,216,79267,1,8,0:0:0:0:
224,268,79429,1,0,0:0:0:0:
440,352,79591,1,0,0:0:0:0:
320,156,79754,5,0,0:0:0:0:
352,328,79916,1,8,0:0:0:0:
240,188,80078,1,0,0:0:0:0:
180,352,80240,1,8,0:0:0:0:
180,352,80321,1,0,0:0:0:0:
180,352,80402,2,0,P|128:368|76:360,1,90,0|8,0:0|0:0,0:0:0:0:
8,180,80727,1,0,0:0:0:0:
36,144,80808,1,0,0:0:0:0:
80,128,80889,1,0,0:0:0:0:
124,132,80970,1,0,0:0:0:0:
164,152,81051,5,4,0:0:0:0:
312,244,81213,1,0,0:0:0:0:
312,244,81294,1,0,0:0:0:0:
312,244,81375,1,0,0:0:0:0:
219,13,81537,2,0,P|211:65|243:193,1,180,4|0,0:0|0:0,0:0:0:0:
420,320,82024,6,0,P|436:268|432:196,1,107.999996704102,2|0,0:0|0:0,0:0:0:0:
336,92,82348,5,4,0:0:0:0:
196,252,82510,1,0,0:0:0:0:
196,252,82591,1,0,0:0:0:0:
196,252,82673,1,0,0:0:0:0:
424,352,82835,2,0,P|368:328|236:320,1,180,4|0,0:0|0:0,0:0:0:0:
76,200,83321,6,0,P|124:192|188:164,1,107.999996704102,2|0,0:0|0:0,0:0:0:0:
312,16,83646,6,0,P|290:65|281:118,1,90,4|8,0:0|0:0,0:0:0:0:
308,248,83970,1,0,0:0:0:0:
456,144,84132,2,0,L|392:160,1,45,8|0,0:0|0:0,0:0:0:0:
240,196,84294,1,0,0:0:0:0:
428,264,84456,1,8,0:0:0:0:
392,72,84618,1,0,0:0:0:0:
240,196,84781,1,8,0:0:0:0:
296,104,84943,5,0,0:0:0:0:
328,272,85105,1,12,0:0:0:0:
148,208,85267,1,0,0:0:0:0:
232,36,85429,1,8,0:0:0:0:
232,36,85510,1,0,0:0:0:0:
232,36,85591,5,8,0:3:0:0:
328,272,85754,1,8,0:3:0:0:
148,208,85916,1,4,0:3:0:0:
456,144,86078,1,4,0:3:0:0:
192,188,86240,6,0,P|184:132|244:56,1,144,4|0,0:0|0:0,0:0:0:0:
364,104,86727,1,0,0:0:0:0:
364,104,86889,2,0,P|372:160|312:236,1,144,8|0,0:0|0:0,0:0:0:0:
224,324,87375,2,0,P|200:276|192:184,1,144,8|8,0:0|0:0,0:0:0:0:
328,272,87862,2,0,P|298:316|222:369,2,144,0|8|0,0:0|0:0|0:0,0:0:0:0:
328,272,88673,1,0,0:0:0:0:
232,180,88835,6,0,P|276:188|360:128,1,144,4|8,0:0|0:0,0:0:0:0:
456,200,89321,1,0,0:0:0:0:
395,290,89483,2,0,P|363:274|315:274,1,72,8|0,0:0|0:0,0:0:0:0:
252,312,89808,2,0,P|219:327|184:330,1,72,8|0,0:0|0:0,0:0:0:0:
100,316,90132,5,0,0:0:0:0:
156,248,90294,1,8,0:0:0:0:
128,168,90456,1,0,0:0:0:0:
345,65,90781,6,0,L|357:141,1,72,4|0,0:0|0:0,0:0:0:0:
167,319,91105,2,0,L|155:243,1,72,4|0,0:0|0:0,0:0:0:0:
376,248,91429,5,4,0:0:0:0:
220,144,91591,1,0,0:0:0:0:
220,144,91673,1,0,0:0:0:0:
220,144,91754,1,0,0:0:0:0:
440,332,91916,2,0,P|472:292|452:168,1,180,4|0,0:0|0:0,0:0:0:0:
284,40,92402,6,0,P|292:104|308:148,1,107.999996704102,2|0,0:0|0:0,0:0:0:0:
376,248,92727,5,4,0:0:0:0:
448,76,92889,1,0,0:0:0:0:
434,78,92970,1,0,0:0:0:0:
421,81,93051,1,0,0:0:0:0:
232,244,93213,2,0,P|200:220|64:224,1,180,4|0,0:0|0:0,0:0:0:0:
164,24,93700,6,0,P|188:76|180:136,1,107.999996704102,2|0,0:0|0:0,0:0:0:0:
136,344,94024,5,4,0:0:0:0:
96,220,94186,1,8,0:0:0:0:
236,328,94348,1,0,0:0:0:0:
240,192,94510,1,8,0:0:0:0:
240,192,94591,1,0,0:0:0:0:
240,192,94673,1,0,0:0:0:0:
336,352,94835,1,8,0:0:0:0:
384,212,94997,1,0,0:0:0:0:
472,320,95159,1,8,0:0:0:0:
472,320,95240,1,0,0:0:0:0:
472,320,95321,5,4,0:0:0:0:
376,176,95483,1,8,0:0:0:0:
312,360,95646,1,4,0:0:0:0:
336,108,95808,1,8,0:0:0:0:
200,212,95970,5,0,0:0:0:0:
176,216,96051,1,0,0:0:0:0:
144,220,96132,1,0,0:0:0:0:
116,184,96213,1,0,0:0:0:0:
120,140,96294,1,0,0:0:0:0:
152,108,96375,1,0,0:0:0:0:
196,96,96456,1,0,0:0:0:0:
236,112,96537,1,0,0:0:0:0:
264,148,96618,6,0,P|284:204|284:248,1,90,4|8,0:0|0:0,0:0:0:0:
160,344,96943,1,0,0:0:0:0:
368,260,97105,1,8,0:0:0:0:
368,260,97186,1,0,0:0:0:0:
368,260,97267,1,0,0:0:0:0:
144,220,97429,1,8,0:0:0:0:
328,380,97591,1,0,0:0:0:0:
348,80,97754,5,4,0:0:0:0:
348,80,98078,1,2,0:0:0:0:
280,152,98240,1,0,0:0:0:0:
376,176,98402,1,2,0:0:0:0:
192,128,98564,5,0,0:0:0:0:
464,204,98727,1,2,0:0:0:0:
256,320,98889,1,4,0:2:0:0:
208,36,99051,1,2,0:0:0:0:
464,204,99213,6,0,P|456:256|452:312,1,90,4|8,0:0|0:0,0:0:0:0:
340,356,99537,2,0,P|335:311|328:266,1,90,0|8,0:0|0:0,0:0:0:0:
328,266,99781,1,0,0:0:0:0:
328,266,99862,1,0,0:0:0:0:
168,328,100024,1,8,0:0:0:0:
200,180,100186,1,0,0:0:0:0:
328,266,100348,5,8,0:0:0:0:
296,104,100510,1,0,0:0:0:0:
136,260,100673,2,0,P|184:252|240:248,1,90,8|0,0:0|0:0,0:0:0:0:
424,188,100997,1,8,0:0:0:0:
424,188,101078,1,0,0:0:0:0:
424,188,101159,2,0,P|379:184|334:176,1,90,0|8,0:0|0:0,0:0:0:0:
212,96,101483,1,0,0:0:0:0:
360,36,101646,1,8,0:0:0:0:
424,188,101808,6,0,B|448:252|424:316|424:316|400:296|400:264,1,180,4|0,0:0|0:0,0:0:0:0:
276,204,102294,1,8,0:0:0:0:
276,204,102375,1,0,0:0:0:0:
276,204,102456,2,0,P|256:260|268:308,1,90,0|8,0:0|0:0,0:0:0:0:
400,274,102781,1,0,0:0:0:0:
172,220,102943,5,8,0:0:0:0:
384,300,103105,1,0,0:0:0:0:
144,336,103267,1,8,0:0:0:0:
304,192,103429,1,0,0:0:0:0:
112,144,103591,1,8,0:0:0:0:
112,144,103673,1,0,0:0:0:0:
112,144,103754,2,0,B|96:100|96:100|108:40,1,90,0|8,0:0|0:0,0:0:0:0:
296,105,104078,2,0,B|312:149|312:149|300:209,1,90,0|8,0:0|0:0,0:0:0:0:
144,304,104402,6,0,L|40:296,1,90,4|8,0:0|0:0,0:0:0:0:
216,200,104727,1,0,0:0:0:0:
284,352,104889,1,8,0:0:0:0:
284,352,104970,1,0,0:0:0:0:
284,352,105051,1,0,0:0:0:0:
396,260,105213,1,8,0:0:0:0:
220,216,105375,1,0,0:0:0:0:
408,276,105537,6,0,P|428:232|432:176,1,90,8|0,0:0|0:0,0:0:0:0:
232,100,105862,2,0,P|276:94|317:74,1,90,8|0,0:0|0:0,0:0:0:0:
120,44,106186,1,8,0:0:0:0:
120,44,106267,1,0,0:0:0:0:
120,44,106348,2,0,P|104:96|120:156,1,90,0|8,0:0|0:0,0:0:0:0:
220,216,106673,2,0,L|316:200,1,90,4|8,0:0|0:0,0:0:0:0:
432,176,106997,5,4,0:0:0:0:
288,116,107159,1,8,0:0:0:0:
332,296,107321,1,0,0:0:0:0:
384,60,107483,1,8,0:0:0:0:
384,60,107564,1,0,0:0:0:0:
384,60,107646,2,0,L|376:112,1,45
332,296,107808,2,0,L|325:251,1,45
216,144,107970,1,0,0:0:0:0:
140,260,108132,6,0,P|100:224|84:100,1,180,4|0,0:0|0:0,0:0:0:0:
296,24,108618,1,12,0:0:0:0:
216,144,108781,1,0,0:0:0:0:
252,172,108862,1,0,0:0:0:0:
268,212,108943,1,0,0:0:0:0:
268,256,109024,1,0,0:0:0:0:
256,300,109105,1,0,0:0:0:0:
268,344,109186,1,0,0:0:0:0:
304,372,109267,6,0,P|356:372|404:360,1,90,8|0,0:0|0:0,0:0:0:0:
464,328,109510,1,0,0:0:0:0:
464,328,109591,1,4,0:0:0:0:
324,56,114781,6,0,P|360:96|352:184,1,135.000005149842
188,328,115429,2,0,P|152:288|160:200,1,135.000005149842,8|0,0:0|0:0,0:0:0:0:
212,156,115916,1,0,0:0:0:0:
212,156,115997,1,8,0:0:0:0:
212,156,116078,2,0,P|244:150|288:136,2,67.5000025749208,0|0|2,0:0|0:0|0:0,0:0:0:0:
64,220,116727,2,0,P|80:260|96:364,1,135.000005149842,8|0,0:0|0:0,0:0:0:0:
224,252,117375,5,0,0:0:0:0:
312,356,117700,1,2,0:0:0:0:
224,252,118024,1,8,0:0:0:0:
328,168,118348,1,0,0:0:0:0:
416,268,118510,1,0,0:0:0:0:
416,268,118591,1,0,0:0:0:0:
416,268,118673,6,0,B|424:200|424:200|384:228,1,90,4|0,0:0|0:0,0:0:0:0:
224,252,118997,2,0,B|206:264|206:264|214:196,1,90,4|0,0:0|0:0,0:0:0:0:
380,24,119321,1,0,1:0:0:0:
412,56,119402,1,0,1:0:0:0:
428,100,119483,1,0,1:0:0:0:
424,144,119564,1,0,1:0:0:0:
400,184,119646,1,0,1:0:0:0:
392,228,119727,1,0,1:0:0:0:
416,268,119808,5,4,1:0:0:0:
164,176,120132,1,0,0:0:0:0:
264,216,120294,1,8,0:0:0:0:
108,272,120456,1,0,0:0:0:0:
288,208,120618,5,2,0:0:0:0:
152,144,120781,1,0,0:0:0:0:
192,324,120943,1,8,0:0:0:0:
316,200,121105,1,4,0:0:0:0:
104,40,121429,5,0,0:0:0:0:
152,144,121591,1,8,0:0:0:0:
220,56,121754,1,0,0:0:0:0:
96,68,121916,5,2,0:0:0:0:
180,168,122078,1,0,0:0:0:0:
44,224,122240,1,8,0:0:0:0:
276,136,122402,1,4,0:0:0:0:
360,348,122727,5,0,0:0:0:0:
340,236,122889,1,8,0:0:0:0:
440,280,123051,1,0,0:0:0:0:
252,308,123213,5,2,0:0:0:0:
276,136,123375,1,0,0:0:0:0:
340,236,123537,1,8,0:0:0:0:
128,208,123700,1,4,0:0:0:0:
424,96,124673,5,0,0:0:0:0:
424,96,124835,2,0,P|384:112|336:108,1,72,0|0,1:0|0:0,0:0:0:0:
252,32,125159,6,0,P|268:68|220:188,2,161.999995056153,4|8|0,0:0|0:0|0:0,0:0:0:0:
136,84,125970,1,0,0:0:0:0:
276,152,126132,1,8,0:0:0:0:
160,248,126294,6,0,P|136:292|132:360,1,80.9999975280763
296,384,126618,2,0,P|291:348|268:304,1,80.9999975280763,0|8,0:0|0:0,0:0:0:0:
396,112,126943,2,0,P|360:176|368:264,1,161.999995056153
440,336,127429,1,8,0:0:0:0:
496,208,127591,1,0,0:0:0:0:
328,52,127754,6,0,P|284:60|156:72,2,161.999995056153,0|8|0,0:0|0:0|0:0,0:0:0:0:
452,92,128564,1,0,0:0:0:0:
272,136,128727,1,8,0:0:0:0:
460,192,128889,6,0,P|412:212|360:204,1,80.9999975280763
250,211,129213,2,0,P|256:159|289:118,1,80.9999975280763,0|8,0:0|0:0,0:0:0:0:
344,12,129537,2,0,P|385:43|404:92,1,80.9999975280763,0|0,0:0|1:0,0:0:0:0:
404,108,129781,1,0,1:0:0:0:
388,144,129862,1,0,1:0:0:0:
376,184,129943,1,0,1:0:0:0:
380,224,130024,1,0,1:0:0:0:
404,256,130105,1,0,1:0:0:0:
444,276,130186,6,0,P|376:264|248:252,1,180,4|0,0:0|0:0,0:0:0:0:
160,308,130673,1,8,0:0:0:0:
280,224,130835,1,0,0:0:0:0:
232,376,130997,1,2,0:0:0:0:
176,152,131159,1,0,0:0:0:0:
324,296,131321,1,8,0:0:0:0:
96,372,131483,6,0,P|68:316|128:220,1,180,4|0,0:0|0:0,0:0:0:0:
344,160,131970,1,8,0:0:0:0:
160,308,132132,1,0,0:0:0:0:
328,336,132294,1,2,0:0:0:0:
200,232,132456,1,0,0:0:0:0:
376,160,132618,1,8,0:0:0:0:
240,32,132781,6,0,P|256:96|272:228,1,180,4|0,0:0|0:0,0:0:0:0:
368,128,133267,1,8,0:0:0:0:
324,296,133429,1,0,0:0:0:0:
452,244,133591,1,2,0:0:0:0:
332,376,133754,1,0,0:0:0:0:
268,172,133916,1,8,0:0:0:0:
396,332,134078,5,4,0:0:0:0:
200,356,134240,1,0,0:0:0:0:
396,248,134402,1,4,0:0:0:0:
184,168,134564,1,8,0:0:0:0:
376,84,134727,1,0,0:0:0:0:
376,84,134808,1,0,0:0:0:0:
376,84,134889,5,8,0:0:0:0:
316,272,135051,1,8,0:3:0:0:
184,144,135213,1,8,0:0:0:0:
120,316,135375,1,8,0:3:0:0:
24,132,135537,6,0,P|16:80|120:4,1,180,4|0,0:0|1:0,0:0:0:0:
272,148,136024,1,0,0:0:0:0:
272,148,136105,1,0,0:0:0:0:
272,148,136186,2,0,P|284:104|280:44,1,90,0|0,1:0|0:0,0:0:0:0:
108,92,136510,2,0,P|96:136|100:196,1,90,0|0,1:0|0:0,0:0:0:0:
348,200,136835,6,0,P|360:156|356:96,1,90,0|0,1:0|0:0,0:0:0:0:
184,144,137159,2,0,P|172:188|176:248,1,90,0|0,1:0|0:0,0:0:0:0:
400,336,137483,1,0,1:0:0:0:
348,200,137646,1,0,0:0:0:0:
208,308,137808,1,0,1:0:0:0:
372,332,137970,1,0,0:0:0:0:
332,168,138132,5,0,1:0:0:0:
288,288,138294,1,0,0:0:0:0:
492,160,138456,2,0,P|444:140|400:116,1,90,0|0,1:0|0:0,0:0:0:0:
220,136,138781,1,0,1:0:0:0:
368,36,138943,1,0,0:0:0:0:
348,200,139105,1,0,1:0:0:0:
184,112,139267,1,0,0:0:0:0:
273,366,139429,6,0,P|289:310|281:262,1,80.9999975280763,4|0,1:0|0:0,0:0:0:0:
80,188,139754,2,0,P|76:248|102:305,1,107.999996704102,4|0,1:0|0:0,0:0:0:0:
436,176,140078,2,0,P|408:136|272:140,1,188.999994232178,4|0,1:0|0:0,0:0:0:0:
192,188,140402,2,0,L|216:328,1,125.999996154785,4|0,1:0|0:0,0:0:0:0:
360,364,140727,6,0,P|368:312|380:264,1,90,4|0,1:2|0:0,0:0:0:0:
192,188,141051,2,0,P|235:174|276:158,1,90,0|0,1:0|0:0,0:0:0:0:
504,112,141375,2,0,P|462:95|419:82,1,90,0|0,1:0|0:0,0:0:0:0:
272,48,141700,1,0,1:0:0:0:
344,216,141862,1,0,0:0:0:0:
404,116,142024,5,0,1:0:0:0:
308,292,142186,1,0,0:0:0:0:
216,152,142348,1,0,1:0:0:0:
436,244,142510,1,0,0:0:0:0:
200,344,142673,2,0,P|188:300|200:236,1,90,0|0,1:0|0:0,0:0:0:0:
312,60,142997,1,4,1:2:0:0:
328,252,143159,1,0,0:0:0:0:
320,272,143240,1,0,0:0:0:0:
308,292,143321,6,0,P|264:280|116:268,1,180,4|8,0:0|0:0,0:0:0:0:
44,172,143808,1,0,0:0:0:0:
44,172,143889,1,0,0:0:0:0:
44,172,143970,2,0,P|40:128|68:72,1,90
264,144,144294,2,0,P|224:152|184:164,1,45,10|0,0:0|0:0,0:0:0:0:
140,244,144456,1,0,0:0:0:0:
332,316,144618,5,0,0:0:0:0:
280,164,144781,1,0,0:0:0:0:
192,344,144943,2,0,B|152:356|152:356|100:348,1,90,8|0,0:0|0:0,0:0:0:0:
104,348,145186,1,0,0:0:0:0:
104,348,145267,1,0,0:0:0:0:
248,252,145429,1,0,0:0:0:0:
128,76,145591,2,0,P|136:136|152:192,1,90,12|0,0:0|0:0,0:0:0:0:
340,232,145916,5,4,1:0:0:0:
296,64,146078,1,0,0:0:0:0:
240,280,146240,1,0,0:0:0:0:
292,76,146402,5,4,1:0:0:0:
324,332,146564,1,0,0:0:0:0:
372,136,146727,1,0,0:0:0:0:
136,184,146889,6,0,L|196:192,1,45,0|0,1:0|1:0,0:0:0:0:
456,300,147051,2,0,L|396:292,1,45,0|0,1:0|1:0,0:0:0:0:
192,360,147213,5,4,0:0:0:0:
92,320,147537,1,2,0:1:0:0:
132,220,147862,1,2,0:1:0:0:
232,260,148186,1,2,0:1:0:0:
484,128,148510,6,0,P|440:112|384:116,1,90,4|8,0:0|0:0,0:0:0:0:
208,168,148835,2,0,P|252:168|294:152,1,90,0|8,0:0|0:0,0:0:0:0:
324,116,149078,1,0,0:0:0:0:
324,116,149159,2,0,L|312:216,1,90,0|8,0:0|0:0,0:0:0:0:
196,368,149483,1,0,0:0:0:0:
132,220,149646,1,8,0:0:0:0:
288,296,149808,5,0,0:0:0:0:
80,356,149970,1,8,0:0:0:0:
220,180,150132,1,0,0:0:0:0:
128,56,150294,1,8,0:0:0:0:
128,56,150375,1,0,0:0:0:0:
128,56,150456,2,0,P|136:112|152:180,1,90,0|8,0:0|0:0,0:0:0:0:
308,192,150781,1,0,0:0:0:0:
144,296,150943,1,8,0:0:0:0:
228,68,151105,5,0,0:0:0:0:
304,216,151267,1,8,0:0:0:0:
400,104,151429,1,0,0:0:0:0:
232,268,151591,1,8,0:0:0:0:
232,268,151673,1,0,0:0:0:0:
232,268,151754,1,0,0:0:0:0:
412,308,151916,1,8,0:0:0:0:
220,180,152078,1,0,0:0:0:0:
424,80,152240,1,8,0:0:0:0:
412,308,152402,6,0,P|364:324|324:320,1,90,0|8,0:0|0:0,0:0:0:0:
152,360,152727,2,0,P|144:308|128:244,1,90,0|8,0:0|0:0,0:0:0:0:
135,271,152970,1,0,0:0:0:0:
135,271,153051,1,0,0:0:0:0:
208,40,153213,2,0,P|216:88|224:124,1,45,8|0,0:0|0:0,0:0:0:0:
304,208,153375,2,0,P|348:196|420:188,1,90,4|8,0:0|0:0,0:0:0:0:
496,248,153700,5,4,0:0:0:0:
296,348,153862,1,0,0:0:0:0:
296,348,153943,1,0,0:0:0:0:
296,348,154024,1,0,0:0:0:0:
472,152,154186,2,0,P|420:164|332:76,1,180,4|0,0:0|0:0,0:0:0:0:
76,152,154673,6,0,P|128:148|204:176,1,107.999996704102,2|0,0:0|0:0,0:0:0:0:
396,284,154997,5,4,0:0:0:0:
252,108,155159,1,0,0:0:0:0:
252,108,155240,1,0,0:0:0:0:
252,108,155321,1,0,0:0:0:0:
172,344,155483,2,0,P|224:352|312:232,1,180,4|0,0:0|0:0,0:0:0:0:
275,19,155970,6,0,P|240:57|252:108,1,107.999996704102,2|0,0:0|0:0,0:0:0:0:
484,112,156294,5,0,0:0:0:0:
340,80,156456,1,8,0:0:0:0:
240,208,156618,1,0,0:0:0:0:
400,136,156781,1,8,0:0:0:0:
400,136,156862,1,0,0:0:0:0:
400,136,156943,1,0,0:0:0:0:
276,20,157105,1,8,0:0:0:0:
328,244,157267,1,0,0:0:0:0:
144,160,157429,1,0,0:0:0:0:
144,160,157510,1,0,0:0:0:0:
144,160,157591,6,0,L|128:268,1,90,4|8,0:0|0:0,0:0:0:0:
328,244,157916,2,0,L|344:352,1,90,4|8,0:0|0:0,0:0:0:0:
484,96,158240,1,0,0:0:0:0:
452,64,158321,1,0,0:0:0:0:
408,52,158402,1,0,0:0:0:0:
364,60,158483,1,0,0:0:0:0:
328,88,158564,1,0,0:0:0:0:
288,108,158646,1,0,0:0:0:0:
244,100,158727,1,0,0:0:0:0:
208,72,158808,1,0,0:0:0:0:
188,32,158889,6,0,P|144:40|92:56,1,90,4|8,0:0|0:0,0:0:0:0:
164,247,159213,2,0,P|156:203|140:151,1,90,0|8,0:0|0:0,0:0:0:0:
143,159,159456,1,0,0:0:0:0:
143,159,159537,1,0,0:0:0:0:
24,232,159700,1,8,0:0:0:0:
100,52,159862,1,0,0:0:0:0:
240,180,160024,1,0,0:0:0:0:
381,133,160186,6,0,P|341:113|237:201,1,180
356,340,160673,1,8,0:0:0:0:
356,340,160754,1,0,0:0:0:0:
356,340,160835,2,0,L|464:352,1,90,0|8,0:0|0:0,0:0:0:0:
320,192,161159,2,0,L|212:204,1,90,0|8,0:0|0:0,0:0:0:0:
108,344,161483,5,0,0:0:0:0:
296,284,161646,1,8,0:0:0:0:
200,100,161808,1,0,0:0:0:0:
136,324,161970,1,8,0:0:0:0:
136,324,162051,1,0,0:0:0:0:
136,324,162132,1,0,0:0:0:0:
320,268,162294,1,8,0:0:0:0:
104,208,162456,1,0,0:0:0:0:
316,104,162618,1,8,0:0:0:0:
104,208,162781,6,0,P|76:164|88:92,1,90,0|8,0:0|0:0,0:0:0:0:
184,44,163105,2,0,L|168:148,1,90,0|8,0:0|0:0,0:0:0:0:
170,132,163348,1,0,0:0:0:0:
170,132,163429,1,0,0:0:0:0:
340,252,163591,2,0,L|332:204,1,45,8|0,0:0|0:0,0:0:0:0:
316,104,163754,1,4,0:0:0:0:
100,320,163916,1,8,0:0:0:0:
124,332,163997,1,0,0:0:0:0:
148,344,164078,6,0,L|224:328,1,45,4|0,0:0|0:0,0:0:0:0:
316,288,164240,2,0,L|240:272,1,45
184,208,164402,1,0,0:0:0:0:
348,20,164564,2,0,P|400:60|380:168,1,180,4|0,0:0|0:0,0:0:0:0:
184,208,165051,6,0,L|196:80,1,107.999996704102,2|0,0:0|0:0,0:0:0:0:
408,176,165375,5,4,0:0:0:0:
380,352,165537,1,0,0:0:0:0:
380,352,165618,1,0,0:0:0:0:
380,352,165700,1,0,0:0:0:0:
248,240,165862,2,0,B|224:208|184:208|184:208|144:248|76:232,1,180,4|0,0:0|0:0,0:0:0:0:
87,61,166348,6,0,P|125:97|116:148,1,107.999996704102,2|0,0:0|0:0,0:0:0:0:
52,360,166673,6,0,L|172:336,1,90,4|8,0:0|0:0,0:0:0:0:
312,304,166997,1,0,0:0:0:0:
169,165,167159,2,0,L|197:245,1,45,8|0,0:0|0:0,0:0:0:0:
224,364,167321,1,0,0:0:0:0:
340,216,167483,1,8,0:0:0:0:
404,284,167646,1,0,0:0:0:0:
248,232,167808,1,8,0:0:0:0:
388,84,167970,5,0,0:0:0:0:
324,336,168132,1,12,0:0:0:0:
324,336,168294,1,4,0:0:0:0:
168,164,168456,1,8,0:0:0:0:
168,164,168537,1,0,0:0:0:0:
168,164,168618,6,0,L|120:176,1,45,8|0,0:3|0:0,0:0:0:0:
24,200,168781,2,0,L|37:152,1,45,8|0,0:3|0:0,0:0:0:0:
68,52,168943,2,0,L|102:87,1,45,4|0,0:3|0:0,0:0:0:0:
256,204,169105,2,0,P|259:175|267:155,1,45,4|0,0:3|0:0,0:0:0:0:
388,44,169267,6,0,P|432:72|436:176,1,144,4|0,0:0|0:0,0:0:0:0:
343,269,169754,1,0,0:0:0:0:
343,269,169916,2,0,L|368:128,1,144,8|0,0:0|0:0,0:0:0:0:
448,188,170402,1,8,0:0:0:0:
64,188,170727,1,8,0:0:0:0:
144,128,170889,2,0,L|168:269,1,144,0|8,0:0|0:0,0:0:0:0:
344,360,171537,1,8,0:0:0:0:
376,272,171700,1,0,0:0:0:0:
287,289,171862,6,0,P|220:300|163:237,1,144,4|0,0:0|0:0,0:0:0:0:
244,220,172348,1,0,0:0:0:0:
200,152,172510,2,0,P|267:141|324:204,1,144,8|0,0:0|0:0,0:0:0:0:
400,244,172997,2,0,P|412:200|416:164,1,72,8|0,0:0|0:0,0:0:0:0:
204,296,173321,2,0,P|209:331|219:366,2,72
356,304,173808,6,0,B|320:320|320:320|280:316,1,72,4|0,0:0|0:0,0:0:0:0:
104,144,174132,1,2,0:0:0:0:
104,144,174213,1,2,0:0:0:0:
104,144,174294,1,2,0:0:0:0:
104,144,174375,1,2,0:0:0:0:
104,144,174456,5,4,0:0:0:0:
272,72,174618,2,0,L|256:132,1,45
232,248,174781,1,0,0:0:0:0:
24,160,174943,2,0,P|32:96|152:76,1,180,4|0,0:0|0:0,0:0:0:0:
372,164,175429,6,0,L|256:152,1,107.999996704102,2|0,0:0|0:0,0:0:0:0:
116,236,175754,5,4,0:0:0:0:
328,260,175916,1,0,0:0:0:0:
328,260,175997,1,0,0:0:0:0:
328,260,176078,1,0,0:0:0:0:
200,32,176240,2,0,P|212:112|224:240,1,180,4|0,0:0|0:0,0:0:0:0:
388,364,176727,6,0,P|400:308|424:232,1,107.999996704102,2|0,0:0|0:0,0:0:0:0:
488,132,177051,5,4,0:0:0:0:
372,164,177213,1,8,0:0:0:0:
500,232,177375,1,0,0:0:0:0:
292,192,177537,1,8,0:0:0:0:
292,192,177618,1,0,0:0:0:0:
292,192,177700,1,0,0:0:0:0:
360,76,177862,1,8,0:0:0:0:
414,259,178024,1,0,0:0:0:0:
240,284,178186,2,0,P|200:276|144:252,1,90,8|4,0:0|0:0,0:0:0:0:
240,120,178510,5,8,0:0:0:0:
88,188,178673,1,4,0:0:0:0:
336,276,178835,1,8,0:0:0:0:
156,108,178997,1,0,0:0:0:0:
172,68,179078,1,0,0:0:0:0:
208,40,179159,1,0,0:0:0:0:
252,36,179240,1,0,0:0:0:0:
296,52,179321,1,0,0:0:0:0:
328,84,179402,1,0,0:0:0:0:
368,108,179483,1,0,0:0:0:0:
412,108,179564,1,0,0:0:0:0:
452,88,179646,6,0,P|440:144|432:208,1,90,4|8,0:0|0:0,0:0:0:0:
272,344,179970,2,0,P|265:299|255:255,1,90,0|8,0:0|0:0,0:0:0:0:
176,156,180294,1,0,0:0:0:0:
128,292,180456,1,8,0:0:0:0:
312,168,180618,1,0,0:0:0:0:
384,356,180781,1,4,0:0:0:0:
384,356,181105,5,2,0:0:0:0:
284,328,181267,1,0,0:0:0:0:
460,288,181429,1,2,0:0:0:0:
364,92,181591,5,0,0:0:0:0:
376,340,181754,1,2,0:0:0:0:
184,224,181916,1,4,0:2:0:0:
492,148,182078,1,2,0:0:0:0:
304,12,182240,6,0,P|272:56|272:112,1,90,4|8,0:0|0:0,0:0:0:0:
280,172,182483,1,0,0:0:0:0:
280,172,182564,2,0,L|180:160,1,90,0|8,0:0|0:0,0:0:0:0:
104,152,182808,1,0,0:0:0:0:
104,152,182889,1,0,0:0:0:0:
248,264,183051,1,8,0:0:0:0:
60,320,183213,1,0,0:0:0:0:
340,244,183375,6,0,P|384:232|484:320,1,180,8|8,0:0|0:0,0:0:0:0:
312,336,183862,1,0,0:0:0:0:
280,172,184024,1,8,0:0:0:0:
280,172,184105,1,0,0:0:0:0:
280,172,184186,1,0,0:0:0:0:
440,228,184348,1,8,0:0:0:0:
168,324,184510,1,0,0:0:0:0:
340,244,184673,1,8,0:0:0:0:
208,76,184835,5,4,0:0:0:0:
248,264,184997,1,8,0:0:0:0:
360,116,185159,1,0,0:0:0:0:
408,320,185321,1,0,0:0:0:0:
408,320,185402,1,0,0:0:0:0:
408,320,185483,1,0,0:0:0:0:
248,264,185646,2,0,P|208:264|156:296,1,90,8|0,0:0|0:0,0:0:0:0:
55,135,185970,6,0,P|107:143|215:55,1,180,12|8,0:0|0:0,0:0:0:0:
428,184,186456,1,0,0:0:0:0:
284,16,186618,1,8,0:0:0:0:
288,44,186700,1,0,0:0:0:0:
292,72,186781,1,4,0:0:0:0:
316,260,186943,1,8,0:0:0:0:
160,144,187105,1,0,0:0:0:0:
388,92,187267,1,8,0:0:0:0:
376,336,187429,6,0,P|332:344|284:356,1,90,4|8,0:0|0:0,0:0:0:0:
128,280,187754,1,0,0:0:0:0:
288,354,187916,1,8,0:0:0:0:
88,364,188078,1,0,0:0:0:0:
296,228,188240,1,8,0:0:0:0:
72,152,188402,1,0,0:0:0:0:
316,236,188564,6,0,P|348:200|332:72,1,180,8|8,0:0|0:0,0:0:0:0:
172,48,189051,1,0,0:0:0:0:
272,152,189213,1,8,0:0:0:0:
332,32,189375,1,0,0:0:0:0:
164,160,189537,1,8,0:0:0:0:
344,252,189700,1,0,0:0:0:0:
248,44,189862,1,8,0:0:0:0:
148,244,190024,6,0,B|88:288|4:248|4:248|48:224,1,180,4|0,0:0|0:0,0:0:0:0:
236,200,190510,1,8,0:0:0:0:
236,200,190591,1,0,0:0:0:0:
236,200,190673,2,0,P|248:244|236:292,1,90,0|8,0:0|0:0,0:0:0:0:
40,156,190997,2,0,P|28:112|40:64,1,90,0|8,0:0|0:0,0:0:0:0:
336,59,191321,6,0,L|224:39,1,90,0|8,0:0|0:0,0:0:0:0:
188,120,191564,1,0,0:0:0:0:
188,120,191646,2,0,L|300:140,1,90,4|8,0:0|0:0,0:0:0:0:
456,316,191970,6,0,L|344:336,1,90,0|8,0:0|0:0,0:0:0:0:
308,255,192213,1,0,0:0:0:0:
308,255,192295,2,0,L|420:235,1,90,4|8,0:0|0:0,0:0:0:0:
216,368,192618,6,0,P|176:340|36:352,1,180,4|0,0:0|0:0,0:0:0:0:
164,136,193105,1,8,0:0:0:0:
164,136,193186,1,0,0:0:0:0:
164,136,193267,1,4,0:0:0:0:
136,348,193429,1,8,0:0:0:0:
296,120,193591,1,0,0:0:0:0:
367,331,193754,1,8,0:0:0:0:
96,248,193916,5,4,0:0:0:0:
416,192,194078,1,8,0:0:0:0:
224,60,194240,1,0,0:0:0:0:
264,360,194402,1,8,0:0:0:0:
492,232,194564,6,0,L|500:184,1,45,8|8,0:0|0:0,0:0:0:0:
392,64,194727,2,0,L|384:112,1,45,8|8,0:0|0:0,0:0:0:0:
296,212,194889,1,8,0:0:0:0:
152,120,195051,1,0,0:0:0:0:
88,280,195213,6,0,L|232:304,1,135.000005149842,4|0,0:0|0:0,0:0:0:0:
424,104,195862,2,0,L|280:80,1,135.000005149842
152,120,196510,5,4,0:0:0:0:
228,176,196673,1,0,0:0:0:0:
228,176,196754,1,0,0:0:0:0:
228,176,196835,1,0,0:0:0:0:
316,140,196997,1,0,0:0:0:0:
310,239,197159,5,8,0:0:0:0:
136,212,197321,1,0,0:0:0:0:
304,116,197483,1,0,0:0:0:0:
148,16,197646,1,0,0:0:0:0:
52,184,197808,6,0,P|48:236|176:292,1,202.500007724762,4|0,0:0|0:0,0:0:0:0:
310,239,198456,2,0,B|228:176|228:176|136:212,1,202.500007724762,4|0,0:0|0:0,0:0:0:0:
204,364,199105,5,4,0:0:0:0:
336,316,199267,2,0,L|392:324,2,33.7500012874604
220,208,199591,1,0,0:0:0:0:
220,208,199673,1,0,0:0:0:0:
220,208,199754,1,0,0:0:0:0:
360,144,199916,1,0,0:0:0:0:
160,284,200078,6,0,B|108:272|108:272|68:300|68:300|24:256|40:192|108:152,1,242.999992584229
160,120,200402,5,4,0:0:0:0:
380,228,200564,1,0,0:0:0:0:
380,228,200646,1,0,0:0:0:0:
380,228,200727,1,0,0:0:0:0:
104,376,200889,2,0,P|72:336|100:192,1,180,4|0,0:0|0:0,0:0:0:0:
232,52,201375,6,0,P|256:104|240:180,1,107.999996704102,2|0,0:0|0:0,0:0:0:0:
40,108,201700,5,4,0:0:0:0:
336,36,201862,1,0,0:0:0:0:
336,36,201944,1,0,0:0:0:0:
336,36,202025,1,0,0:0:0:0:
248,328,202186,2,0,P|148:312|40:300,1,180,4|0,0:0|0:0,0:0:0:0:
376,248,202673,6,0,P|400:332|408:392,1,107.999996704102,2|0,0:0|0:0,0:0:0:0:
244,176,202997,5,0,0:0:0:0:
404,120,203159,1,8,0:0:0:0:
248,252,203321,1,0,0:0:0:0:
468,288,203483,1,8,0:0:0:0:
468,288,203564,1,0,0:0:0:0:
468,288,203646,2,0,P|452:344|444:392,1,90,0|8,0:0|0:0,0:0:0:0:
248,252,203970,2,0,P|239:207|226:164,1,90,0|8,0:0|0:0,0:0:0:0:
380,280,204294,5,4,0:0:0:0:
144,340,204456,1,8,0:0:0:0:
336,360,204618,1,0,0:0:0:0:
292,112,204781,1,8,0:0:0:0:
80,228,204943,5,0,0:0:0:0:
116,256,205024,1,0,0:0:0:0:
160,268,205105,1,0,0:0:0:0:
204,268,205186,1,0,0:0:0:0:
248,252,205267,1,0,0:0:0:0:
292,236,205348,1,0,0:0:0:0:
336,232,205429,1,0,0:0:0:0:
380,236,205510,1,0,0:0:0:0:
420,256,205591,6,0,P|428:204|460:52,1,180,4|8,0:0|0:0,0:0:0:0:
281,22,206078,1,8,0:0:0:0:
281,22,206159,1,0,0:0:0:0:
281,22,206240,2,0,P|289:82|293:150,1,90,0|8,0:0|0:0,0:0:0:0:
116,256,206564,2,0,P|163:219|220:181,1,90,0|8,0:0|0:0,0:0:0:0:
400,284,206889,6,0,P|344:260|283:230,2,90,0|8|0,0:0|0:0|0:0,0:0:0:0:
192,364,207375,1,8,0:0:0:0:
192,364,207456,1,0,0:0:0:0:
192,364,207537,1,0,0:0:0:0:
317,248,207700,1,8,0:0:0:0:
108,160,207862,1,0,0:0:0:0:
293,334,208024,1,8,0:0:0:0:
293,334,208105,1,0,0:0:0:0:
293,334,208186,6,0,P|313:278|317:238,1,90,0|8,0:0|0:0,0:0:0:0:
412,156,208510,2,0,P|396:98|376:63,1,90,0|8,0:0|0:0,0:0:0:0:
382,71,208754,1,0,0:0:0:0:
382,71,208835,1,0,0:0:0:0:
196,184,208997,1,8,0:0:0:0:
416,264,209159,1,0,0:0:0:0:
252,112,209321,1,8,0:0:0:0:
208,336,209483,5,0,0:0:0:0:
76,268,209646,1,8,0:0:0:0:
252,112,209808,1,0,0:0:0:0:
312,352,209970,1,8,0:0:0:0:
312,352,210051,1,0,0:0:0:0:
312,352,210132,1,0,0:0:0:0:
154,165,210294,2,0,L|218:193,1,45,8|0,0:0|0:0,0:0:0:0:
368,176,210456,1,0,0:0:0:0:
120,336,210618,2,0,P|164:316|200:308,1,45,8|0,0:0|0:0,0:0:0:0:
400,348,210781,5,4,0:0:0:0:
256,228,210943,1,0,0:0:0:0:
256,228,211024,1,0,0:0:0:0:
256,228,211105,1,0,0:0:0:0:
460,144,211267,2,0,P|424:96|292:112,1,180,4|0,0:0|0:0,0:0:0:0:
120,252,211754,6,0,P|168:256|240:212,1,107.999996704102,2|0,0:0|0:0,0:0:0:0:
312,68,212078,5,4,0:0:0:0:
124,16,212240,1,0,0:0:0:0:
124,16,212321,1,0,0:0:0:0:
124,16,212402,1,0,0:0:0:0:
28,208,212564,2,0,P|68:176|196:184,1,180,4|0,0:0|0:0,0:0:0:0:
368,372,213051,6,0,P|348:316|364:244,1,107.999996704102,2|0,0:0|0:0,0:0:0:0:
472,112,213375,6,0,L|376:96,1,90,4|8,0:0|0:0,0:0:0:0:
260,148,213700,1,0,0:0:0:0:
353,268,213862,1,8,0:0:0:0:
353,268,213943,1,0,0:0:0:0:
353,268,214024,1,0,0:0:0:0:
384,96,214186,1,8,0:0:0:0:
200,216,214348,1,0,0:0:0:0:
144,24,214510,1,8,0:0:0:0:
260,148,214673,5,0,0:0:0:0:
64,232,214835,1,12,0:0:0:0:
256,284,214997,1,4,0:0:0:0:
60,344,215159,1,8,0:0:0:0:
60,344,215240,1,0,0:0:0:0:
60,344,215321,6,0,L|72:280,1,45,8|0,0:3|0:0,0:0:0:0:
152,176,215483,2,0,L|160:220,1,45,8|0,0:3|0:0,0:0:0:0:
244,352,215646,2,0,L|256:288,1,45,4|0,0:3|0:0,0:0:0:0:
336,184,215808,2,0,L|344:228,1,45,4|0,0:3|0:0,0:0:0:0:
416,356,215970,6,0,P|448:312|440:216,1,144,4|0,0:0|0:0,0:0:0:0:
364,112,216456,1,0,0:0:0:0:
364,112,216618,2,0,P|316:108|260:184,1,144,8|0,0:0|0:0,0:0:0:0:
145,275,217105,6,0,L|288:256,1,144,8|8,0:0|0:0,0:0:0:0:
268,352,217591,2,0,L|125:371,2,144,8|8|0,0:0|0:0|0:0,0:0:0:0:
368,336,218402,1,0,0:0:0:0:
252,248,218564,6,0,B|260:200|260:200|248:152|248:152|260:92,1,144,4|0,0:0|0:0,0:0:0:0:
336,152,219051,1,0,0:0:0:0:
348,244,219213,2,0,P|400:232|500:220,1,144,8|0,0:0|0:0,0:0:0:0:
468,136,219700,1,8,0:0:0:0:
400,80,219862,2,0,P|408:40|424:8,2,72,0|8|0,0:0|0:0|0:0,0:0:0:0:
168,312,220510,6,0,P|148:284|148:224,1,72,4|0,0:0|0:0,0:0:0:0:
344,72,220835,2,0,P|364:100|364:160,1,72,4|0,0:0|0:0,0:0:0:0:
224,252,221159,5,4,0:0:0:0:
468,136,221321,1,0,0:0:0:0:
468,136,221402,1,0,0:0:0:0:
468,136,221483,1,0,0:0:0:0:
264,56,221646,2,0,P|200:68|80:84,1,180,4|0,0:0|0:0,0:0:0:0:
360,200,222132,6,0,P|312:180|252:168,1,107.999996704102,2|0,0:0|0:0,0:0:0:0:
400,328,222456,5,4,0:0:0:0:
257,168,222618,1,0,0:0:0:0:
257,168,222700,1,0,0:0:0:0:
257,168,222781,1,0,0:0:0:0:
472,60,222943,2,0,P|452:120|428:252,1,180,4|0,0:0|0:0,0:0:0:0:
299,15,223429,6,0,P|312:68|317:122,1,107.999996704102,2|0,0:0|0:0,0:0:0:0:
136,280,223754,6,0,P|180:252|228:256,1,90,4|8,0:0|0:0,0:0:0:0:
400,328,224078,2,0,P|353:303|333:260,1,90,4|8,0:0|0:0,0:0:0:0:
335,272,224321,1,0,0:0:0:0:
335,272,224402,1,0,0:0:0:0:
460,88,224564,1,8,0:0:0:0:
416,240,224727,1,0,0:0:0:0:
308,128,224889,1,0,0:0:0:0:
228,296,225051,5,4,0:0:0:0:
408,160,225213,1,8,0:0:0:0:
176,80,225375,1,0,0:0:0:0:
335,272,225537,1,8,0:0:0:0:
112,328,225700,5,0,0:0:0:0:
92,287,225781,1,0,0:0:0:0:
98,243,225862,1,0,0:0:0:0:
127,209,225943,1,0,0:0:0:0:
169,196,226024,1,0,0:0:0:0:
212,208,226105,1,0,0:0:0:0:
241,241,226186,1,0,0:0:0:0:
248,285,226267,1,0,0:0:0:0:
236,328,226348,6,0,L|140:320,1,90,4|8,0:0|0:0,0:0:0:0:
176,80,226673,2,0,P|192:128|196:184,1,90,0|8,0:0|0:0,0:0:0:0:
176,248,226916,1,0,0:0:0:0:
176,248,226997,1,0,0:0:0:0:
52,144,227159,1,8,0:0:0:0:
348,84,227321,1,0,0:0:0:0:
240,304,227483,5,4,0:0:0:0:
240,304,227808,1,2,0:0:0:0:
308,232,227970,1,0,0:0:0:0:
216,208,228132,1,2,0:0:0:0:
356,360,228294,1,0,0:0:0:0:
432,176,228456,1,2,0:0:0:0:
328,376,228618,1,4,0:2:0:0:
256,84,228781,1,0,0:0:0:0:
88,296,228943,5,4,0:0:0:0:
140,176,229105,1,8,0:0:0:0:
240,304,229267,1,0,0:0:0:0:
272,80,229429,5,8,0:0:0:0:
272,80,229510,1,0,0:0:0:0:
272,80,229591,1,0,0:0:0:0:
372,208,229754,1,8,0:0:0:0:
164,268,229916,1,0,0:0:0:0:
440,268,230078,6,0,P|460:220|448:164,1,90,8|0,0:0|0:0,0:0:0:0:
358,57,230402,2,0,P|286:77|238:81,1,90,8|0,0:0|0:0,0:0:0:0:
132,168,230727,1,8,0:0:0:0:
132,168,230808,1,0,0:0:0:0:
132,168,230889,1,0,0:0:0:0:
271,79,231051,1,8,0:0:0:0:
356,296,231213,2,0,P|364:240|380:180,1,90,2|8,0:0|0:0,0:0:0:0:
212,32,231537,6,0,P|228:116|232:220,1,180,4|0,0:0|0:0,0:0:0:0:
124,72,232024,1,8,0:0:0:0:
124,72,232105,1,0,0:0:0:0:
124,72,232186,2,0,P|80:92|36:140,1,90,0|8,0:0|0:0,0:0:0:0:
152,268,232510,1,0,0:0:0:0:
324,128,232673,6,0,P|368:108|412:60,1,90,8|0,0:0|0:0,0:0:0:0:
212,32,232997,1,8,0:0:0:0:
256,232,233159,1,0,0:0:0:0:
356,100,233321,1,8,0:0:0:0:
356,100,233402,1,0,0:0:0:0:
356,100,233483,2,0,P|344:156|340:200,1,90,0|8,0:0|0:0,0:0:0:0:
167,356,233808,2,0,P|161:311|151:267,1,90,0|8,0:0|0:0,0:0:0:0:
48,132,234132,6,0,P|68:92|204:88,1,180,4|0,0:0|0:0,0:0:0:0:
388,208,234618,1,8,0:0:0:0:
388,208,234700,1,0,0:0:0:0:
388,208,234781,2,0,P|320:200|284:192,1,90,0|8,0:0|0:0,0:0:0:0:
151,267,235105,1,0,0:0:0:0:
316,376,235267,6,0,P|324:308|332:272,1,90,8|0,0:0|0:0,0:0:0:0:
196,104,235591,2,0,P|204:148|208:193,1,90,8|0,0:0|0:0,0:0:0:0:
352,120,235916,1,8,0:0:0:0:
352,120,235997,1,0,0:0:0:0:
352,120,236078,1,0,0:0:0:0:
160,248,236240,1,8,0:0:0:0:
416,324,236402,1,2,0:0:0:0:
272,140,236564,1,8,0:0:0:0:
192,364,236727,5,4,0:0:0:0:
144,168,236889,1,8,0:0:0:0:
208,344,237051,1,0,0:0:0:0:
284,116,237213,1,8,0:0:0:0:
284,116,237294,1,0,0:0:0:0:
284,116,237375,1,8,0:0:0:0:
352,200,237537,1,8,0:0:0:0:
80,228,237700,1,0,0:0:0:0:
380,104,237862,6,0,P|432:144|428:260,1,180,4|0,0:0|0:0,0:0:0:0:
208,344,238348,1,8,0:0:0:0:
144,168,238510,1,0,0:0:0:0:
161,126,238591,1,2,0:0:0:0:
191,93,238672,1,2,0:0:0:0:
231,73,238753,1,2,0:0:0:0:
275,67,238834,1,2,0:0:0:0:
319,76,238915,1,2,0:0:0:0:
356,101,238997,6,0,B|404:88|404:88|442:93|442:93|504:80,1,135.000005149842,8|0,0:0|0:0,0:0:0:0:
380,272,239321,6,0,P|288:264|172:252,1,180,4|0,0:0|0:0,0:0:0:0:
48,280,239808,1,8,0:0:0:0:
48,280,239889,1,0,0:0:0:0:
48,280,239970,2,0,P|56:220|64:172,1,90,0|8,0:0|0:0,0:0:0:0:
200,368,240294,1,0,0:0:0:0:
312,212,240456,6,0,P|268:192|204:176,1,90,8|0,0:0|0:0,0:0:0:0:
441,167,240781,2,0,P|451:211|456:256,1,90,8|0,0:0|0:0,0:0:0:0:
336,88,241105,1,8,0:0:0:0:
336,88,241186,1,0,0:0:0:0:
336,88,241267,2,0,P|352:28|368:-8,1,90,0|8,0:0|0:0,0:0:0:0:
404,288,241591,2,0,P|388:348|372:384,1,90,2|8,0:0|0:0,0:0:0:0:
159,243,241916,6,0,P|183:211|311:211,1,180,4|0,0:0|0:0,0:0:0:0:
256,324,242402,1,8,0:0:0:0:
256,324,242483,1,0,0:0:0:0:
256,324,242564,1,0,0:0:0:0:
120,168,242727,1,8,0:0:0:0:
48,308,242889,1,0,0:0:0:0:
236,212,243051,6,0,P|252:164|264:116,1,90,8|0,0:0|0:0,0:0:0:0:
164,48,243375,1,8,0:0:0:0:
236,212,243537,1,0,0:0:0:0:
384,132,243700,1,8,0:0:0:0:
384,132,243781,1,0,0:0:0:0:
384,132,243862,5,4,0:0:0:0:
144,200,244024,1,8,0:0:0:0:
404,256,244186,1,4,0:0:0:0:
128,320,244348,1,8,0:0:0:0:
284,52,244510,6,0,P|300:104|312:176,1,90,4|8,0:0|0:0,0:0:0:0:
224,348,244835,1,0,0:0:0:0:
144,200,244997,1,8,0:0:0:0:
144,200,245078,1,0,0:0:0:0:
144,200,245159,2,0,P|153:156|167:113,1,90,0|8,0:0|0:0,0:0:0:0:
340,212,245483,1,0,0:0:0:0:
148,296,245646,1,8,0:0:0:0:
307,138,245808,5,0,0:0:0:0:
304,352,245970,1,8,0:0:0:0:
168,176,246132,1,0,0:0:0:0:
404,272,246294,1,8,0:0:0:0:
404,272,246375,1,0,0:0:0:0:
404,272,246456,2,0,P|424:232|420:180,1,90,0|8,0:0|0:0,0:0:0:0:
244,80,246781,2,0,P|224:120|228:172,1,90,4|8,0:0|0:0,0:0:0:0:
396,72,247105,5,4,0:0:0:0:
244,272,247267,1,8,0:0:0:0:
136,152,247429,1,0,0:0:0:0:
328,340,247591,1,8,0:0:0:0:
328,340,247673,1,0,0:0:0:0:
328,340,247754,1,0,0:0:0:0:
307,138,247916,2,0,L|295:210,1,45,0|0,0:0|0:0,0:0:0:0:
176,344,248078,2,0,L|168:299,1,45
60,192,248240,5,4,0:0:0:0:
