osu file format v14

[General]
AudioFilename: asdfhdghfd.mp3
AudioLeadIn: 0
PreviewTime: 174153
Countdown: 0
SampleSet: Soft
StackLeniency: 0.7
Mode: 0
LetterboxInBreaks: 0
WidescreenStoryboard: 0

[Editor]
Bookmarks: 95188
DistanceSpacing: 1.8
BeatDivisor: 16
GridSize: 4
TimelineZoom: 3.899998

[Metadata]
Title:(Vocal) you
TitleUnicode:(Vocal) you
Artist:Kasumigaoka Utaha (CV.Kayano Ai)
ArtistUnicode:霞ヶ丘詩羽 (CV.茅野愛衣)
Creator:EvilElvis
Version:Matsuribayashi
Source:ひぐらしのなく頃に解
Tags:Nube Liiraye 07th Expansion Okoratu Secretpipe Seikatu iyasine Natsu dai Masato Nakayama Yuki 「冴えない彼女の育てかた」Software Special CD Vol.4 anime higurashi no naku koro ni kai
BeatmapID:762086
BeatmapSetID:345037

[Difficulty]
HPDrainRate:7
CircleSize:4
OverallDifficulty:7
ApproachRate:8.5
SliderMultiplier:1.99999990463257
SliderTickRate:1

[Events]
//Background and Video events
0,0,"omgsong.jpg",0,0
//Break Periods
//Storyboard Layer 0 (Background)
//Storyboard Layer 1 (Fail)
//Storyboard Layer 2 (Pass)
//Storyboard Layer 3 (Foreground)
//Storyboard Sound Samples

[TimingPoints]
19671,689.655172413793,4,2,1,20,1,0
20360,-133.333333333333,4,2,1,30,0,0
25015,-133.333333333333,4,2,1,15,0,0
25188,-133.333333333333,4,2,1,30,0,0
30705,-100,4,2,1,30,0,0
58981,-200,4,2,1,30,0,0
63808,-100,4,2,1,30,0,0
68981,-100,4,2,1,20,0,0
69326,-133.333333333333,4,2,1,30,0,0
70015,-200,4,2,1,30,0,0
71395,-133.333333333333,4,2,1,30,0,0
72774,-100,4,2,1,30,0,0
73464,-166.666666666667,4,2,1,30,0,0
74153,-200,4,2,1,50,0,0
74843,-100,4,2,1,50,0,0
75015,-100,4,2,1,30,0,0
79670,-100,4,2,1,20,0,0
80360,-100,4,2,1,30,0,0
85877,-86.9565217391304,4,2,1,35,0,0
106567,-200,4,2,1,50,0,0
107257,-100,4,2,1,30,0,0
107602,-100,4,3,1,20,0,0
107774,-100,4,3,1,40,0,0
107946,-66.6666666666667,4,2,1,60,0,1
130015,-66.6666666666667,4,2,1,60,0,0
130705,-100,4,2,1,60,0,0
131050,-66.6666666666667,4,2,1,45,0,0
132084,-100,4,2,1,45,0,0
132774,-66.6666666666667,4,2,1,45,0,0
133464,-100,4,2,1,45,0,0
133808,-66.6666666666667,4,2,1,45,0,0
134843,-100,4,2,1,45,0,0
135533,-66.6666666666667,4,2,1,45,0,0
136222,-100,4,2,1,45,0,0
136739,-100,4,2,1,30,0,0
137257,-100,4,2,1,45,0,0
137774,-100,4,2,1,25,0,0
137946,-100,4,2,1,45,0,0
138119,-100,4,2,1,25,0,0
138291,-100,4,2,1,45,0,0
139670,-66.6666666666667,4,2,1,45,0,0
141050,-66.6666666666667,4,2,1,55,0,0
146567,-166.666666666667,4,2,1,55,0,0
147257,-66.6666666666667,4,2,1,55,0,0
150705,-100,4,2,1,55,0,0
151395,-125,4,2,1,45,0,0
152084,-200,4,2,1,30,0,0
163119,-133.333333333333,4,2,1,50,0,0
168636,-200,4,2,1,50,0,0
169326,-133.333333333333,4,2,1,50,0,0
171395,-133.333333333333,4,2,0,50,0,0
172084,-133.333333333333,4,2,0,20,0,0
172774,-133.333333333333,4,2,1,50,0,0
173464,-100,4,3,1,50,0,0
174153,-58.8235294117647,4,2,1,60,0,1
195533,-133.333333333333,4,2,1,50,0,0
196222,-58.8235294117647,4,2,1,60,0,0
218291,-125,4,2,1,50,0,0
221050,-133.333333333333,4,2,1,45,0,0
223808,-142.857142857143,4,2,1,40,0,0
226567,-153.846153846154,4,2,1,35,0,0
227257,740.740740740741,4,2,1,30,1,0
227257,-166.666666666667,4,2,1,30,0,0
227627,800,4,2,1,30,1,0
228027,821.917808219178,4,2,1,25,1,0
228027,-181.818181818182,4,2,1,25,0,0
228437,975.609756097561,4,2,1,25,1,0
229412,857.142857142857,4,2,1,20,1,0
230518,1090.90909090909,4,2,1,15,1,0
230746,689.655172413793,4,2,1,50,1,0
232814,-100,4,2,1,40,0,0
233504,-100,4,2,1,30,0,0
234194,-100,4,2,1,20,0,0
234883,-100,4,2,1,10,0,0
235573,-100,4,2,1,5,0,0

[Colours]
Combo1 : 17,254,176
Combo2 : 173,255,95
Combo3 : 255,88,100
Combo4 : 255,94,55

[HitObjects]
96,71,19670,5,4,0:0:0:0:
96,71,20360,2,0,P|134:72|154:73,1,37.4999996423721,2|0,0:0|0:0,0:0:0:0:
200,114,20705,1,2,0:3:0:0:
200,114,21050,2,0,P|194:160|206:211,1,74.9999992847443,8|0,0:3|0:0,0:0:0:0:
198,188,21739,2,0,L|244:184,1,37.4999996423721,2|0,0:0|0:0,0:0:0:0:
308,212,22084,1,2,0:3:0:0:
308,212,22257,1,2,0:0:0:0:
384,186,22429,6,0,P|394:229|389:316,1,112.499998927116,8|0,0:3|0:0,0:0:0:0:
392,297,23119,2,0,P|369:298|343:304,1,37.4999996423721,2|0,0:0|0:0,0:0:0:0:
287,351,23464,2,0,L|230:340,1,37.4999996423721,2|0,0:3|0:0,0:0:0:0:
258,265,23808,2,0,P|149:351|23:320,1,262.499997496605,4|0,0:0|0:0,0:0:0:0:
37,251,25188,5,8,0:3:0:0:
37,251,25877,2,0,P|72:267|89:271,1,37.4999996423721,2|0,0:0|0:0,0:0:0:0:
146,273,26222,1,2,0:3:0:0:
146,273,26567,2,0,P|194:257|218:235,1,74.9999992847443,8|0,0:3|0:0,0:0:0:0:
212,241,27257,2,0,L|203:191,1,37.4999996423721,2|0,0:0|0:0,0:0:0:0:
253,140,27602,1,2,0:3:0:0:
253,140,27774,1,2,0:0:0:0:
305,81,27946,6,0,P|350:82|426:71,1,112.499998927116,8|0,0:3|0:0,0:0:0:0:
452,144,28636,1,2,0:0:0:0:
492,208,28808,1,2,0:0:0:0:
460,146,28981,1,2,0:3:0:0:
499,204,29153,1,0,0:0:0:0:
492,326,29326,6,0,P|470:324|451:324,1,37.4999996423721,2|2,0:0|0:0,0:0:0:0:
375,357,29670,2,0,P|321:352|294:345,1,74.9999992847443,2|2,0:0|0:0,0:0:0:0:
287,339,30130,1,2,0:0:0:0:
273,331,30245,1,0,0:0:0:0:
251,323,30360,1,0,0:0:0:0:
228,322,30475,1,0,0:0:0:0:
203,328,30590,1,0,0:0:0:0:
181,341,30705,6,0,L|177:273,1,49.9999976158143,2|2,0:1|0:0,0:0:0:0:
168,214,31050,2,0,L|99:223,1,49.9999976158143,2|0,0:0|0:0,0:0:0:0:
44,237,31395,2,0,P|38:188|42:130,1,99.9999952316285,2|2,0:0|0:0,0:0:0:0:
59,63,31912,1,2,0:0:0:0:
131,30,32084,2,0,L|180:41,1,49.9999976158143,2|2,0:1|0:0,0:0:0:0:
226,101,32429,2,0,L|330:80,1,99.9999952316285,2|0,0:0|0:0,0:0:0:0:
324,81,33119,2,0,P|329:117|332:139,1,49.9999976158143,2|2,0:0|0:0,0:0:0:0:
418,134,33464,6,0,P|356:167|340:249,1,149.999992847443,2|0,0:1|0:0,0:0:0:0:
308,255,34153,2,0,P|336:264|361:281,1,49.9999976158143,2|2,0:0|0:0,0:0:0:0:
421,320,34498,1,0,0:0:0:0:
421,320,34670,1,2,0:0:0:0:
506,253,34843,1,2,0:1:0:0:
414,210,35015,1,2,0:0:0:0:
237,299,35188,6,0,L|166:294,1,49.9999976158143,2|0,0:0|0:0,0:0:0:0:
153,181,35533,2,0,P|151:248|158:343,1,149.999992847443,2|0,0:3|0:0,0:0:0:0:
72,368,36222,6,0,L|81:303,1,49.9999976158143,2|0,0:1|0:0,0:0:0:0:
32,239,36567,1,2,0:0:0:0:
32,239,36739,1,2,0:0:0:0:
226,201,36912,2,0,P|285:209|351:208,1,99.9999952316285,2|2,0:3|0:0,0:0:0:0:
325,209,37602,2,0,L|334:260,1,49.9999976158143,2|2,0:1|0:0,0:0:0:0:
374,228,37946,2,0,P|357:280|361:329,1,99.9999952316285,0|2,0:0|0:3,0:0:0:0:
426,373,38464,1,2,0:0:0:0:
490,329,38636,1,2,0:0:0:0:
490,329,38808,1,2,0:0:0:0:
465,198,38981,6,0,P|416:157|321:145,1,149.999992847443,2|0,0:1|0:0,0:0:0:0:
332,143,39670,2,0,L|326:72,1,49.9999976158143,2|2,0:3|0:0,0:0:0:0:
252,21,40015,2,0,L|246:75,1,49.9999976158143,2|0,0:0|0:0,0:0:0:0:
230,175,40360,2,0,P|168:192|75:165,1,149.999992847443,2|0,0:1|0:0,0:0:0:0:
56,99,41050,2,0,L|118:80,1,49.9999976158143,2|0,0:3|0:0,0:0:0:0:
160,27,41395,2,0,L|176:74,1,49.9999976158143,2|0,0:0|0:0,0:0:0:0:
9,197,41739,5,4,0:0:0:0:
29,275,42084,1,2,0:0:0:0:
250,324,42429,5,2,0:3:0:0:
250,324,42602,1,2,0:0:0:0:
250,324,42774,2,0,L|193:337,1,49.9999976158143,2|0,0:0|0:0,0:0:0:0:
104,220,43119,5,2,0:0:0:0:
87,141,43464,1,2,0:0:0:0:
207,40,43809,6,0,L|256:29,1,49.9999976158143,2|2,0:3|0:0,0:0:0:0:
330,11,44153,1,2,0:0:0:0:
473,220,44498,5,2,0:0:0:0:
457,311,44843,1,2,0:0:0:0:
457,311,45015,1,2,0:0:0:0:
457,311,45188,2,0,L|392:291,1,49.9999976158143,2|2,0:3|0:0,0:0:0:0:
344,258,45533,1,2,0:0:0:0:
270,245,45705,1,2,0:0:0:0:
200,272,45877,1,2,0:1:0:0:
141,323,46050,1,2,0:0:0:0:
65,315,46222,1,2,0:3:0:0:
65,315,46567,6,0,L|58:252,1,49.9999976158143,2|2,0:1|0:0,0:0:0:0:
106,198,46912,1,2,0:0:0:0:
106,198,47084,1,0,0:0:0:0:
23,137,47257,6,0,L|30:84,1,49.9999976158143,2|0,0:0|0:0,0:0:0:0:
50,13,47602,1,2,0:0:0:0:
209,138,47946,5,2,0:3:0:0:
207,216,48119,1,0,0:0:0:0:
204,294,48291,2,0,L|200:352,1,49.9999976158143,2|2,0:0|0:0,0:0:0:0:
334,323,48636,5,2,0:0:0:0:
286,259,48808,1,0,0:0:0:0:
343,307,48981,1,2,0:0:0:0:
478,187,49326,6,0,L|471:133,1,49.9999976158143,2|2,0:3|0:0,0:0:0:0:
459,62,49670,1,2,0:0:0:0:
459,62,49843,1,0,0:0:0:0:
406,208,50015,6,0,L|399:271,2,49.9999976158143,2|0|2,0:0|0:0|0:0,0:0:0:0:
486,341,50533,1,2,0:0:0:0:
326,265,50705,1,2,0:3:0:0:
489,240,50877,1,0,0:0:0:0:
337,354,51050,5,2,0:0:0:0:
266,215,51222,1,2,0:0:0:0:
201,289,51395,5,2,0:1:0:0:
235,139,51567,1,0,0:0:0:0:
88,200,51739,5,2,0:0:0:0:
88,200,52084,1,2,0:1:0:0:
88,200,52774,5,2,0:0:0:0:
164,175,53119,1,0,0:0:0:0:
149,253,53464,1,0,0:0:0:0:
92,173,54153,5,2,0:0:0:0:
187,203,54498,1,0,0:0:0:0:
106,262,54843,1,0,0:0:0:0:
112,145,55533,5,2,0:0:0:0:
199,226,55877,1,0,0:0:0:0:
81,249,56222,1,0,0:0:0:0:
147,122,56912,5,2,0:0:0:0:
208,258,57257,1,0,0:0:0:0:
59,236,57602,1,0,0:0:0:0:
59,236,58291,5,2,0:0:0:0:
72,211,58636,1,0,0:0:0:0:
12,130,58981,2,0,P|40:168|98:187,1,99.9999952316285,2|2,0:1|0:0,0:0:0:0:
161,185,60015,5,0,0:0:0:0:
170,213,60360,1,2,0:0:0:0:
170,213,61050,5,2,0:0:0:0:
240,239,61395,1,0,0:0:0:0:
312,257,61739,2,0,L|391:248,1,74.9999964237214,2|0,0:1|0:0,0:0:0:0:
452,185,62429,5,2,0:3:0:0:
419,336,62602,1,2,0:1:0:0:
351,168,62774,1,2,0:0:0:0:
360,184,62946,1,2,0:0:0:0:
494,276,63119,1,2,0:3:0:0:
472,280,63291,1,2,0:1:0:0:
329,338,63464,1,2,0:0:0:0:
342,320,63636,1,2,0:1:0:0:
243,361,63808,6,0,P|200:348|132:335,1,99.9999952316285,4|2,0:3|0:0,0:0:0:0:
146,337,64498,2,0,L|162:284,1,49.9999976158143,2|0,0:3|0:0,0:0:0:0:
131,222,64843,1,2,0:0:0:0:
131,222,65015,1,0,0:0:0:0:
66,175,65188,2,0,P|115:169|163:156,1,99.9999952316285,2|2,0:1|0:0,0:0:0:0:
163,156,65877,1,2,0:3:0:0:
222,43,66050,1,0,0:0:0:0:
279,140,66222,1,2,0:0:0:0:
116,66,66395,1,2,0:0:0:0:
313,67,66567,6,0,P|374:56|462:65,1,149.999992847443,2|0,0:1|0:0,0:0:0:0:
461,64,67257,2,0,P|458:98|459:129,1,49.9999976158143,2|2,0:3|0:0,0:0:0:0:
341,211,67602,1,2,0:0:0:0:
341,211,67946,5,2,0:1:0:0:
387,277,68291,1,0,0:0:0:0:
387,277,68464,1,2,0:1:0:0:
442,339,68808,1,0,0:0:0:0:
442,339,68981,1,2,0:1:0:0:
442,339,69326,6,0,L|455:209,1,112.499998927116,2|0,0:0|0:0,0:0:0:0:
385,123,70015,6,0,L|377:205,1,74.9999964237214,2|0,0:3|0:0,0:0:0:0:
303,330,70705,5,4,0:0:0:0:
303,330,71395,6,0,L|309:283,1,37.4999996423721,2|0,0:0|0:0,0:0:0:0:
303,330,71739,1,2,0:1:0:0:
317,177,71912,1,2,0:0:0:0:
213,357,72084,6,0,P|152:360|101:344,1,112.499998927116,4|0,0:0|0:0,0:0:0:0:
39,277,72774,5,2,0:0:0:0:
39,277,72946,2,0,B|139:266,1,99.9999952316285,2|0,0:3|0:0,0:0:0:0:
176,184,73464,6,0,P|132:177|79:200,1,89.9999929618838,2|0,0:1|0:0,0:0:0:0:
14,117,74153,6,0,L|93:109,1,74.9999964237214,2|0,0:0|0:0,0:0:0:0:
211,103,74843,6,0,P|238:111|264:129,1,49.9999976158143,4|0,0:3|0:0,0:0:0:0:
406,190,75188,2,0,P|376:193|345:185,1,49.9999976158143,2|0,0:0|0:0,0:0:0:0:
258,257,75533,1,2,0:1:0:0:
258,257,75877,6,0,L|283:195,1,49.9999976158143
393,108,76222,2,0,L|329:129,1,49.9999976158143,2|0,0:0|0:0,0:0:0:0:
204,70,76567,2,0,L|255:118,1,49.9999976158143,2|0,0:0|0:0,0:0:0:0:
362,219,76912,5,2,0:1:0:0:
504,86,77084,1,0,0:0:0:0:
470,231,77257,1,2,0:3:0:0:
395,22,77429,1,2,0:0:0:0:
384,16,77515,1,0,0:0:0:0:
372,13,77602,6,0,P|366:51|372:82,1,49.9999976158143,2|0,0:0|0:0,0:0:0:0:
292,142,77946,2,0,L|353:136,1,49.9999976158143,2|0,0:0|0:0,0:0:0:0:
488,196,78291,2,0,L|385:208,1,99.9999952316285,2|2,0:1|0:0,0:0:0:0:
332,315,78808,1,0,0:0:0:0:
255,243,78981,6,0,L|307:236,1,49.9999976158143,4|0,0:3|0:0,0:0:0:0:
175,331,79326,2,0,L|235:338,1,49.9999976158143,2|0,0:1|0:0,0:0:0:0:
110,249,79670,6,0,L|160:240,1,49.9999976158143,0|0,1:0|1:0,0:0:0:0:
46,333,80015,1,8,0:0:0:0:
46,333,80188,1,0,0:0:0:0:
29,200,80360,6,0,L|11:99,1,99.9999952316285,2|2,0:0|0:0,0:0:0:0:
99,133,80877,1,0,0:0:0:0:
146,19,81050,2,0,P|167:86|235:125,1,149.999992847443,2|0,0:1|0:0,0:0:0:0:
296,65,81739,2,0,P|261:51|235:49,1,49.9999976158143,2|0,0:0|0:0,0:0:0:0:
216,201,82084,2,0,P|253:204|278:199,1,49.9999976158143,2|0,0:0|0:0,0:0:0:0:
332,168,82429,1,2,0:1:0:0:
332,168,82602,1,2,0:0:0:0:
492,256,82774,5,2,0:3:0:0:
470,244,82860,1,0,0:0:0:0:
446,237,82946,1,0,0:0:0:0:
420,236,83033,1,0,0:0:0:0:
395,240,83119,2,0,P|365:252|340:271,1,49.9999976158143,2|0,0:0|0:0,0:0:0:0:
295,314,83464,1,2,0:0:0:0:
295,314,83636,1,0,0:0:0:0:
201,363,83808,6,0,L|149:350,1,49.9999976158143,2|0,0:1|0:0,0:0:0:0:
2,308,84153,2,0,L|54:295,1,49.9999976158143,2|0,0:0|0:0,0:0:0:0:
205,253,84498,1,4,0:3:0:0:
37,196,84670,1,0,0:0:0:0:
213,164,84843,1,2,0:1:0:0:
213,164,85015,2,0,L|101:142,1,99.9999952316285,0|0,1:0|1:0,0:0:0:0:
23,31,85533,5,2,0:1:0:0:
62,35,85619,1,0,0:0:0:0:
101,43,85705,1,0,0:0:0:0:
140,51,85791,1,0,0:0:0:0:
176,23,85877,6,0,P|178:62|177:93,1,57.4999983549118,4|0,0:0|0:0,0:0:0:0:
307,159,86222,2,0,P|303:90|309:27,1,114.999996709824,2|2,0:0|0:1,0:0:0:0:
306,44,86912,2,0,L|367:41,1,57.4999983549118,2|2,0:0|0:0,0:0:0:0:
512,128,87257,2,0,P|460:121|392:119,1,114.999996709824,2|0,0:3|0:0,0:0:0:0:
397,118,87946,2,0,P|401:163|396:198,1,57.4999983549118,2|0,0:1|0:0,0:0:0:0:
329,254,88291,1,2,0:0:0:0:
404,331,88464,1,2,0:0:0:0:
494,257,88636,6,0,P|463:253|428:254,1,57.4999983549118,2|0,0:3|0:0,0:0:0:0:
252,335,88981,2,0,P|286:340|319:340,1,57.4999983549118,2|0,0:0|0:0,0:0:0:0:
222,256,89326,2,0,P|224:322|219:373,1,114.999996709824,2|2,0:1|0:0,0:0:0:0:
138,363,89843,1,2,0:0:0:0:
302,228,90015,2,0,P|287:172|277:115,1,114.999996709824,2|2,0:3|0:1,0:0:0:0:
277,115,90705,5,2,0:0:0:0:
453,155,90877,1,2,0:0:0:0:
217,187,91050,5,2,0:0:0:0:
96,214,91222,1,2,0:0:0:0:
7,73,91395,6,0,P|71:106|121:110,1,114.999996709824,2|2,0:3|0:0,0:0:0:0:
112,110,92084,2,0,L|123:40,1,57.4999983549118,2|0,0:1|0:0,0:0:0:0:
202,225,92429,1,2,0:0:0:0:
216,95,92602,1,2,0:0:0:0:
110,227,92774,2,0,L|122:294,1,57.4999983549118,2|0,0:3|0:0,0:0:0:0:
141,358,93119,2,0,L|208:347,1,57.4999983549118,2|0,0:0|0:0,0:0:0:0:
295,194,93464,2,0,L|282:129,1,57.4999983549118,2|0,0:1|0:0,0:0:0:0:
399,94,93808,2,0,P|425:89|470:84,1,57.4999983549118,2|2,0:0|0:0,0:0:0:0:
386,128,94153,6,0,P|446:118|514:112,1,114.999996709824,2|2,0:3|0:0,0:0:0:0:
499,112,94843,2,0,L|507:174,1,57.4999983549118,2|0,0:1|0:0,0:0:0:0:
418,257,95188,2,0,L|411:194,1,57.4999983549118,2|0,0:0|0:0,0:0:0:0:
96,247,95533,5,4,0:3:0:0:
130,251,95619,1,0,0:0:0:0:
165,246,95705,1,0,0:0:0:0:
197,231,95792,1,0,0:0:0:0:
227,214,95878,1,0,0:0:0:0:
260,203,95964,1,0,0:0:0:0:
295,203,96050,1,0,0:0:0:0:
325,212,96136,1,0,0:0:0:0:
345,236,96222,5,2,0:0:0:0:
339,246,96308,1,0,0:0:0:0:
330,254,96395,1,2,0:0:0:0:
322,262,96481,1,0,0:0:0:0:
315,271,96567,2,0,L|326:338,1,57.4999983549118,2|0,0:1|0:0,0:0:0:0:
409,362,96912,5,2,0:3:0:0:
409,362,97257,1,2,0:0:0:0:
409,362,97602,1,2,0:1:0:0:
389,254,97774,1,2,0:0:0:0:
225,202,97946,5,2,0:1:0:0:
245,310,98118,1,0,0:0:0:0:
469,300,98291,5,2,0:3:0:0:
469,300,98636,1,2,0:0:0:0:
469,300,98981,5,2,0:1:0:0:
398,327,99153,1,2,0:0:0:0:
322,326,99326,1,2,0:1:0:0:
252,293,99498,1,0,0:0:0:0:
186,234,99670,5,2,0:3:0:0:
40,299,99843,1,0,0:0:0:0:
127,185,100015,5,2,0:0:0:0:
104,348,100188,1,2,0:0:0:0:
49,200,100360,5,2,0:1:0:0:
182,337,100533,1,0,0:0:0:0:
240,54,100705,5,2,0:1:0:0:
190,135,100877,1,2,0:0:0:0:
385,135,101050,5,2,0:1:0:0:
348,59,101222,1,2,0:0:0:0:
249,210,101395,5,2,0:1:0:0:
328,209,101567,1,2,0:0:0:0:
501,40,101739,6,0,L|436:55,1,57.4999983549118,2|0,0:1|0:0,0:0:0:0:
364,288,102084,6,0,L|424:274,1,57.4999983549118,2|0,0:1|0:0,0:0:0:0:
496,245,102429,5,2,0:3:0:0:
496,245,102774,1,2,0:0:0:0:
496,245,103119,1,2,0:0:0:0:
446,175,103464,5,0,0:0:0:0:
425,161,103808,1,2,0:3:0:0:
400,155,104153,1,0,0:0:0:0:
375,155,104498,1,2,0:0:0:0:
301,188,104843,5,0,0:0:0:0:
232,202,105188,1,2,0:3:0:0:
154,202,105533,1,2,0:0:0:0:
82,166,105877,1,2,0:1:0:0:
33,104,106222,1,0,0:0:0:0:
324,282,106567,6,0,L|328:380,1,87.4999958276749,2|0,0:1|2:0,0:0:0:0:
248,294,107257,6,0,L|243:202,1,83.3333293596904
173,206,107602,6,0,L|172:229,1,16.6666658719381
159,206,107716,2,0,L|151:231,1,16.6666658719381
144,203,107831,2,0,L|132:224,1,16.6666658719381
123,192,107946,6,0,P|84:165|66:134,1,74.9999992847443,4|0,1:0|3:0,1:0:0:0:
49,65,108291,1,2,3:3:0:0:
107,11,108464,1,0,0:0:0:0:
250,91,108636,6,0,P|257:131|249:182,1,74.9999992847443,8|0,3:2|0:0,0:0:0:0:
19,283,108981,2,0,P|11:247|20:192,1,74.9999992847443,2|0,3:3|0:0,0:0:0:0:
201,332,109326,2,0,P|261:354|356:338,1,149.999998569489,8|2,3:2|3:3,0:0:0:0:
427,242,109843,1,0,0:0:0:0:
319,182,110015,2,0,P|291:186|238:197,1,74.9999992847443,8|0,3:2|0:0,0:0:0:0:
327,271,110360,1,2,3:3:0:0:
324,24,110533,1,0,0:0:0:0:
118,136,110705,6,0,P|189:129|277:109,1,149.999998569489,12|2,3:3|3:3,0:0:0:0:
472,158,111222,1,2,0:0:0:0:
319,188,111395,1,8,3:2:0:0:
419,49,111567,1,0,0:0:0:0:
460,319,111739,6,0,P|428:315|364:319,1,74.9999992847443,2|0,3:3|0:0,0:0:0:0:
230,206,112084,1,8,3:2:0:0:
230,206,112429,1,4,3:2:0:0:
230,206,112774,2,0,L|232:126,1,74.9999992847443,8|2,3:2|0:1,0:0:0:0:
342,31,113119,1,2,3:3:0:0:
342,31,113464,6,0,P|339:83|340:119,1,74.9999992847443,4|0,0:3|0:0,0:0:0:0:
143,197,113808,2,0,L|50:186,1,74.9999992847443,2|0,3:3|0:0,0:0:0:0:
229,337,114153,1,8,3:2:0:0:
43,349,114326,1,0,0:0:0:0:
106,282,114498,2,0,L|188:272,1,74.9999992847443,2|0,3:3|0:0,0:0:0:0:
264,223,114843,2,0,P|248:143|243:57,1,149.999998569489,8|2,3:2|3:3,0:0:0:0:
152,35,115360,1,0,0:0:0:0:
50,116,115533,2,0,L|126:107,1,74.9999992847443,8|0,3:2|0:0,0:0:0:0:
138,256,115877,2,0,L|63:264,1,74.9999992847443,2|0,3:3|0:0,0:0:0:0:
264,172,116222,6,0,L|428:153,1,149.999998569489,4|2,3:3|3:3,0:0:0:0:
273,286,116739,1,0,0:0:0:0:
427,323,116912,2,0,P|427:278|417:223,1,74.9999992847443,8|0,3:2|0:0,0:0:0:0:
119,253,117257,2,0,P|119:298|129:353,1,74.9999992847443,2|0,3:3|0:0,0:0:0:0:
355,277,117602,5,8,3:2:0:0:
265,220,117774,1,2,0:1:0:0:
198,295,117946,1,2,3:3:0:0:
282,344,118119,1,2,0:0:0:0:
345,280,118291,1,8,3:2:0:0:
269,231,118464,1,2,0:1:0:0:
206,297,118636,1,2,3:3:0:0:
279,336,118808,1,2,0:0:0:0:
341,187,118981,6,0,P|261:199|170:180,1,149.999998569489,4|2,3:3|3:3,0:0:0:0:
143,130,119498,1,0,0:1:0:0:
267,17,119670,2,0,P|277:53|269:122,1,74.9999992847443,8|0,3:2|0:0,0:0:0:0:
87,18,120015,2,0,L|172:24,1,74.9999992847443,2|0,3:3|3:0,0:0:0:0:
12,114,120360,5,8,0:0:0:0:
158,238,120533,1,0,0:0:0:0:
109,91,120705,1,2,3:3:0:0:
72,291,120877,1,0,0:0:0:0:
160,151,121050,6,0,L|65:185,1,74.9999992847443,8|0,3:2|0:0,0:0:0:0:
274,257,121395,2,0,L|251:333,1,74.9999992847443,2|0,3:3|3:0,0:0:0:0:
285,124,121739,2,0,P|223:197|177:259,1,149.999998569489,8|2,0:0|3:3,0:0:0:0:
139,308,122257,1,0,0:1:0:0:
35,186,122429,1,8,3:2:0:0:
178,36,122602,5,0,0:0:0:0:
135,182,122774,1,2,3:3:0:0:
17,86,122946,1,0,3:1:0:0:
108,98,123119,2,0,L|188:119,1,74.9999992847443,12|0,3:2|0:0,0:0:0:0:
383,167,123464,2,0,L|303:188,1,74.9999992847443,2|0,3:3|0:0,0:0:0:0:
162,257,123808,1,12,3:2:0:0:
326,288,123981,1,0,3:1:0:0:
205,171,124153,1,2,3:3:0:0:
231,333,124326,1,2,0:1:0:0:
394,357,124498,6,0,P|443:312|482:235,1,149.999998569489,12|2,0:0|3:3,0:0:0:0:
456,165,125015,1,0,3:1:0:0:
340,234,125188,1,8,3:2:0:0:
274,110,125360,5,0,0:0:0:0:
385,130,125533,1,2,3:3:0:0:
290,82,125705,1,0,0:1:0:0:
370,156,125877,2,0,P|365:87|371:7,1,149.999998569489,8|2,0:0|3:3,0:0:0:0:
198,77,126395,1,0,0:1:0:0:
138,161,126567,2,0,P|169:157|220:162,1,74.9999992847443,8|0,3:2|0:0,0:0:0:0:
123,27,126912,2,0,P|91:30|40:25,1,74.9999992847443,2|0,3:3|3:1,0:0:0:0:
57,268,127257,6,0,B|132:255|123:288|219:268,1,149.999998569489,4|2,3:3|3:3,0:0:0:0:
277,324,127774,1,0,3:1:0:0:
349,264,127946,2,0,P|345:236|341:186,1,74.9999992847443,8|0,3:2|0:0,0:0:0:0:
472,100,128291,2,0,P|480:158|480:183,1,74.9999992847443,2|2,3:3|0:1,0:0:0:0:
189,118,128636,5,12,0:0:0:0:
264,87,128808,1,2,0:1:0:0:
340,56,128981,1,2,3:3:0:0:
256,174,129153,1,2,0:0:0:0:
264,13,129326,1,12,3:2:0:0:
361,166,129498,5,2,0:1:0:0:
167,17,129670,1,2,3:3:0:0:
424,71,129843,5,2,0:1:0:0:
114,113,130015,2,0,L|29:102,1,74.9999992847443,4|2,3:3|0:1,0:0:0:0:
16,207,130360,1,2,3:3:0:0:
16,207,130705,6,0,P|15:257|20:305,1,99.9999952316285,4|2,0:0|3:0,0:0:0:0:
94,351,131222,5,0,0:0:0:0:
171,320,131395,2,0,L|158:235,1,74.9999992847443,8|0,3:2|0:0,0:0:0:0:
203,177,131739,1,2,3:3:0:0:
203,177,131912,1,0,0:0:0:0:
437,209,132084,6,0,L|495:200,1,49.9999976158143,4|0,0:0|0:0,0:0:0:0:
278,50,132429,2,0,L|220:59,1,49.9999976158143,4|0,3:2|0:0,0:0:0:0:
244,344,132774,6,0,P|284:341|319:339,1,74.9999992847443,8|0,3:2|0:0,0:0:0:0:
324,242,133119,1,2,3:0:0:0:
324,242,133464,6,0,P|250:250|196:249,1,99.9999952316285,4|2,0:0|3:0,0:0:0:0:
417,309,133981,5,0,3:0:0:0:
396,159,134153,2,0,P|433:153|469:146,1,74.9999992847443,8|2,3:2|0:1,0:0:0:0:
449,237,134498,1,2,3:0:0:0:
274,123,134670,1,2,0:1:0:0:
362,25,134843,6,0,L|285:35,1,49.9999976158143,4|0,3:2|0:0,0:0:0:0:
435,17,135188,1,2,3:1:0:0:
435,17,135360,1,0,3:0:0:0:
219,208,135533,6,0,P|258:206|317:199,1,74.9999992847443,4|0,3:0|0:0,0:0:0:0:
361,241,135877,1,2,3:0:0:0:
361,241,136050,1,0,0:0:0:0:
146,359,136222,6,0,P|143:307|128:232,1,99.9999952316285,4|2,0:0|0:3,0:0:0:0:
25,146,136739,1,8,3:0:0:0:
25,146,137084,1,8,3:0:0:0:
35,42,137257,1,2,3:0:0:0:
26,119,137429,1,0,0:0:0:0:
119,12,137602,6,0,L|129:71,1,49.9999976158143,4|8,0:0|0:3,0:0:0:0:
223,244,137946,2,0,L|232:179,1,49.9999976158143,4|8,0:0|0:3,0:0:0:0:
293,130,138291,5,8,3:2:0:0:
169,321,138464,1,0,0:0:0:0:
273,331,138636,1,2,3:0:0:0:
182,127,138808,1,0,0:0:0:0:
28,212,138981,6,0,P|77:211|144:219,1,99.9999952316285,8|2,3:2|3:0,0:0:0:0:
206,223,139498,1,0,3:0:0:0:
237,36,139670,6,0,L|163:27,1,74.9999992847443,8|0,3:2|0:0,0:0:0:0:
90,82,140015,1,2,3:0:0:0:
90,82,140188,1,0,3:0:0:0:
320,204,140360,1,8,3:2:0:0:
349,197,140446,1,0,0:0:0:0:
373,182,140533,1,0,3:0:0:0:
393,157,140619,1,0,0:0:0:0:
402,128,140705,1,2,3:0:0:0:
403,98,140791,1,0,3:0:0:0:
395,68,140877,1,0,3:0:0:0:
375,44,140964,1,0,3:0:0:0:
398,10,141050,6,0,L|311:42,1,74.9999992847443,4|0,3:0|0:0,0:0:0:0:
164,115,141395,1,2,3:3:0:0:
323,117,141567,1,0,0:0:0:0:
83,36,141739,2,0,P|155:78|234:82,1,149.999998569489,8|2,1:3|3:0,0:0:0:0:
253,156,142257,1,0,3:0:0:0:
75,276,142429,2,0,P|74:235|65:172,1,74.9999992847443,8|0,1:3|0:0,0:0:0:0:
154,318,142774,1,2,3:0:0:0:
154,318,142946,1,2,0:1:0:0:
406,236,143119,5,8,1:3:0:0:
474,213,143291,1,2,0:1:0:0:
406,236,143464,1,2,3:0:0:0:
337,255,143636,1,8,3:2:0:0:
232,297,143808,6,0,P|197:313|151:322,1,74.9999992847443,8|0,1:3|0:0,0:0:0:0:
12,249,144153,2,0,P|47:265|93:274,1,74.9999992847443,2|0,3:0|0:0,0:0:0:0:
111,371,144498,2,0,L|125:217,1,149.999998569489,8|2,1:3|3:0,0:0:0:0:
233,82,145015,1,8,3:0:0:0:
233,82,145360,5,8,3:0:0:0:
340,24,145533,1,2,3:0:0:0:
413,132,145705,1,0,3:0:0:0:
237,217,145877,5,8,1:3:0:0:
54,138,146050,1,2,0:1:0:0:
4,308,146222,2,0,P|35:289|76:273,1,74.9999992847443,2|2,3:0|0:1,0:0:0:0:
154,71,146567,6,0,P|145:44|138:22,1,29.9999976539613,4|0,1:0|0:0,0:0:0:0:
283,132,146912,5,2,3:0:0:0:
218,274,147084,1,0,3:0:0:0:
89,199,147257,2,0,P|150:200|250:199,1,149.999998569489,8|2,1:3|0:3,0:0:0:0:
465,205,147774,1,0,0:0:0:0:
304,322,147946,2,0,P|305:284|300:242,1,74.9999992847443,8|0,1:3|0:0,0:0:0:0:
386,58,148291,2,0,P|390:110|394:140,1,74.9999992847443,2|0,3:0|3:0,0:0:0:0:
182,333,148636,5,8,1:3:0:0:
93,294,148808,1,0,0:0:0:0:
7,331,148981,5,2,3:0:0:0:
76,376,149153,1,2,3:1:0:0:
72,146,149326,6,0,L|-11:177,1,74.9999992847443,12|0,1:3|0:0,0:0:0:0:
162,261,149670,1,2,3:0:0:0:
239,92,149843,1,0,3:0:0:0:
103,35,150015,2,0,P|106:119|150:193,1,149.999998569489,8|2,1:3|3:0,0:0:0:0:
237,215,150533,1,0,0:0:0:0:
511,117,150705,6,0,P|486:107|452:99,1,49.9999976158143,8|0,1:3|0:0,0:0:0:0:
393,80,151050,1,2,3:0:0:0:
393,80,151222,1,0,3:0:0:0:
293,269,151395,6,0,P|332:255|423:237,1,119.999994277954,4|0,0:0|0:0,0:0:0:0:
295,184,152084,6,0,L|232:172,1,49.9999976158143,2|0,0:0|0:0,0:0:0:0:
174,225,152774,2,0,P|122:229|72:205,1,99.9999952316285,2|0,0:0|0:0,0:0:0:0:
78,210,153808,1,0,0:0:0:0:
26,161,154153,2,0,P|20:125|24:97,1,49.9999976158143
65,35,154843,6,0,B|176:11|148:65|275:38,1,199.999990463257,2|2,0:0|0:0,0:0:0:0:
262,40,156567,1,0,0:0:0:0:
344,80,156912,2,0,L|337:144,1,49.9999976158143,2|0,0:0|0:0,0:0:0:0:
464,219,157602,6,0,L|467:146,1,49.9999976158143,2|0,0:0|0:0,0:0:0:0:
394,204,158291,2,0,P|347:220|311:255,1,99.9999952316285,2|0,0:0|0:0,0:0:0:0:
311,255,159326,1,0,0:0:0:0:
271,318,159670,2,0,L|215:302,1,49.9999976158143
139,355,160360,5,2,0:0:0:0:
139,355,160705,1,0,0:0:0:0:
9,321,161050,2,0,L|60:304,1,49.9999976158143
117,257,161739,2,0,B|134:178|96:188|113:78,1,174.99999165535,2|0,0:0|0:0,0:0:0:0:
184,33,163119,6,0,P|223:35|271:27,1,74.9999992847443,8|2,0:3|0:0,0:0:0:0:
289,53,163636,1,2,0:0:0:0:
314,68,163808,2,0,L|307:115,1,37.4999996423721,0|8,0:0|0:3,0:0:0:0:
376,142,164153,1,2,0:0:0:0:
404,156,164326,1,0,0:0:0:0:
429,171,164498,2,0,L|422:218,1,37.4999996423721,8|2,0:3|0:0,0:0:0:0:
501,319,164843,2,0,L|469:286,1,37.4999996423721,2|0,0:0|0:0,0:0:0:0:
328,286,165188,2,0,L|374:279,1,37.4999996423721,0|8,0:0|0:3,0:0:0:0:
410,348,165533,1,2,0:0:0:0:
410,348,165705,1,2,0:0:0:0:
261,348,165877,6,0,P|253:304|254:255,1,74.9999992847443,8|2,0:3|0:0,0:0:0:0:
172,209,166395,1,2,0:0:0:0:
105,246,166567,2,0,P|108:288|109:310,1,37.4999996423721,0|8,0:0|0:3,0:0:0:0:
243,175,166912,2,0,P|239:142|238:124,1,37.4999996423721,2|0,0:0|0:0,0:0:0:0:
255,253,167257,5,8,0:3:0:0:
335,139,167429,1,2,0:1:0:0:
229,54,167602,1,0,0:0:0:0:
146,150,167774,1,2,0:0:0:0:
416,228,167946,6,0,L|456:220,2,24.9999997615814,2|2|2,0:3|0:0|0:0,0:0:0:0:
361,281,168291,2,0,L|321:289,2,24.9999997615814,2|2|0,0:0|0:0|0:0,0:0:0:0:
456,346,168636,6,0,P|424:345|397:348,1,49.9999976158143,4|0,0:0|0:0,0:0:0:0:
182,180,169326,6,0,P|182:138|171:20,1,149.999998569489,0|8,0:0|0:0,0:0:0:0:
172,30,170360,1,8,0:3:0:0:
259,26,170533,1,0,0:0:0:0:
379,13,170705,2,0,L|327:18,1,37.4999996423721,4|0,0:3|0:0,0:0:0:0:
257,113,171050,2,0,L|296:105,1,37.4999996423721,2|0,0:0|0:0,0:0:0:0:
468,95,171395,5,2,0:0:0:0:
468,95,171739,1,2,0:0:0:0:
292,247,172084,1,8,0:0:0:0:
292,247,172774,6,0,P|288:215|286:196,1,37.4999996423721,2|0,0:0|0:0,0:0:0:0:
412,68,173119,6,0,P|417:115|418:132,1,62.4999994039536,2|0,0:3|0:0,0:0:0:0:
435,149,173464,6,0,L|413:150,1,16.6666658719381,2|0,3:1|3:0,0:0:0:0:
435,174,173579,2,0,L|413:168,1,16.6666658719381
432,196,173693,2,0,L|412:188,1,16.6666658719381
424,218,173808,2,0,L|405:213,1,16.6666658719381
415,243,173923,2,0,L|389:238,1,16.6666658719381
402,266,174038,2,0,L|374:255,1,16.6666658719381
385,284,174153,6,0,P|319:301|286:321,1,84.9999975681305,4|0,1:3|0:0,0:0:0:0:
233,382,174498,1,4,3:0:0:0:
191,260,174670,1,0,0:0:0:0:
55,333,174843,6,0,P|103:345|147:345,1,84.9999975681305,2|0,3:1|0:0,0:0:0:0:
133,143,175188,2,0,P|90:144|49:155,1,84.9999975681305,8|8,3:2|3:2,0:0:0:0:
190,214,175533,2,0,B|278:203|262:251|376:232,1,169.999995136261,4|4,3:0|3:0,0:0:0:0:
353,9,176050,1,0,0:0:0:0:
294,54,176222,2,0,L|309:144,1,84.9999975681305,2|0,3:1|0:0,0:0:0:0:
497,184,176567,1,8,3:2:0:0:
384,95,176739,1,8,3:2:0:0:
368,349,176912,6,0,P|406:313|414:194,1,169.999995136261,4|4,3:3|3:0,0:0:0:0:
216,107,177429,1,0,0:0:0:0:
134,149,177602,2,0,P|129:189|141:233,1,84.9999975681305,2|0,3:1|0:0,0:0:0:0:
164,342,177946,1,8,3:2:0:0:
233,190,178119,1,8,3:2:0:0:
46,226,178291,5,4,3:0:0:0:
56,251,178636,1,4,3:0:0:0:
62,279,178981,2,0,L|150:258,1,84.9999975681305,4|8,3:2|0:3,0:0:0:0:
180,125,179326,2,0,L|157:38,1,84.9999975681305,8|8,3:2|0:3,0:0:0:0:
59,149,179670,5,4,3:0:0:0:
294,253,179843,1,0,0:0:0:0:
51,233,180015,1,4,3:0:0:0:
263,142,180188,1,0,0:0:0:0:
210,358,180360,2,0,P|200:309|184:265,1,84.9999975681305,2|0,3:1|0:0,0:0:0:0:
396,195,180705,2,0,P|379:240|372:290,1,84.9999975681305,8|8,3:2|3:2,0:0:0:0:
491,209,181050,2,0,P|409:178|366:101,1,169.999995136261,4|4,3:0|3:0,0:0:0:0:
367,110,181739,2,0,L|463:97,1,84.9999975681305,2|0,3:1|0:0,0:0:0:0:
310,180,182084,2,0,L|214:193,1,84.9999975681305,8|8,3:2|3:2,0:0:0:0:
78,47,182429,6,0,P|167:45|232:103,1,169.999995136261,4|4,3:0|3:0,0:0:0:0:
99,268,182946,1,0,0:0:0:0:
99,268,183033,1,0,0:0:0:0:
99,268,183119,2,0,P|88:204|94:162,1,84.9999975681305,2|0,3:1|0:0,0:0:0:0:
277,265,183464,2,0,P|277:307|267:348,1,84.9999975681305,8|8,3:2|3:2,0:0:0:0:
408,200,183808,5,4,3:0:0:0:
226,140,183981,1,2,0:1:0:0:
361,278,184153,1,2,3:0:0:0:
361,278,184326,1,2,0:0:0:0:
288,56,184498,2,0,L|180:58,1,84.9999975681305,4|2,0:0|0:1,0:0:0:0:
203,57,184757,1,0,0:0:0:0:
203,57,184843,1,2,3:0:0:0:
129,31,185015,1,8,3:2:0:0:
16,207,185188,6,0,P|72:169|189:160,1,169.999995136261,4|4,3:0|3:0,0:0:0:0:
352,269,185705,1,0,0:0:0:0:
250,131,185877,1,2,3:1:0:0:
190,230,186050,5,0,0:0:0:0:
402,179,186222,1,8,3:2:0:0:
238,309,186395,1,8,3:2:0:0:
343,119,186567,2,0,P|350:82|357:18,1,84.9999975681305,4|0,3:0|0:0,0:0:0:0:
508,193,186912,2,0,P|497:238|490:296,1,84.9999975681305,4|0,3:0|0:0,0:0:0:0:
434,338,187257,5,2,3:1:0:0:
330,345,187429,1,0,0:0:0:0:
246,265,187602,1,8,3:2:0:0:
237,153,187774,1,8,3:2:0:0:
0,314,187946,6,0,P|63:313|148:239,1,169.999995136261,4|4,3:0|3:0,0:0:0:0:
396,214,188464,1,0,0:0:0:0:
396,214,188636,2,0,L|304:200,1,84.9999975681305,2|0,3:1|0:0,0:0:0:0:
115,90,188981,2,0,L|207:76,1,84.9999975681305,8|8,3:2|3:2,0:0:0:0:
372,24,189326,5,4,3:0:0:0:
440,63,189498,1,0,0:0:0:0:
505,109,189670,1,4,3:0:0:0:
140,360,190015,5,2,3:1:0:0:
76,318,190187,1,0,0:0:0:0:
14,277,190360,1,8,3:2:0:0:
14,277,190533,1,8,3:2:0:0:
189,286,190705,6,0,P|264:293|371:242,1,169.999995136261,4|4,3:0|3:0,0:0:0:0:
414,213,191222,1,0,0:0:0:0:
512,186,191395,2,0,P|465:161|428:119,1,84.9999975681305,2|0,3:1|0:0,0:0:0:0:
342,22,191739,2,0,P|356:86|376:118,1,84.9999975681305,8|8,3:2|3:2,0:0:0:0:
255,218,192084,2,0,L|268:43,1,169.999995136261,4|4,3:0|3:0,0:0:0:0:
157,70,192602,5,0,0:0:0:0:
34,140,192774,1,2,3:1:0:0:
167,213,192946,1,0,0:0:0:0:
119,147,193119,2,0,P|91:199|88:233,1,84.9999975681305,8|8,3:2|3:2,0:0:0:0:
335,333,193464,2,0,P|350:271|322:149,1,169.999995136261,4|4,3:0|3:0,0:0:0:0:
255,252,193981,1,0,0:0:0:0:
201,344,194153,6,0,P|153:326|116:324,1,84.9999975681305,2|0,3:1|0:0,0:0:0:0:
6,232,194498,2,0,P|48:227|87:211,1,84.9999975681305,8|8,3:2|3:2,0:0:0:0:
191,111,194843,1,4,3:0:0:0:
191,111,195188,5,2,0:3:0:0:
248,38,195360,1,2,0:1:0:0:
280,46,195446,1,0,0:0:0:0:
313,54,195533,2,0,L|458:78,1,131.249998748303,4|0,0:0|0:0,0:0:0:0:
442,75,196222,6,0,P|425:120|422:170,1,84.9999975681305,4|0,1:0|0:0,0:0:0:0:
289,282,196567,2,0,P|337:274|372:258,1,84.9999975681305,8|0,3:0|0:0,0:0:0:0:
495,373,196912,2,0,P|473:320|497:197,1,169.999995136261,8|8,3:2|3:0,0:0:0:0:
284,101,197429,1,0,0:0:0:0:
284,101,197602,2,0,P|316:155|319:195,1,84.9999975681305,0|0,3:0|0:0,0:0:0:0:
156,267,197946,2,0,P|124:213|121:173,1,84.9999975681305,8|0,3:0|0:0,0:0:0:0:
97,345,198291,2,0,P|137:295|234:261,1,169.999995136261,8|0,3:2|3:0,0:0:0:0:
307,241,198808,1,0,0:0:0:0:
6,183,198981,6,0,P|-4:136|2:97,1,84.9999975681305,2|0,3:0|0:0,0:0:0:0:
268,81,199326,2,0,P|276:135|269:177,1,84.9999975681305,8|0,3:0|0:0,0:0:0:0:
127,93,199670,2,0,P|181:82|260:-1,1,169.999995136261,8|0,3:2|3:0,0:0:0:0:
462,133,200188,1,0,3:0:0:0:
384,122,200360,2,0,P|364:64|366:24,1,84.9999975681305,2|0,3:0|3:0,0:0:0:0:
147,232,200705,2,0,P|208:218|287:138,1,169.999995136261,0|8,3:0|3:2,0:0:0:0:
493,263,201222,1,0,3:0:0:0:
337,335,201395,1,8,3:0:0:0:
350,184,201567,1,0,0:0:0:0:
394,268,201739,6,0,L|439:348,1,84.9999975681305,2|0,3:1|0:0,0:0:0:0:
240,285,202084,2,0,L|226:379,1,84.9999975681305,2|0,3:2|0:0,0:0:0:0:
87,244,202429,2,0,L|36:333,1,84.9999975681305,8|0,3:2|0:0,0:0:0:0:
156,311,202774,5,2,3:2:0:0:
156,311,203119,1,2,3:1:0:0:
263,181,203291,1,0,0:0:0:0:
330,341,203464,1,2,3:2:0:0:
251,271,203636,1,0,3:0:0:0:
263,181,203808,2,0,B|260:86|296:114|294:9,1,169.999995136261,8|2,3:2|3:0,0:0:0:0:
214,26,204326,1,0,3:0:0:0:
352,164,204498,6,0,P|395:177|445:179,1,84.9999975681305,2|0,3:1|0:0,0:0:0:0:
179,198,204843,2,0,P|136:201|96:213,1,84.9999975681305,2|0,3:2|0:0,0:0:0:0:
320,262,205188,6,0,P|372:270|410:282,1,84.9999975681305,8|0,3:2|0:0,0:0:0:0:
220,318,205533,2,0,P|177:335|143:366,1,84.9999975681305,2|0,3:2|0:0,0:0:0:0:
10,276,205877,5,2,3:0:0:0:
91,131,206050,1,2,3:2:0:0:
250,195,206222,1,2,3:2:0:0:
250,195,206567,1,8,3:2:0:0:
160,336,206739,1,2,3:2:0:0:
10,276,206912,2,0,P|53:264|96:266,1,84.9999975681305,2|0,3:0|0:0,0:0:0:0:
325,276,207257,6,0,P|334:222|303:102,1,169.999995136261,4|0,3:0|3:0,0:0:0:0:
148,25,207774,1,0,0:0:0:0:
77,51,207946,2,0,P|57:98|50:235,1,169.999995136261,8|0,3:2|3:0,0:0:0:0:
203,316,208464,1,0,3:0:0:0:
203,215,208636,2,0,L|193:129,1,84.9999975681305,0|0,3:0|0:0,0:0:0:0:
271,31,208981,2,0,L|365:21,1,84.9999975681305,0|0,3:0|0:0,0:0:0:0:
511,140,209326,2,0,P|448:103|338:112,1,169.999995136261,8|0,3:2|3:0,0:0:0:0:
285,164,209843,1,0,3:0:0:0:
374,351,210015,6,0,P|407:313|412:188,1,169.999995136261,4|0,3:0|3:0,0:0:0:0:
245,81,210533,1,0,0:0:0:0:
173,275,210705,2,0,B|277:286|247:237|342:250,1,169.999995136261,8|0,3:2|3:0,0:0:0:0:
221,175,211222,1,0,3:0:0:0:
221,175,211395,2,0,P|172:183|125:181,1,84.9999975681305,0|0,3:0|0:0,0:0:0:0:
55,48,211739,2,0,P|104:40|151:42,1,84.9999975681305,0|0,3:0|3:0,0:0:0:0:
21,138,212084,5,8,3:2:0:0:
164,272,212257,1,0,3:0:0:0:
229,92,212429,1,2,3:1:0:0:
21,138,212602,1,0,0:0:0:0:
44,296,212774,6,0,P|61:257|86:219,1,84.9999975681305,6|0,3:0|0:0,0:0:0:0:
304,337,213119,2,0,P|287:298|262:260,1,84.9999975681305,0|0,3:0|0:0,0:0:0:0:
155,172,213464,6,0,P|170:124|190:89,1,84.9999975681305,10|0,3:2|0:0,0:0:0:0:
416,217,213808,2,0,P|401:169|381:134,1,84.9999975681305,0|0,3:2|0:0,0:0:0:0:
263,104,214153,5,2,3:1:0:0:
413,34,214326,1,0,0:0:0:0:
307,191,214498,1,2,3:2:0:0:
310,12,214670,1,2,3:2:0:0:
503,115,214843,6,0,P|464:85|341:92,1,169.999995136261,8|0,3:2|3:0,0:0:0:0:
216,184,215360,1,0,3:0:0:0:
328,290,215533,2,0,P|370:280|421:289,1,84.9999975681305,6|0,3:0|0:0,0:0:0:0:
502,199,215877,2,0,P|460:209|409:200,1,84.9999975681305,0|0,3:0|0:0,0:0:0:0:
217,264,216222,2,0,L|233:348,1,84.9999975681305,10|0,3:2|0:0,0:0:0:0:
354,80,216567,2,0,L|335:179,1,84.9999975681305,0|0,3:0|3:0,0:0:0:0:
176,14,216912,5,2,3:0:0:0:
253,119,217084,1,2,0:0:0:0:
121,183,217257,2,0,L|141:83,1,84.9999975681305,2|0,3:2|0:0,0:0:0:0:
379,256,217602,2,0,L|359:356,1,84.9999975681305,10|2,3:2|3:2,0:0:0:0:
246,207,217946,1,4,0:0:0:0:
410,127,218119,1,0,3:0:0:0:
256,327,218291,6,0,L|175:320,1,79.9999961853028,2|2,0:0|0:0,0:0:0:0:
100,309,218981,1,2,0:0:0:0:
100,309,219326,1,2,0:0:0:0:
28,204,219670,2,0,L|109:211,1,79.9999961853028,2|2,0:0|0:0,0:0:0:0:
184,222,220360,1,2,0:0:0:0:
184,222,220705,1,2,0:0:0:0:
272,137,221050,6,0,L|347:130,1,74.9999992847443,2|2,0:0|0:0,0:0:0:0:
428,119,221740,1,2,0:0:0:0:
428,119,222085,1,2,0:0:0:0:
500,14,222429,2,0,L|426:22,1,74.9999992847443,2|2,0:3|0:1,0:0:0:0:
395,24,222946,1,2,0:0:0:0:
365,28,223119,2,0,L|372:70,1,37.4999996423721,2|2,0:0|0:1,0:0:0:0:
428,119,223464,2,0,L|470:111,1,37.4999996423721,2|2,0:0|0:0,0:0:0:0:
386,189,223808,6,0,P|349:190|305:186,1,69.9999945259097,2|2,0:0|0:0,0:0:0:0:
234,198,224498,1,2,0:0:0:0:
234,198,224843,1,2,0:0:0:0:
178,290,225188,2,0,P|215:289|259:293,1,69.9999945259097,2|2,0:0|0:0,0:0:0:0:
330,281,225878,1,2,0:0:0:0:
330,281,226223,1,2,0:0:0:0:
141,191,226567,6,0,P|138:160|141:126,1,64.9999939250949,2|0,0:0|0:0,0:0:0:0:
50,40,227257,6,0,P|55:73|54:113,1,59.9999953079226,2|0,0:0|0:0,0:0:0:0:
201,41,228027,6,0,P|228:41|264:46,1,54.9999990558624,2|2,0:0|0:0,0:0:0:0:
260,50,229412,5,0,2:0:0:0:
260,50,230518,5,2,2:3:0:0:
319,142,230746,6,0,L|313:158,1,12.4999994039536,2|0,2:1|2:0,2:0:0:0:
256,192,230832,12,0,236263,0:0:0:0:
