osu file format v9

[General]
AudioFilename: Kasane Teto - Ochame Kinou.mp3
AudioLeadIn: 1000
PreviewTime: 6640
Countdown: 0
SampleSet: Soft
StackLeniency: 0.4
Mode: 0
LetterboxInBreaks: 0

[Editor]
DistanceSpacing: 0.8
BeatDivisor: 4
GridSize: 4

[Metadata]
Title:Ochame Kinou
Artist:Kasane Teto
Creator:abalee
Version:Normal
Source:Nico Nico Douga
Tags:UTAU Kanpakyin gojimajiP lamazeP

[Difficulty]
HPDrainRate:4
CircleSize:4
OverallDifficulty:4
ApproachRate:4
SliderMultiplier:1
SliderTickRate:1

[Events]
//Background and Video events
0,0,"BG.png"
//Break Periods
2,20340,22020
//Storyboard Layer 0 (Background)
Sprite,Background,Centre,"BG.png",320,240 F,0,0,90140,0
Sprite,Background,Centre,"SB\A1.jpg",320,240 F,0,-1000,940,1
Animation,Background,Centre,"SB\A.jpg",320,240,2,800,LoopForever M,0,940,5740,320,240
Animation,Background,Centre,"SB\A.jpg",320,240,2,300,LoopForever M,0,5740,6540,320,240
Sprite,Background,Centre,"SB\A0.jpg",320,240 F,0,6540,6740,1
Animation,Background,Centre,"SB\B.jpg",320,240,5,200,LoopForever M,0,6740,13340,320,240
Sprite,Background,Centre,"SB\B0.jpg",320,240 F,0,13340,13540,1
Animation,Background,Centre,"SB\C.jpg",320,240,2,300,LoopForever M,0,13540,16340,320,240
Sprite,Background,Centre,"SB\D0.jpg",320,240 F,0,16340,16540,1
Sprite,Background,Centre,"SB\D1.jpg",320,240 F,0,16540,16740,1
Sprite,Background,Centre,"SB\D2.jpg",320,240 F,0,16740,18140,1
Sprite,Background,Centre,"SB\E0.jpg",320,240 F,0,18140,23140,1
Sprite,Background,Centre,"SB\F0.jpg",320,240 F,0,23140,26140,1
Sprite,Background,Centre,"SB\F1.jpg",320,240 F,0,26140,29540,1
Sprite,Background,Centre,"SB\G0.jpg",320,240 F,0,29540,31340,1
Sprite,Background,Centre,"SB\G1.jpg",320,240 F,0,31340,34540,1
Sprite,Background,Centre,"SB\G2.jpg",320,240 F,0,34540,35040,1
Sprite,Background,Centre,"SB\G3.jpg",320,240 F,0,34940,35340,1
Sprite,Background,Centre,"SB\G4.jpg",320,240 F,0,35340,35940,1
Sprite,Background,Centre,"SB\H0.jpg",320,240 F,0,35940,40340,1
Sprite,Background,Centre,"SB\I0.jpg",320,240 F,0,40340,42340,1
Sprite,Background,Centre,"SB\J0.jpg",320,240 F,0,42340,45540,1
Sprite,Background,Centre,"SB\J1.jpg",320,240 F,0,45540,48740,1
Sprite,Background,Centre,"SB\K0.jpg",320,240 F,0,48740,50340,1
Sprite,Background,Centre,"SB\K1.jpg",320,240 F,0,50340,51940,1
Sprite,Background,Centre,"SB\K2.jpg",320,240 F,0,51940,53540,1
Sprite,Background,Centre,"SB\K3.jpg",320,240 F,0,53540,54940,1
Sprite,Background,Centre,"SB\L0.jpg",320,240 F,0,54940,60140,1
Sprite,Background,Centre,"SB\L1.jpg",320,240 F,0,60140,60440,1
Sprite,Background,Centre,"SB\L2.jpg",320,240 F,0,60440,60740,1
Sprite,Background,Centre,"SB\L3.jpg",320,240 F,0,60740,61140,1
Animation,Background,Centre,"SB\B.jpg",320,240,5,200,LoopForever M,0,61140,67740,320,240
Sprite,Background,Centre,"SB\B0.jpg",320,240 F,0,67740,67940,1
Animation,Background,Centre,"SB\C.jpg",320,240,2,300,LoopForever M,0,67940,70740,320,240
Sprite,Background,Centre,"SB\D0.jpg",320,240 F,0,70740,70940,1
Sprite,Background,Centre,"SB\D1.jpg",320,240 F,0,70940,71140,1
Sprite,Background,Centre,"SB\D2.jpg",320,240 F,0,71140,72540,1
Sprite,Background,Centre,"SB\E0.jpg",320,240 F,0,72540,74940,1
Sprite,Background,Centre,"SB\M0.jpg",320,240 F,0,74940,75840,1
Sprite,Background,Centre,"SB\M1.jpg",320,240 F,0,75840,75940,1
Sprite,Background,Centre,"SB\M2.jpg",320,240 F,0,75940,80340,1
Sprite,Background,Centre,"SB\N0.jpg",320,240 F,0,80340,83140,1
Sprite,Background,Centre,"SB\O0.jpg",320,240 F,0,83140,85740,1
Sprite,Background,Centre,"SB\O1.jpg",320,240 F,0,85740,90140,1 F,0,90640,91640,1,0
//Storyboard Layer 1 (Fail)
//Storyboard Layer 2 (Pass)
//Storyboard Layer 3 (Foreground)
//Storyboard Sound Samples
//Background Colour Transformations
3,100,255,255,255

[TimingPoints]
940,400,4,2,1,100,1,0
34340,-100,4,1,1,41,0,0
34740,-100,4,1,1,57,0,0
35140,-100,4,1,1,73,0,0
35540,-100,4,1,1,88,0,0
35940,-100,4,2,1,100,0,0
47140,-100,4,1,1,31,0,0
47540,-100,4,1,1,49,0,0
47940,-100,4,1,1,69,0,0
48340,-100,4,1,1,87,0,0
48740,-100,4,2,1,100,0,0
49140,-100,4,2,2,100,0,0
55140,-100,4,2,1,100,0,0
85540,-100,4,2,2,100,0,0
87540,-100,4,2,2,70,0,0
90040,-100,4,2,1,100,0,0

[Colours]
Combo1 : 0,128,192
Combo2 : 255,128,128

[HitObjects]
40,80,940,2,0,B|152:80,1,100,4|0
224,216,2140,1,0
304,216,2540,2,0,B|424:216,1,100,4|0
304,344,3740,1,0
224,344,4140,2,0,B|104:344,1,100,4|0
128,184,5340,1,0
208,184,5740,2,4,B|296:184,2,75
352,320,7340,6,0,B|400:264|400:168,2,150,4|0|0
304,256,8940,2,0,B|288:176|224:104,2,150,4|0|0
256,320,10540,2,0,B|184:344|88:320,2,150,4|0|0
224,248,12140,2,0,B|176:200|184:136,1,100,4|0
184,120,12740,2,0,B|352:120,1,150,0|4
414,120,13740,6,0,B|446:176|406:232,1,100,4|0
360,264,14540,1,0
248,152,15340,2,0,B|200:192|208:256,1,100,4|0
216,320,16140,1,0
80,240,16940,2,0,B|80:184|112:136,1,100,4|0
160,88,17740,1,0
320,88,18540,5,4
376,144,18940,1,0
376,144,19140,2,0,B|360:216|264:248,1,150
224,184,20140,1,4
224,64,23340,6,0,B|104:64,1,100,4|0
88,136,24140,2,0,B|200:136,1,100
176,216,24940,2,0,B|232:216,3,50
264,216,25740,2,0,B|376:216,1,100
400,288,26540,6,0,B|288:288,1,100
256,352,27340,2,0,B|144:352,1,100
128,280,28140,2,0,B|184:280,3,50
216,280,28940,2,0,B|232:224|216:176,1,100
160,120,29740,6,0,B|40:120,1,100
88,40,30540,2,0,B|192:40,1,100
240,96,31340,2,0,B|248:144,3,50
256,184,32140,2,0,B|304:200|360:192,1,100
432,184,32940,6,0,B|392:288,1,100
320,256,33740,2,0,B|280:360,1,100
208,336,34540,2,0,B|160:304,1,50
200,288,34940,2,0,B|184:240,1,50
224,240,35340,2,0,B|224:192,1,50
256,216,35740,2,0,B|272:168,1,50
288,128,36140,6,0,B|328:160|392:160,2,100,4|0|0
192,56,37540,1,0
192,56,37740,2,0,B|136:88|120:152,1,100
96,200,38540,1,0
96,200,38940,1,0
144,264,39340,6,0,B|168:320|232:336,2,100
232,184,40740,1,0
232,184,40940,2,0,B|352:160,1,100
408,148,41740,1,0
408,148,42140,1,0
368,80,42540,6,0,B|488:56,2,100
248,112,43940,1,0
248,112,44140,2,0,B|128:92,1,100
72,80,44940,1,0
60,160,45340,2,0,B|84:216,1,50
96,244,45740,6,0,B|156:264|204:260,1,100
236,260,46340,2,0,B|276:216,1,50
320,160,46940,1,0
260,108,47340,2,0,B|208:76,1,50
188,108,47740,2,0,B|128:108,1,50
152,148,48140,2,0,B|104:184,1,50
144,204,48540,2,0,B|128:256,2,50,0|0|4
204,256,49340,5,0
340,340,50140,2,0,B|404:340,2,50,0|0|4
260,340,50940,2,0,B|140:340,1,100,0|0
216,232,51940,1,0
216,232,52140,2,0,B|368:232,2,150,4|0|0
248,160,53740,2,0,B|140:160,1,100,4|0
68,160,54540,2,0,B|20:160,2,50,0|0|0
112,92,55340,5,4
264,40,56140,1,0
332,188,56940,1,4
180,232,57740,1,0
100,92,58540,2,0,B|148:76|204:92,3,100,4|0|0|0
272,112,60140,6,4,B|316:132|356:132,2,75
468,140,61740,6,0,B|500:196|460:252,1,100,4|0
408,284,62540,1,0
292,180,63340,2,0,B|244:220|252:284,1,100,4|0
260,348,64140,1,0
124,268,64940,2,0,B|124:212|156:164,1,100,4|0
204,116,65740,1,0
364,116,66540,1,4
420,172,66940,1,0
420,172,67140,2,0,B|404:244|308:276,1,150,0|4
240,292,68140,6,0,B|132:292,1,100,4|0
100,288,68740,2,0,B|80:208|116:140,1,150
168,80,69740,2,0,B|276:80,1,100,4|0
268,120,70340,2,0,B|240:192|284:276,1,150
336,320,71340,2,0,B|440:320,1,100,4|0
476,320,71940,2,0,B|496:256|460:168,1,150
392,136,72940,5,4
320,100,73340,1,0
244,76,73740,2,0,B|184:76,2,50
244,156,74540,2,0,B|288:176|288:224|232:232,1,100,4|0
180,196,75340,6,0,B|120:196,1,50
90,196,75740,1,0
100,276,76140,2,0,B|112:332,1,50
144,304,76540,2,0,B|188:344,1,50
196,300,76940,2,0,B|256:312,1,50
256,272,77340,2,0,B|312:260,1,50
312,220,77740,2,0,B|376:192|480:204,2,150
236,196,79340,2,0,B|172:156|80:160,2,150
296,144,80940,6,0,B|412:144,2,100,4|0|0
224,284,82540,2,0,B|116:284,2,100
304,284,83740,1,0
304,284,83940,2,0,B|328:204|296:124,1,150
380,136,84940,2,0,B|448:136,2,50
332,72,85740,6,0,B|228:72,1,100,4|4
232,72,86340,1,0
196,144,86740,1,4
196,144,86940,2,4,B|76:144,1,100
52,212,87740,6,0,B|16:284|56:360,1,150,4|4
92,356,88540,2,0,B|196:356,1,100,4|4
240,292,89340,2,0,B|322:291,2,75,4|4|4
240,292,90140,1,4
