osu file format v9

[General]
AudioFilename: Kasane Teto - Ochame Kinou.mp3
AudioLeadIn: 1000
PreviewTime: 6640
Countdown: 0
SampleSet: Soft
StackLeniency: 0.4
Mode: 0
LetterboxInBreaks: 0

[Editor]
DistanceSpacing: 1.2
BeatDivisor: 4
GridSize: 4

[Metadata]
Title:Ochame Kinou
Artist:Kasane Teto
Creator:abalee
Version:Insane
Source:Nico Nico Douga
Tags:UTAU Kanpakyin gojimajiP lamazeP

[Difficulty]
HPDrainRate:7
CircleSize:4
OverallDifficulty:7
ApproachRate:8
SliderMultiplier:1.4
SliderTickRate:1

[Events]
//Background and Video events
0,0,"BG.png"
//Break Periods
//Storyboard Layer 0 (Background)
Sprite,Background,Centre,"BG.png",320,240 F,0,0,90140,0
Sprite,Background,Centre,"SB\A1.jpg",320,240 F,0,-1000,940,1
Animation,Background,Centre,"SB\A.jpg",320,240,2,800,LoopForever M,0,940,5740,320,240
Animation,Background,Centre,"SB\A.jpg",320,240,2,300,LoopForever M,0,5740,6540,320,240
Sprite,Background,Centre,"SB\A0.jpg",320,240 F,0,6540,6740,1
Animation,Background,Centre,"SB\B.jpg",320,240,5,200,LoopForever M,0,6740,13340,320,240
Sprite,Background,Centre,"SB\B0.jpg",320,240 F,0,13340,13540,1
Animation,Background,Centre,"SB\C.jpg",320,240,2,300,LoopForever M,0,13540,16340,320,240
Sprite,Background,Centre,"SB\D0.jpg",320,240 F,0,16340,16540,1
Sprite,Background,Centre,"SB\D1.jpg",320,240 F,0,16540,16740,1
Sprite,Background,Centre,"SB\D2.jpg",320,240 F,0,16740,18140,1
Sprite,Background,Centre,"SB\E0.jpg",320,240 F,0,18140,23140,1
Sprite,Background,Centre,"SB\F0.jpg",320,240 F,0,23140,26140,1
Sprite,Background,Centre,"SB\F1.jpg",320,240 F,0,26140,29540,1
Sprite,Background,Centre,"SB\G0.jpg",320,240 F,0,29540,31340,1
Sprite,Background,Centre,"SB\G1.jpg",320,240 F,0,31340,34540,1
Sprite,Background,Centre,"SB\G2.jpg",320,240 F,0,34540,35040,1
Sprite,Background,Centre,"SB\G3.jpg",320,240 F,0,34940,35340,1
Sprite,Background,Centre,"SB\G4.jpg",320,240 F,0,35340,35940,1
Sprite,Background,Centre,"SB\H0.jpg",320,240 F,0,35940,40340,1
Sprite,Background,Centre,"SB\I0.jpg",320,240 F,0,40340,42340,1
Sprite,Background,Centre,"SB\J0.jpg",320,240 F,0,42340,45540,1
Sprite,Background,Centre,"SB\J1.jpg",320,240 F,0,45540,48740,1
Sprite,Background,Centre,"SB\K0.jpg",320,240 F,0,48740,50340,1
Sprite,Background,Centre,"SB\K1.jpg",320,240 F,0,50340,51940,1
Sprite,Background,Centre,"SB\K2.jpg",320,240 F,0,51940,53540,1
Sprite,Background,Centre,"SB\K3.jpg",320,240 F,0,53540,54940,1
Sprite,Background,Centre,"SB\L0.jpg",320,240 F,0,54940,60140,1
Sprite,Background,Centre,"SB\L1.jpg",320,240 F,0,60140,60440,1
Sprite,Background,Centre,"SB\L2.jpg",320,240 F,0,60440,60740,1
Sprite,Background,Centre,"SB\L3.jpg",320,240 F,0,60740,61140,1
Animation,Background,Centre,"SB\B.jpg",320,240,5,200,LoopForever M,0,61140,67740,320,240
Sprite,Background,Centre,"SB\B0.jpg",320,240 F,0,67740,67940,1
Animation,Background,Centre,"SB\C.jpg",320,240,2,300,LoopForever M,0,67940,70740,320,240
Sprite,Background,Centre,"SB\D0.jpg",320,240 F,0,70740,70940,1
Sprite,Background,Centre,"SB\D1.jpg",320,240 F,0,70940,71140,1
Sprite,Background,Centre,"SB\D2.jpg",320,240 F,0,71140,72540,1
Sprite,Background,Centre,"SB\E0.jpg",320,240 F,0,72540,74940,1
Sprite,Background,Centre,"SB\M0.jpg",320,240 F,0,74940,75840,1
Sprite,Background,Centre,"SB\M1.jpg",320,240 F,0,75840,75940,1
Sprite,Background,Centre,"SB\M2.jpg",320,240 F,0,75940,80340,1
Sprite,Background,Centre,"SB\N0.jpg",320,240 F,0,80340,83140,1
Sprite,Background,Centre,"SB\O0.jpg",320,240 F,0,83140,85740,1
Sprite,Background,Centre,"SB\O1.jpg",320,240 F,0,85740,90140,1 F,0,90640,91640,1,0
//Storyboard Layer 1 (Fail)
//Storyboard Layer 2 (Pass)
//Storyboard Layer 3 (Foreground)
Sprite,Foreground,Centre,"SB\2x.png",320,240 F,0,40840,41240,0,1 M,0,40840,42640,330,160 S,0,41740,41840,1,1.5 R,0,41740,41840,0,1 S,0,41840,41940,1.5,1 R,0,41840,41940,1,0 S,0,42140,42240,1,1.5 R,0,42140,42240,0,-1 S,0,42240,42340,1.5,1 R,0,42240,42340,-1,0 F,0,42340,42640,1,0
//Storyboard Sound Samples
//Background Colour Transformations
3,100,255,255,255

[TimingPoints]
940,400,4,2,1,100,1,0
5640,-100,4,2,0,61,0,0
5840,-100,4,2,0,83,0,0
6140,-100,4,2,0,100,0,0
6440,-100,4,2,1,100,0,0
20040,-100,4,2,2,71,0,0
22840,-100,4,2,1,100,0,0
34440,-100,4,1,0,40,0,0
34640,-100,4,1,0,51,0,0
34840,-100,4,1,0,61,0,0
35040,-100,4,1,0,70,0,0
35240,-100,4,1,0,80,0,0
35440,-100,4,1,0,91,0,0
35640,-100,4,1,0,100,0,0
35840,-100,4,1,0,69,0,0
36090,-100,4,2,1,100,0,0
41640,-50,4,1,1,31,0,0
42440,-100,4,2,1,100,0,0
47040,-100,4,1,0,31,0,0
47240,-100,4,1,0,41,0,0
47440,-100,4,1,0,51,0,0
47640,-100,4,1,0,61,0,0
47840,-100,4,1,0,70,0,0
48040,-100,4,1,0,79,0,0
48240,-100,4,1,0,91,0,0
48440,-100,4,1,0,100,0,0
48640,-100,4,1,0,71,0,0
48890,-100,4,2,1,100,0,0
49240,-100,4,2,2,100,0,0
60040,-100,4,2,1,61,0,0
60340,-100,4,2,1,78,0,0
60540,-100,4,2,1,100,0,0
60840,-100,4,2,1,100,0,0
68040,-100,4,2,1,100,0,0
75040,-100,4,2,2,100,0,0
80890,-100,4,2,1,100,0,0
81040,-100,4,2,2,100,0,0
86440,-100,4,1,0,82,0,0
86740,-100,4,1,0,71,0,0
87040,-100,4,1,0,51,0,0
87240,-100,4,2,2,70,0,0
90040,-100,4,2,1,100,0,0

[Colours]
Combo1 : 0,128,192
Combo2 : 255,128,128

[HitObjects]
48,344,940,2,0,B|48:256,2,70,4|0|8
128,328,1540,1,0
168,320,1640,1,0
248,328,1840,1,0
288,344,1940,1,0
376,344,2140,1,8
456,312,2340,1,0
456,232,2540,5,4
456,152,2740,1,0
384,200,2940,1,8
312,160,3140,2,0,B|256:128,1,35
224,200,3440,2,0,B|176:216,1,35
112,192,3740,2,0,B|32:192,1,70,8|0
40,112,4140,6,0,B|96:56,1,70,4|0
160,104,4540,2,0,B|200:104|248:80,1,70,8|0
264,64,4840,1,0
344,32,5040,1,0
384,48,5140,2,0,B|432:56|464:88,1,70,0|8
472,152,5540,1,0
384,184,5740,5,4
264,216,6040,1,4
144,256,6340,1,4
56,112,6740,5,0
96,184,6940,1,0
144,256,7140,1,0
184,328,7340,2,0,B|280:328,1,70,4|0
336,312,7740,1,8
416,288,7940,1,0
416,288,8040,2,0,B|456:240|440:168,1,105
416,112,8540,5,8
336,136,8740,1,0
352,56,8940,2,0,B|264:56,1,70,4|0
200,72,9340,1,8
120,104,9540,1,0
120,104,9640,2,0,B|88:176|104:232,1,105
120,288,10140,6,0,B|200:288,1,70,8|0
248,344,10540,1,4
312,288,10740,1,0
248,232,10940,1,8
312,176,11140,1,0
312,176,11240,2,0,B|368:200|432:168,1,105
456,104,11740,5,8
376,104,11940,1,0
296,104,12140,2,0,B|232:88|168:112,1,105,4|0
152,104,12540,1,8
72,104,12740,2,0,B|48:144|88:192,1,70
72,256,13140,2,0,B|72:336,1,70,0|4
440,326,13740,6,0,B|440:256,1,70,4|0
360,248,14140,1,8
400,176,14340,1,0
400,176,14440,1,0
320,176,14640,1,0
320,176,14740,6,0,B|224:176,1,70,0|8
208,104,15140,1,0
288,104,15340,2,0,B|288:16,1,70,4|0
208,32,15740,2,0,B|112:32,1,70,8|0
96,48,16040,2,0,B|72:104|104:168,1,105
112,224,16540,6,0,B|208:224,1,70,8|0
216,296,16940,2,0,B|120:296,2,70,4|0|8
296,328,17540,1,0
336,312,17640,1,0
416,288,17840,1,0
392,256,17940,5,0
472,232,18140,1,8
408,176,18340,2,0,B|360:96,1,70,0|4
336,40,18740,2,0,B|288:40,1,35
256,40,18940,2,0,B|176:40,2,70,8|0|0
232,120,19540,2,0,B|336:120,2,70,0|8|0
208,200,20140,5,4
288,200,20340,1,4
368,200,20540,2,0,B|368:288,1,70,8|0
336,296,20840,2,0,B|280:320|216:288,1,105,4|4
234,296,21340,1,8
160,256,21540,5,2
160,256,21640,1,2
160,256,21740,1,4
88,208,21940,1,4
160,168,22140,2,0,B|248:168,1,70,8|0
272,168,22440,2,0,B|296:120|264:48,1,105,4|4
272,66,22940,1,4
240,312,23340,6,0,B|312:344|384:312,1,140,4|8
432,256,23940,1,0
376,192,24140,2,0,B|296:168|232:200,1,140,0|8
176,256,24740,1,0
112,312,24940,2,0,B|24:288,1,70
88,224,25340,2,0,B|16:176,1,70,8|0
96,136,25740,2,0,B|72:96,1,35
160,80,26040,2,8,B|160:24,1,35,0|8
240,32,26340,1,0
320,48,26540,6,0,B|488:48,1,140,0|8
432,128,27140,1,0
400,208,27340,2,0,B|256:208,1,140,0|8
224,288,27940,1,0
192,368,28140,2,0,B|112:368,1,70
96,288,28540,2,0,B|8:288,1,70,8|0
56,208,28940,2,0,B|216:208,1,140,0|8
280,208,29540,1,0
336,272,29740,6,0,B|408:304|480:264,1,140,0|8
400,208,30340,1,0
336,144,30540,2,0,B|408:112|480:152,1,140,0|8
400,208,31140,1,0
336,272,31340,1,0
336,272,31540,1,0
280,336,31740,1,8
280,336,31940,1,0
208,296,32140,1,0
208,296,32240,1,0
128,320,32440,1,0
128,320,32540,1,8
56,280,32740,1,0
56,200,32940,6,0,B|64:120|144:80,1,140,0|8
208,64,33540,1,0
216,144,33740,2,0,B|192:224|96:248,1,140,0|8
56,280,34340,1,0
120,336,34540,5,0
184,288,34740,1,0
264,352,34940,1,0
264,236,35140,1,0
352,352,35340,1,0
352,188,35540,1,0
448,352,35740,1,0
448,352,35940,5,0
448,352,36040,1,0
448,352,36140,2,0,B|480:288|464:184,1,140,4|8
432,144,36740,1,0
376,80,36940,2,0,B|304:48|216:88,1,140,0|8
280,152,37540,2,0,B|376:152,2,70
192,152,38140,2,0,B|88:152,2,70,8|0|0
240,224,38740,1,8
240,224,38940,1,8
400,280,39340,6,0,B|424:352,2,70,0|0|8
320,248,39940,1,0
352,168,40140,2,0,B|320:88,2,70,0|0|8
432,200,40740,1,0
408,120,40940,1,0
376,40,41140,1,0
336,40,41240,1,0
296,40,41340,1,8
216,40,41540,1,0
192,120,41740,6,0,B|120:88|48:120,1,140,2|0
24,192,42140,2,0,B|104:232|176:192,1,140,2|0
200,272,42540,6,0,B|256:304|320:272,1,105
344,272,42940,1,8
296,200,43140,1,0
240,136,43340,2,0,B|296:112|360:136,1,105
384,136,43740,1,8
440,200,43940,1,0
464,120,44140,2,0,B|464:50,1,70
384,24,44540,2,0,B|384:104,1,70,8|0
304,88,44940,5,2
264,72,45040,1,2
224,56,45140,1,2
144,88,45340,1,8
104,72,45440,1,2
64,56,45540,1,2
40,136,45740,6,0,B|24:200|48:256,1,105
48,280,46140,1,8
96,352,46340,1,0
180,352,46540,2,0,B|260:352,2,70,0|0|8
140,272,47140,5,0
224,272,47340,1,0
140,192,47540,1,0
260,196,47740,1,0
140,112,47940,1,0
300,116,48140,1,0
140,32,48340,1,0
352,32,48540,1,0
352,32,48740,5,0
352,32,48840,1,0
352,32,48940,2,0,B|392:48|408:96,1,70,4|0
456,144,49340,1,4
448,184,49440,1,0
440,224,49540,1,0
420,304,49740,1,0
352,256,49940,2,0,B|368:176,1,70,0|4
288,160,50340,6,0,B|240:176,1,35
176,200,50640,2,0,B|136:184,1,35
56,184,50940,1,4
72,224,51040,1,0
88,264,51140,1,0
168,280,51340,2,0,B|200:352,2,70,0|0|4
248,264,51940,5,0
264,304,52040,1,0
280,344,52140,1,0
344,292,52340,2,0,B|372:356,1,70,0|4
428,288,52740,2,0,B|400:220,1,70
320,212,53140,1,0
348,180,53240,1,0
376,148,53340,1,4
424,80,53540,5,0
384,68,53640,1,0
344,76,53740,1,0
272,120,53940,1,0
232,112,54040,1,0
192,104,54140,1,4
152,96,54240,1,0
112,88,54340,1,0
32,116,54540,2,0,B|32:188,1,70
112,200,54940,1,4
64,272,55140,5,0
80,312,55240,1,0
96,352,55340,1,0
176,336,55540,2,0,B|144:256,1,70,0|4
232,272,55940,2,0,B|216:232,1,35
248,208,56140,2,0,B|232:176,1,35
256,152,56340,2,0,B|232:112,2,35,0|0|4
280,72,56740,6,0,B|336:72,1,35
360,72,56940,2,0,B|344:112|368:168,1,70
400,216,57340,1,4
456,280,57540,1,0
416,296,57640,1,0
376,312,57740,1,0
336,328,57840,1,0
296,344,57940,2,0,B|200:344,1,70,0|4
160,296,58340,6,0,B|96:296,2,35
184,216,58740,2,0,B|224:216,2,35,0|0|4
144,144,59140,2,0,B|64:144,1,70
104,64,59540,2,0,B|168:64,1,35
184,64,59740,2,0,B|224:64,1,35,4|0
336,112,60140,5,4
272,216,60440,1,4
216,328,60740,1,4
48,328,61140,5,0
128,328,61340,1,0
216,328,61540,1,0
296,328,61740,1,4
296,328,61940,1,0
376,328,62140,2,0,B|464:328,1,70,8|0
472,296,62440,2,0,B|496:240|464:176,1,105
384,192,62940,5,8
304,192,63140,1,0
224,192,63340,1,4
224,192,63540,1,0
144,192,63740,2,0,B|64:192,1,70,8|0
48,160,64040,2,0,B|24:104|58:43,1,105
128,56,64540,5,8
208,56,64740,1,0
288,56,64940,1,4
288,56,65140,1,0
368,56,65340,2,0,B|440:56,1,70,8|0
464,88,65640,2,0,B|488:144|448:216,1,105
376,192,66140,5,8
296,192,66340,1,0
216,192,66540,2,0,B|248:248|208:312,1,105,4|0
192,320,66940,2,0,B|104:320,2,70,8|0|0
272,320,67540,2,0,B|352:320,1,70,0|4
240,64,68140,6,0,B|160:64,1,70,4|0
88,64,68540,1,8
48,136,68740,2,0,B|32:184,1,35
112,208,69040,2,0,B|128:248,1,35
88,320,69340,1,8
168,312,69540,1,0
248,320,69740,5,4
328,312,69940,1,0
408,320,70140,1,8
448,248,70340,2,0,B|464:208,1,35
408,152,70640,2,0,B|392:112,1,35
408,40,70940,1,8
328,64,71140,2,0,B|248:32,1,70,0|4
184,64,71540,6,0,B|96:88,1,70,0|8
48,40,71940,1,0
48,40,72040,1,0
48,120,72240,1,0
48,120,72340,2,0,B|48:200,1,70,0|8
48,272,72740,1,0
48,272,72940,2,0,B|104:296|176:264,1,105,4|0
152,232,73340,2,0,B|152:160,2,70,8|0|0
232,162,73940,2,0,B|232:232,2,70,0|8|0
312,232,74540,2,0,B|312:152,2,70,4|0|8
312,316,75140,5,0
272,316,75240,1,0
232,316,75340,2,0,B|232:228,2,70,4|0|8
192,316,75840,1,0
152,316,75940,1,0
72,316,76140,2,0,B|48:220,1,70,4|0
96,180,76540,1,8
104,140,76640,1,0
112,100,76740,1,0
184,140,76940,2,0,B|203:72,2,70,4|0|8
264,140,77540,6,0,B|248:176|240:220,1,70,0|4
392,135,77940,2,0,B|408:104|416:60,1,70,0|8
512,196,78340,2,0,B|492:232|488:284,1,70,0|4
464,340,78740,6,0,B|384:340,1,70,0|8
312,340,79140,1,0
312,340,79340,2,0,B|216:340,1,70,4|0
160,340,79740,2,0,B|64:340,1,70,8|0
48,340,80040,2,0,B|0:340,1,35,0|4
48,268,80340,1,0
20,192,80540,1,8
48,112,80740,5,0
72,72,80840,1,0
96,32,80940,2,0,B|176:32,1,70,4|0
248,32,81340,1,8
208,104,81540,1,0
208,104,81640,1,0
208,104,81740,1,4
292,104,81940,6,0,B|380:104,1,70,0|8
224,176,82340,2,0,B|144:176,1,70,0|4
292,240,82740,2,0,B|380:240,1,70,0|8
224,304,83140,2,0,B|128:304,1,70,0|4
292,368,83540,6,0,B|364:368,1,70,0|8
416,304,83940,2,0,B|496:304,2,70,0|4|0
376,232,84540,2,0,B|416:168|368:96,1,140,8|4
312,40,85140,2,0,B|224:40,1,70,0|8
160,40,85540,5,0
160,40,85640,1,0
160,40,85740,2,0,B|72:40,1,70,4|0
56,116,86140,2,0,B|136:116,1,70,8|0
144,196,86540,1,0
168,236,86640,1,0
232,180,86840,1,0
244,140,86940,1,0
320,180,87140,1,0
400,180,87340,5,4
400,180,87540,1,4
480,180,87740,2,0,B|480:268,1,70,8|0
448,276,88040,2,0,B|392:300|328:268,1,105,4|4
346,276,88540,1,8
272,236,88740,5,2
272,236,88840,1,2
272,236,88940,1,4
200,188,89140,1,4
272,148,89340,2,0,B|360:148,1,70,8|0
384,148,89640,2,0,B|408:100|376:28,1,105,4|4
384,46,90140,1,4
