osu file format v9

[General]
AudioFilename: Kasane Teto - Ochame Kinou.mp3
AudioLeadIn: 1000
PreviewTime: 6640
Countdown: 0
SampleSet: Soft
StackLeniency: 0.4
Mode: 0
LetterboxInBreaks: 0

[Editor]
DistanceSpacing: 1.2
BeatDivisor: 4
GridSize: 4

[Metadata]
Title:Ochame Kinou
Artist:Kasane Teto
Creator:abalee
Version:Hard
Source:Nico Nico Douga
Tags:UTAU Kanpakyin gojimajiP lamazeP

[Difficulty]
HPDrainRate:5
CircleSize:4
OverallDifficulty:6
ApproachRate:7
SliderMultiplier:1.4
SliderTickRate:1

[Events]
//Background and Video events
0,0,"BG.png"
//Break Periods
//Storyboard Layer 0 (Background)
Sprite,Background,Centre,"BG.png",320,240 F,0,0,90140,0
Sprite,Background,Centre,"SB\A1.jpg",320,240 F,0,-1000,940,1
Animation,Background,Centre,"SB\A.jpg",320,240,2,800,LoopForever M,0,940,5740,320,240
Animation,Background,Centre,"SB\A.jpg",320,240,2,300,LoopForever M,0,5740,6540,320,240
Sprite,Background,Centre,"SB\A0.jpg",320,240 F,0,6540,6740,1
Animation,Background,Centre,"SB\B.jpg",320,240,5,200,LoopForever M,0,6740,13340,320,240
Sprite,Background,Centre,"SB\B0.jpg",320,240 F,0,13340,13540,1
Animation,Background,Centre,"SB\C.jpg",320,240,2,300,LoopForever M,0,13540,16340,320,240
Sprite,Background,Centre,"SB\D0.jpg",320,240 F,0,16340,16540,1
Sprite,Background,Centre,"SB\D1.jpg",320,240 F,0,16540,16740,1
Sprite,Background,Centre,"SB\D2.jpg",320,240 F,0,16740,18140,1
Sprite,Background,Centre,"SB\E0.jpg",320,240 F,0,18140,23140,1
Sprite,Background,Centre,"SB\F0.jpg",320,240 F,0,23140,26140,1
Sprite,Background,Centre,"SB\F1.jpg",320,240 F,0,26140,29540,1
Sprite,Background,Centre,"SB\G0.jpg",320,240 F,0,29540,31340,1
Sprite,Background,Centre,"SB\G1.jpg",320,240 F,0,31340,34540,1
Sprite,Background,Centre,"SB\G2.jpg",320,240 F,0,34540,35040,1
Sprite,Background,Centre,"SB\G3.jpg",320,240 F,0,34940,35340,1
Sprite,Background,Centre,"SB\G4.jpg",320,240 F,0,35340,35940,1
Sprite,Background,Centre,"SB\H0.jpg",320,240 F,0,35940,40340,1
Sprite,Background,Centre,"SB\I0.jpg",320,240 F,0,40340,42340,1
Sprite,Background,Centre,"SB\J0.jpg",320,240 F,0,42340,45540,1
Sprite,Background,Centre,"SB\J1.jpg",320,240 F,0,45540,48740,1
Sprite,Background,Centre,"SB\K0.jpg",320,240 F,0,48740,50340,1
Sprite,Background,Centre,"SB\K1.jpg",320,240 F,0,50340,51940,1
Sprite,Background,Centre,"SB\K2.jpg",320,240 F,0,51940,53540,1
Sprite,Background,Centre,"SB\K3.jpg",320,240 F,0,53540,54940,1
Sprite,Background,Centre,"SB\L0.jpg",320,240 F,0,54940,60140,1
Sprite,Background,Centre,"SB\L1.jpg",320,240 F,0,60140,60440,1
Sprite,Background,Centre,"SB\L2.jpg",320,240 F,0,60440,60740,1
Sprite,Background,Centre,"SB\L3.jpg",320,240 F,0,60740,61140,1
Animation,Background,Centre,"SB\B.jpg",320,240,5,200,LoopForever M,0,61140,67740,320,240
Sprite,Background,Centre,"SB\B0.jpg",320,240 F,0,67740,67940,1
Animation,Background,Centre,"SB\C.jpg",320,240,2,300,LoopForever M,0,67940,70740,320,240
Sprite,Background,Centre,"SB\D0.jpg",320,240 F,0,70740,70940,1
Sprite,Background,Centre,"SB\D1.jpg",320,240 F,0,70940,71140,1
Sprite,Background,Centre,"SB\D2.jpg",320,240 F,0,71140,72540,1
Sprite,Background,Centre,"SB\E0.jpg",320,240 F,0,72540,74940,1
Sprite,Background,Centre,"SB\M0.jpg",320,240 F,0,74940,75840,1
Sprite,Background,Centre,"SB\M1.jpg",320,240 F,0,75840,75940,1
Sprite,Background,Centre,"SB\M2.jpg",320,240 F,0,75940,80340,1
Sprite,Background,Centre,"SB\N0.jpg",320,240 F,0,80340,83140,1
Sprite,Background,Centre,"SB\O0.jpg",320,240 F,0,83140,85740,1
Sprite,Background,Centre,"SB\O1.jpg",320,240 F,0,85740,90140,1 F,0,90640,91640,1,0
//Storyboard Layer 1 (Fail)
//Storyboard Layer 2 (Pass)
//Storyboard Layer 3 (Foreground)
//Storyboard Sound Samples
//Background Colour Transformations
3,100,255,255,255

[TimingPoints]
940,400,4,2,1,100,1,0
5640,-100,4,2,0,61,0,0
5840,-100,4,2,0,83,0,0
6140,-100,4,2,0,100,0,0
6440,-100,4,2,1,100,0,0
20040,-100,4,2,2,71,0,0
22840,-100,4,2,1,100,0,0
34440,-100,4,1,0,40,0,0
34640,-100,4,1,0,51,0,0
34840,-100,4,1,0,61,0,0
35040,-100,4,1,0,70,0,0
35240,-100,4,1,0,80,0,0
35440,-100,4,1,0,91,0,0
35640,-100,4,1,0,100,0,0
35840,-100,4,1,0,69,0,0
36090,-100,4,2,1,100,0,0
47040,-100,4,1,0,31,0,0
47240,-100,4,1,0,41,0,0
47440,-100,4,1,0,51,0,0
47640,-100,4,1,0,61,0,0
47840,-100,4,1,0,70,0,0
48040,-100,4,1,0,79,0,0
48240,-100,4,1,0,91,0,0
48440,-100,4,1,0,100,0,0
48640,-100,4,1,0,71,0,0
48890,-100,4,2,1,100,0,0
49240,-100,4,2,2,100,0,0
60040,-100,4,2,1,61,0,0
60340,-100,4,2,1,78,0,0
60540,-100,4,2,1,100,0,0
60840,-100,4,2,1,100,0,0
68040,-100,4,2,1,100,0,0
75040,-100,4,2,2,100,0,0
80890,-100,4,2,1,100,0,0
81040,-100,4,2,2,100,0,0
86440,-100,4,2,2,81,0,0
86740,-100,4,2,2,62,0,0
87040,-100,4,2,2,70,0,0
87240,-100,4,2,2,92,0,0
90040,-100,4,2,1,100,0,0

[Colours]
Combo1 : 0,128,192
Combo2 : 255,128,128

[HitObjects]
48,40,940,2,0,B|48:128,2,70,4|0|8
128,64,1540,2,0,B|176:48,1,35
240,64,1840,2,0,B|280:80,1,35
360,64,2140,1,8
440,64,2340,1,0
440,144,2540,5,4
440,224,2740,1,0
368,184,2940,1,8
296,224,3140,2,0,B|240:256,1,35
240,160,3440,2,0,B|192:144,1,35
136,192,3740,2,0,B|56:192,1,70,8|0
40,272,4140,6,0,B|56:312|96:328,1,70,4|0
168,304,4540,1,8
248,288,4740,2,0,B|248:344,1,35
331,323,5040,2,0,B|331:267,1,35
416,296,5340,2,0,B|464:280|472:248,1,70,8|0
440,176,5740,6,4,B|368:176|360:96,2,105
504,24,6740,5,0
488,104,6940,1,0
440,176,7140,1,0
376,232,7340,2,0,B|304:264|232:224,1,140,4|8
168,192,7940,2,0,B|168:136,1,35
280,104,8340,5,0
208,64,8540,1,8
128,56,8740,1,0
48,80,8940,2,0,B|16:152|48:232,1,140,4|8
88,288,9540,2,0,B|128:272,1,35
240,248,9940,5,0
320,240,10140,1,8
400,248,10340,1,0
480,280,10540,2,0,B|512:208|480:120,1,140,4|8
432,80,11140,2,0,B|392:88,1,35
288,144,11540,5,0
232,208,11740,1,8
160,256,11940,1,0
80,256,12140,2,0,B|40:192|72:96,1,140,4|8
112,56,12740,2,0,B|184:80|264:48,1,140
328,40,13340,1,4
448,160,13740,6,0,B|368:152|320:224,1,140,4|8
280,288,14340,2,0,B|256:328,1,35
136,296,14740,6,0,B|96:280|88:232,1,70,0|8
16,200,15140,1,0
56,128,15340,2,0,B|64:80|16:48,2,70,4|0|8
128,168,15940,2,0,B|168:160,1,35
280,160,16340,6,0,B|296:120|344:112,1,70,0|8
376,40,16740,1,0
448,80,16940,2,0,B|496:88|528:40,2,70,4|0|8
408,152,17540,2,0,B|416:192,1,35
456,304,17940,5,0
376,304,18140,1,8
296,296,18340,1,0
216,288,18540,2,0,B|144:272|88:232,1,140,4|8
40,168,19140,1,0
152,40,19540,1,0
232,72,19740,2,0,B|304:88|360:144,1,140,8|4
416,200,20340,5,4
416,280,20540,2,4,B|400:328|336:368,1,105
264,264,21140,2,4,B|280:224|328:208,1,70
208,88,21740,6,4,B|152:48|72:56,1,140
56,184,22440,2,4,B|104:216|160:208,1,105
128,128,22940,1,4
288,168,23340,6,0,B|448:168,1,140,4|8
480,240,23940,1,0
432,312,24140,2,0,B|280:312,1,140,0|8
248,240,24740,1,0
200,312,24940,2,0,B|128:312,1,70
144,232,25340,2,0,B|80:176,1,70,8|0
168,152,25740,2,0,B|168:8,1,140,0|8
336,48,26540,6,0,B|496:48,1,140,0|8
456,128,27140,1,0
480,208,27340,2,0,B|328:208,1,140,0|8
368,128,27940,1,0
288,128,28140,2,0,B|208:128,1,70
240,208,28540,2,0,B|160:264,1,70,8|0
224,320,28940,2,0,B|72:320,1,140,0|8
32,160,29740,6,0,B|184:160,1,140,0|8
224,88,30340,1,0
288,32,30540,2,0,B|432:32,1,140,0|8
488,88,31140,1,0
480,168,31340,2,0,B|480:240,1,70
400,200,31740,2,0,B|344:248,1,70,8|0
312,168,32140,2,0,B|168:168,1,140,0|8
72,304,32940,6,0,B|232:304,1,140,0|8
256,232,33540,1,0
304,304,33740,2,0,B|444:304,1,140,0|8
488,232,34340,1,0
440,160,34540,6,0,B|440:80,1,70
328,128,34940,2,0,B|328:40,1,70
216,160,35340,2,0,B|216:72,1,70
96,128,35740,1,0
56,280,36140,6,0,B|88:352|176:368,1,140,4|8
240,384,36740,1,0
248,304,36940,2,0,B|232:224|136:200,1,140,0|8
72,192,37540,2,0,B|16:136,2,70
120,120,38140,2,0,B|120:40,1,70,8|0
200,40,38540,2,0,B|280:16|360:48,1,140,0|8
456,160,39340,6,0,B|512:216|480:296,1,140,0|8
416,240,39940,1,0
372,316,40140,2,0,B|320:264|352:184,1,140,0|8
376,104,40740,2,0,B|352:16,2,70
296,104,41340,2,0,B|232:48,1,70,8|0
224,136,41740,2,0,B|152:112|72:136,1,140,0|8
64,296,42540,6,0,B|120:352|216:320,1,140,0|8
144,256,43140,1,0
88,192,43340,2,0,B|168:152|232:232,1,140,0|8
280,272,43940,2,0,B|360:272,2,70
312,192,44540,2,0,B|376:128,1,70,8|0
288,96,44940,2,0,B|248:24|168:24,1,140,0|8
56,144,45740,6,0,B|24:224|56:288,1,140,0|8
128,240,46340,1,0
128,320,46540,2,0,B|200:352|288:312,1,140,0|8
304,248,47140,1,0
344,320,47340,6,0,B|424:320,1,70
488,232,47740,2,0,B|418:232,1,70
344,144,48140,2,0,B|432:144,1,70
488,56,48540,2,0,B|418:56,1,70
336,56,48940,1,4
256,56,49140,5,0
172,56,49340,1,4
216,128,49540,1,0
132,128,49740,1,0
176,200,49940,1,0
92,200,50140,1,4
136,272,50340,2,0,B|136:320,1,35
212,272,50640,6,0,B|212:328,1,35
292,284,50940,1,4
376,284,51140,1,0
332,212,51340,1,0
416,212,51540,1,0
372,140,51740,1,4
412,68,51940,6,0,B|412:20,2,35
328,72,52340,1,0
244,72,52540,1,4
288,144,52740,1,0
204,144,52940,1,0
248,216,53140,1,0
164,216,53340,1,4
208,288,53540,6,0,B|208:344,2,35
288,316,53940,2,0,B|384:316,1,70,0|4
392,240,54340,2,0,B|322:240,1,70
352,160,54740,2,0,B|422:160,1,70,0|4
400,80,55140,6,0,B|400:40,2,35
320,80,55540,2,0,B|248:80,1,70,0|4
216,160,55940,2,0,B|296:160,1,70
256,240,56340,2,0,B|160:240,1,70,0|4
112,272,56740,6,0,B|72:272,2,35
184,320,57140,2,0,B|280:320,1,70,0|4
336,320,57540,2,0,B|392:264,1,70
472,264,57940,2,0,B|472:184,1,70,0|4
472,112,58340,6,0,B|472:72,2,35
392,88,58740,2,0,B|376:48,2,35,0|0|4
312,80,59140,2,0,B|272:64,2,35
248,128,59540,2,0,B|192:128,2,35,0|0|4
312,280,60140,6,4,B|256:296|200:280,2,105
456,192,61140,5,0
400,128,61340,1,0
336,180,61540,1,0
392,244,61740,1,4
392,244,61940,1,0
372,324,62140,2,0,B|300:356,1,70,8|0
276,324,62440,2,0,B|276:260|228:220,1,105
152,224,62940,5,8
96,160,63140,1,0
160,104,63340,1,4
160,104,63540,1,0
216,164,63740,2,0,B|288:176,1,70,8|0
300,216,64040,2,0,B|276:272|308:336,1,105
384,320,64540,5,8
464,312,64740,1,0
448,232,64940,1,4
448,232,65140,1,0
368,232,65340,2,0,B|368:152,1,70,8|0
344,128,65640,2,0,B|288:104|224:136,1,105
200,200,66140,6,0,B|160:216|112:192,1,70,8|0
56,160,66540,2,0,B|88:104|56:40,1,105,4|0
96,32,66940,2,0,B|168:32,1,70,8|0
240,72,67340,1,0
312,32,67540,2,0,B|392:32,1,70,0|4
432,200,68140,5,4
400,280,68340,1,0
320,248,68540,1,8
352,168,68740,2,0,B|328:120,1,35
216,184,69140,6,0,B|264:96,2,70,0|8|0
136,176,69740,1,4
168,256,69940,1,0
88,280,70140,1,8
56,200,70340,2,0,B|16:176,1,35
112,88,70740,6,0,B|40:112,2,70,0|8|0
192,112,71340,1,4
176,32,71540,1,0
256,24,71740,1,8
276,104,71940,2,0,B|324:136,1,35
432,120,72340,5,0
496,176,72540,1,8
448,240,72740,1,0
380,192,72940,1,4
260,228,73240,2,0,B|212:252,1,35,0|8
148,272,73540,1,0
100,156,73840,6,0,B|124:204,1,35
196,168,74140,1,8
256,312,74540,2,0,B|272:360|360:360|376:296,1,140,4|8
384,232,75140,6,0,B|448:232,2,35,0|0|4
424,160,75540,1,0
424,80,75740,2,0,B|464:80,2,35,8|0|0
360,24,76140,2,0,B|272:8,1,70,4|0
304,96,76540,2,0,B|224:104,1,70,8|0
264,176,76940,2,0,B|192:224,1,70,4|0
280,256,77340,2,0,B|256:336,1,70,8|0
344,312,77740,2,0,B|344:384,1,70,4|0
416,336,78140,2,0,B|472:384,2,70,8|0|4
424,256,78740,6,0,B|512:272,1,70,0|8
488,184,79140,1,0
480,104,79340,2,0,B|408:88,1,70,4|0
384,8,79740,2,0,B|288:8,1,70,8|0
272,8,80040,2,0,B|224:8,1,35,0|4
288,80,80340,1,0
320,160,80540,1,8
296,240,80740,6,0,B|344:240,2,35,0|0|4
248,312,81140,1,0
168,352,81340,2,0,B|96:336|64:264,1,140,8|4
36,188,81940,2,0,B|60:164|64:108,2,70,0|8|0
120,204,82540,1,4
120,204,82740,1,0
188,152,82940,1,8
188,152,83140,2,0,B|212:108|204:76,1,70,0|4
224,48,83440,2,0,B|256:68|328:68,1,105,0|8
408,72,83940,6,0,B|388:112|388:164,1,70,0|4
404,180,84240,2,0,B|356:208|300:192,1,105,0|8
224,160,84740,1,0
208,244,84940,2,0,B|216:280,2,35,4|0|0
132,280,85340,1,8
80,216,85540,6,0,B|24:216,2,35,0|0|4
112,136,85940,2,0,B|192:136,1,70,0|8
264,136,86340,1,0
336,88,86540,2,4,B|368:64,1,35
408,136,86840,2,0,B|440:152,1,35,4|4
480,224,87140,1,4
424,288,87340,6,4,B|328:288,1,70
296,352,87740,2,4,B|192:352,1,105
216,232,88340,2,4,B|288:232,1,70
288,152,88740,6,0,B|344:152,2,35,2|2|4
232,88,89140,2,4,B|216:52|168:32,1,70
200,164,89640,2,4,B|140:152|120:84,1,105
96,16,90140,1,4
