osu file format v9

[General]
AudioFilename: Kasane Teto - Ochame Kinou.mp3
AudioLeadIn: 1000
PreviewTime: 6640
Countdown: 0
SampleSet: Soft
StackLeniency: 0.4
Mode: 0
LetterboxInBreaks: 0

[Editor]
DistanceSpacing: 1
BeatDivisor: 4
GridSize: 4

[Metadata]
Title:Ochame Kinou
Artist:Kasane Teto
Creator:abalee
Version:Easy
Source:Nico Nico Douga
Tags:UTAU Kanpakyin gojimajiP lamazeP

[Difficulty]
HPDrainRate:3
CircleSize:3
OverallDifficulty:3
ApproachRate:3
SliderMultiplier:0.9
SliderTickRate:1

[Events]
//Background and Video events
0,0,"BG.png"
//Break Periods
2,20339,21900
//Storyboard Layer 0 (Background)
Sprite,Background,Centre,"BG.png",320,240 F,0,0,90140,0
Sprite,Background,Centre,"SB\A1.jpg",320,240 F,0,-1000,940,1
Animation,Background,Centre,"SB\A.jpg",320,240,2,800,LoopForever M,0,940,5740,320,240
Animation,Background,Centre,"SB\A.jpg",320,240,2,300,LoopForever M,0,5740,6540,320,240
Sprite,Background,Centre,"SB\A0.jpg",320,240 F,0,6540,6740,1
Animation,Background,Centre,"SB\B.jpg",320,240,5,200,LoopForever M,0,6740,13340,320,240
Sprite,Background,Centre,"SB\B0.jpg",320,240 F,0,13340,13540,1
Animation,Background,Centre,"SB\C.jpg",320,240,2,300,LoopForever M,0,13540,16340,320,240
Sprite,Background,Centre,"SB\D0.jpg",320,240 F,0,16340,16540,1
Sprite,Background,Centre,"SB\D1.jpg",320,240 F,0,16540,16740,1
Sprite,Background,Centre,"SB\D2.jpg",320,240 F,0,16740,18140,1
Sprite,Background,Centre,"SB\E0.jpg",320,240 F,0,18140,23140,1
Sprite,Background,Centre,"SB\F0.jpg",320,240 F,0,23140,26140,1
Sprite,Background,Centre,"SB\F1.jpg",320,240 F,0,26140,29540,1
Sprite,Background,Centre,"SB\G0.jpg",320,240 F,0,29540,31340,1
Sprite,Background,Centre,"SB\G1.jpg",320,240 F,0,31340,34540,1
Sprite,Background,Centre,"SB\G2.jpg",320,240 F,0,34540,35040,1
Sprite,Background,Centre,"SB\G3.jpg",320,240 F,0,34940,35340,1
Sprite,Background,Centre,"SB\G4.jpg",320,240 F,0,35340,35940,1
Sprite,Background,Centre,"SB\H0.jpg",320,240 F,0,35940,40340,1
Sprite,Background,Centre,"SB\I0.jpg",320,240 F,0,40340,42340,1
Sprite,Background,Centre,"SB\J0.jpg",320,240 F,0,42340,45540,1
Sprite,Background,Centre,"SB\J1.jpg",320,240 F,0,45540,48740,1
Sprite,Background,Centre,"SB\K0.jpg",320,240 F,0,48740,50340,1
Sprite,Background,Centre,"SB\K1.jpg",320,240 F,0,50340,51940,1
Sprite,Background,Centre,"SB\K2.jpg",320,240 F,0,51940,53540,1
Sprite,Background,Centre,"SB\K3.jpg",320,240 F,0,53540,54940,1
Sprite,Background,Centre,"SB\L0.jpg",320,240 F,0,54940,60140,1
Sprite,Background,Centre,"SB\L1.jpg",320,240 F,0,60140,60440,1
Sprite,Background,Centre,"SB\L2.jpg",320,240 F,0,60440,60740,1
Sprite,Background,Centre,"SB\L3.jpg",320,240 F,0,60740,61140,1
Animation,Background,Centre,"SB\B.jpg",320,240,5,200,LoopForever M,0,61140,67740,320,240
Sprite,Background,Centre,"SB\B0.jpg",320,240 F,0,67740,67940,1
Animation,Background,Centre,"SB\C.jpg",320,240,2,300,LoopForever M,0,67940,70740,320,240
Sprite,Background,Centre,"SB\D0.jpg",320,240 F,0,70740,70940,1
Sprite,Background,Centre,"SB\D1.jpg",320,240 F,0,70940,71140,1
Sprite,Background,Centre,"SB\D2.jpg",320,240 F,0,71140,72540,1
Sprite,Background,Centre,"SB\E0.jpg",320,240 F,0,72540,74940,1
Sprite,Background,Centre,"SB\M0.jpg",320,240 F,0,74940,75840,1
Sprite,Background,Centre,"SB\M1.jpg",320,240 F,0,75840,75940,1
Sprite,Background,Centre,"SB\M2.jpg",320,240 F,0,75940,80340,1
Sprite,Background,Centre,"SB\N0.jpg",320,240 F,0,80340,83140,1
Sprite,Background,Centre,"SB\O0.jpg",320,240 F,0,83140,85740,1
Sprite,Background,Centre,"SB\O1.jpg",320,240 F,0,85740,90140,1 F,0,90640,91640,1,0
//Storyboard Layer 1 (Fail)
//Storyboard Layer 2 (Pass)
//Storyboard Layer 3 (Foreground)
//Storyboard Sound Samples
//Background Colour Transformations
3,100,255,255,255

[TimingPoints]
940,400,4,2,1,100,1,0
34340,-100,4,1,1,41,0,0
34740,-100,4,1,1,57,0,0
35140,-100,4,1,1,73,0,0
35540,-100,4,1,1,88,0,0
35940,-100,4,2,1,100,0,0
47140,-100,4,1,1,31,0,0
47540,-100,4,1,1,49,0,0
47940,-100,4,1,1,69,0,0
48340,-100,4,1,1,87,0,0
48740,-100,4,2,1,100,0,0
49140,-100,4,2,2,100,0,0
55240,-100,4,2,1,100,0,0
80740,-100,4,2,1,100,0,0
81140,-100,4,2,2,100,0,0
85940,-100,4,2,2,86,0,0
86340,-100,4,2,2,70,0,0
89940,-100,4,2,1,97,0,0

[Colours]
Combo1 : 0,128,192
Combo2 : 255,128,128

[HitObjects]
64,48,940,1,4
64,316,2140,1,0
152,316,2540,2,0,B|248:316,1,90,4|0
152,160,3740,1,0
240,160,4140,2,0,B|340:160,1,90,4|0
240,316,5340,1,0
328,316,5740,2,4,B|408:316,2,67.5
448,56,7340,6,0,B|496:144|456:248,1,180,4|0
320,120,8940,2,0,B|236:72|144:120,1,180,4|0
264,256,10540,2,0,B|176:304|80:252,1,180,4|0
76,80,12140,2,0,B|168:92,1,90,4|0
164,180,12940,2,0,B|60:196,1,90
72,284,13740,6,0,B|160:320|260:288,1,180,4|0
424,256,15340,2,0,B|456:168|400:72,1,180,4|0
228,56,16940,2,0,B|156:116|56:100,1,180,4|0
196,224,18540,2,0,B|300:224,2,90,4|0|0
105,224,19740,2,0,B|9:224,1,90,0|4
428,64,23340,6,0,B|320:64,2,90,4|0|0
428,152,24540,1,0
428,242,24940,1,0
248,242,25740,1,0
68,244,26540,6,0,B|68:348,2,90
68,153,27740,1,0
68,64,28140,1,0
248,64,28940,1,0
248,244,29740,6,0,B|144:244,2,90
338,244,30940,1,0
428,244,31340,1,0
428,64,32140,1,0
248,64,32940,6,0,B|248:164,2,90
157,64,34140,1,0
67,64,34540,2,0,B|67:164,1,90
67,244,35340,2,0,B|67:352,1,90
157,334,36140,5,4
337,334,36940,1,0
456,200,37740,2,0,B|448:140|404:128,2,90
332,68,39340,5,0
156,96,40140,1,0
68,252,40940,2,0,B|92:292|148:308,2,90
232,328,42540,5,0
412,316,43340,1,0
312,168,44140,2,0,B|280:128|236:116,2,90
156,80,45740,5,0
332,36,46540,1,0
472,148,47340,2,0,B|440:180|392:192,1,90
304,180,48140,2,0,B|256:184|212:204,1,90
140,252,48940,1,4
48,100,49740,5,0
224,60,50540,2,0,B|312:60,2,90,4|0|0
404,60,52140,5,4
252,156,52940,1,0
412,244,53740,1,4
252,324,54540,2,0,B|144:324,2,90,0|0|4
72,324,56140,5,0
224,228,56940,1,4
84,116,57740,1,0
256,64,58540,6,0,B|360:64,1,90,4|0
376,148,59340,2,0,B|276:148,1,90,4|0
312,232,60140,2,4,B|396:232,2,67.5
116,340,61740,6,0,B|44:288|48:176,1,180,4|0
52,92,62940,1,0
136,64,63340,2,0,B|216:36|320:56,1,180,4|0
400,84,64540,5,0
340,152,64940,2,0,B|240:164|196:268,1,180,4|0
192,344,66140,1,0
280,344,66540,2,0,B|360:324|384:264,2,135,4|0|4
188,344,68140,6,0,B|88:344,1,90,4|0
8,344,68940,1,0
64,172,69740,2,0,B|160:172,1,90,4|0
244,172,70540,1,0
380,52,71340,6,0,B|288:52,1,90,4|0
200,52,72140,1,0
336,168,72940,2,0,B|484:168,2,135,4|0|0
246,168,74540,1,4
376,292,75340,6,0,B|296:336,1,90
208,352,76140,2,0,B|112:336,1,90
36,300,76940,2,0,B|12:204,1,90
36,124,77740,2,0,B|68:36|180:20,1,180
192,108,78940,1,0
272,68,79340,2,0,B|424:68,2,135
228,148,80940,6,0,B|420:148,1,180,4|0
436,232,82140,1,0
460,320,82540,2,0,B|404:320,3,45
280,320,83740,6,0,B|172:320,1,90
99,320,84540,2,0,B|63:228|115:132,1,180
172,80,85740,1,4
262,80,86140,1,4
220,160,86540,2,0,B|220:264,2,90,4|4|4
308,160,87740,6,0,B|392:104|492:172,1,180,4|4
477,252,88940,2,0,B|391:310|307:254,1,180,4|0
233,210,90140,1,4
