osu file format v13

[General]
AudioFilename: Kasane Territory (Is Teto Turn Over) (mp3cut.net).mp3
AudioLeadIn: 0
PreviewTime: 46186
Countdown: 0
SampleSet: None
StackLeniency: 0.7
Mode: 0
LetterboxInBreaks: 1
WidescreenStoryboard: 0

[Editor]
DistanceSpacing: 0.8
BeatDivisor: 4
GridSize: 4
TimelineZoom: 1

[Metadata]
Title:Kasane Territory ~ Zutto Teto no Turn
TitleUnicode:重音territory ~ ずっとテトのターン (Short Version)
Artist:Kasane Teto
ArtistUnicode:重音テト
Creator:kamikin
Version:Easy
Source:
Tags:always teto's turn
BeatmapID:545802
BeatmapSetID:235481

[Difficulty]
HPDrainRate:3
CircleSize:2
OverallDifficulty:2
ApproachRate:3
SliderMultiplier:1.3
SliderTickRate:1

[Events]
//Background and Video events
0,0,"Kasane BG.jpg",0,0
//Break Periods
//Storyboard Layer 0 (Background)
//Storyboard Layer 1 (Fail)
//Storyboard Layer 2 (Pass)
//Storyboard Layer 3 (Foreground)
//Storyboard Sound Samples
//Background Colour Transformations
3,100,163,162,255

[TimingPoints]
1536,348.834514816967,4,3,0,80,1,0
46186,-100,4,2,1,90,0,1
65721,-100,4,2,1,80,0,0

[Colours]
Combo1 : 0,204,102
Combo2 : 168,0,84
Combo3 : 255,136,17
Combo4 : 0,221,221

[HitObjects]
40,64,4326,6,0,P|84:136|152:144,1,130,0|0,0:0|0:0,0:0:0:0:
144,40,5024,2,0,P|236:100|244:140,1,130,0|0,0:0|0:0,0:0:0:0:
256,216,5722,2,0,P|328:168|344:124,1,130,0|0,0:0|0:0,0:0:0:0:
336,28,6419,2,0,P|412:56|444:112,1,130,0|0,0:0|0:0,0:0:0:0:
508,172,7117,6,0,B|476:204|400:196|400:196|408:272|320:280|320:280|348:360|236:352,1,390,0|0,0:0|0:0,0:0:0:0:
164,280,8512,2,0,B|196:248|188:172|188:172|264:180|272:92|272:92|352:120|344:8,1,390,0|0,0:0|0:0,0:0:0:0:
448,8,9908,2,0,P|468:72|448:144,1,130
452,236,10605,2,0,P|472:300|452:372,1,130
368,304,11303,2,0,B|91:215|300:-5|497:215|219:305,1,520
120,272,13047,5,2,0:0:0:0:
24,240,13396,2,0,P|76:180|136:172,1,130
204,104,14094,2,0,P|224:168|212:228,2,130,2|2|2,0:0|0:0|0:0,0:0:0:0:
300,68,15140,6,0,P|364:88|424:76,1,130,0|0,0:0|0:0,0:0:0:0:
424,180,15838,1,0,0:0:0:0:
416,284,16187,2,0,P|352:264|292:276,1,130,0|0,0:0|0:0,0:0:0:0:
224,196,16884,2,0,P|192:256|196:320,2,130,2|2|0,0:0|0:0|0:0,0:0:0:0:
308,132,17931,5,0,0:0:0:0:
412,128,18280,2,0,B|406:181|373:210|373:210|372:252,1,130
456,312,18977,2,0,P|380:348|312:336,1,130
272,264,19675,2,0,B|208:232|168:104|168:104|132:244|64:264,1,390,0|2,0:0|0:0,0:0:0:0:
168,296,21070,5,0,0:0:0:0:
256,352,21419,2,0,P|324:336|360:284,1,130
464,288,22117,2,0,P|444:224|388:188,1,130
296,224,22814,2,0,P|295:155|332:106,1,130,0|2,0:0|0:0,0:0:0:0:
124,72,23861,6,0,B|176:164|124:216|44:244|104:316|108:344,1,260
188,280,24907,2,0,P|254:303|324:279,1,130
256,196,25605,2,0,P|280:128|260:64,1,130
168,128,26303,5,0,0:0:0:0:
84,64,26652,2,0,B|52:112|70:164|70:164|52:212|72:260|72:260|50:300|68:332,1,260
168,308,27698,2,0,P|236:288|304:308,1,130,0|2,0:0|0:0,0:0:0:0:
300,196,28396,2,0,P|368:216|436:196,1,130,2|2,0:0|0:0,0:0:0:0:
512,172,29093,6,0,P|472:120|400:112,1,130
328,44,29791,1,0,0:0:0:0:
264,124,30140,2,0,B|228:88|228:48|228:48|160:48,1,130
80,48,30838,1,0,0:0:0:0:
0,116,31186,2,0,B|36:152|76:152|76:152|76:220,1,130
76,300,31884,1,0,0:0:0:0:
160,364,32233,6,0,B|188:324|176:268|176:268|272:288|312:200,1,260,8|8,0:0|0:0,0:0:0:0:
212,168,33279,1,8,0:0:0:0:
108,164,33628,2,0,B|120:96|168:60|240:64|240:64|328:64,1,260,8|0,0:0|0:0,0:0:0:0:
472,208,35024,6,0,B|360:192|184:304|392:528|600:304|424:192|312:208,1,520
120,152,37117,1,0,0:0:0:0:
120,360,37814,2,0,B|120:248|120:248|28:248|20:152|20:140,1,260
228,120,39210,2,0,P|356:128|380:240,1,260,2|0,0:0|0:0,0:0:0:0:
288,204,40256,1,0,0:0:0:0:
184,208,40605,2,0,B|188:280|264:308|264:308|288:368|384:384,1,260
460,196,42000,2,0,B|448:68|268:160|280:32,1,260
120,180,43396,2,0,B|132:308|312:216|300:344,1,260
256,192,44791,12,10,46186,0:0:0:0:
340,104,46884,5,0,0:0:0:0:
444,112,47233,2,0,P|416:176|352:208,1,130
324,300,47930,2,0,P|268:232|268:180,1,130
176,140,48628,1,0,0:0:0:0:
88,84,48977,5,0,0:0:0:0:
0,132,49326,2,0,B|32:184|92:184|92:184|92:336,1,260
188,296,50372,1,0,0:0:0:0:
280,348,50721,2,0,B|309:287|269:226|269:226|318:171|280:84,1,260
200,156,51768,5,0,0:0:0:0:
128,232,52117,2,0,B|76:176|104:112|104:112|72:24|128:-24,1,260
216,56,53163,2,0,B|264:60|288:88|288:88|352:88,2,130,0|0|0,0:0|0:0|0:0,0:0:0:0:
216,160,54210,1,0,0:0:0:0:
152,240,54558,2,0,P|116:316|132:368,1,130
216,316,55256,2,0,L|352:316,1,130
256,192,55954,12,4,57349,0:0:0:0:
168,76,58047,6,0,B|140:124|156:168|156:168|156:208,1,130
248,132,58744,1,0,0:0:0:0:
240,236,59093,2,0,P|304:220|348:160,2,130,0|0|0,0:0|0:0|0:0,0:0:0:0:
136,240,60140,6,0,P|104:160|124:96,1,130
224,160,60837,2,0,P|224:76|192:32,1,130
304,32,61535,1,0,0:0:0:0:
408,32,61884,2,0,B|400:116|320:136|320:136|320:256,1,260
420,280,62930,6,0,P|376:339|313:355,1,130
220,352,63628,2,0,P|161:308|145:245,1,130
248,252,64326,2,0,B|232:208|232:208|280:192|280:192|236:148|236:148|284:120|284:120|236:88|236:88|288:72|288:72|244:16,1,390
256,192,65721,12,4,68163,0:0:0:0:
