osu file format v5

[General]
AudioFilename: Fay.mp3
AudioLeadIn: 0
PreviewTime: -1
Countdown: 1
SampleSet: None
StackLeniency: 0.7
Mode: 0
LetterboxInBreaks: 1
EditorBookmarks: 1163,6411,16907,18781,30777,53439,54768,78759,92254,102000,120368,136165,138361,158041,158416,158604,159260,159447,159916,166850
EditorDistanceSpacing: 1

[Metadata]
Title:Kasahara Hiroko-Fay
Artist:Kasahara Hiroko
Creator:hbra000
Version:Normal
Source:Symphonic Rain
Tags:

[Difficulty]
HPDrainRate:6
CircleSize:5
OverallDifficulty:6
SliderMultiplier:1.4
SliderTickRate:1

[Events]
//Background and Video events
0,0,"dpcpwp01.jpg"
//Break Periods
2,44097,54242
2,133313,137836
//Storyboard Layer 0 (Background)
//Storyboard Layer 1 (Failing)
//Storyboard Layer 2 (Passing)
//Storyboard Layer 3 (Foreground)
//Storyboard Sound Samples
//Background Colour Transformations
3,100,163,162,255

[TimingPoints]
4163,374.859427714607,4,0,0,100,1,0
55096,-100,4,0,0,100,0,0
120649,-100,4,0,0,100,0,0

[HitObjects]
63,66,1163,1,2
136,68,1351,1,8
63,66,1537,1,8
136,68,1912,2,2,B|299:68,1,140
462,64,2662,5,0
457,146,2850,1,8
462,64,3037,1,8
457,146,3412,2,2,B|455:315,1,140
370,316,4164,5,0
279,314,4350,1,8
370,316,4537,1,8
279,314,4912,2,2,B|119:312,1,140
82,314,5662,6,2,B|80:159,1,140
80,89,6412,1,2
80,89,6599,1,2
80,89,6787,1,2
177,89,7161,6,8,B|219:23|301:102,1,140
233,172,7911,1,0
295,247,8286,2,0,B|188:294|158:226,1,140,0|0
64,307,10160,6,0,B|66:151,1,140
64,96,10910,1,8
144,20,11097,1,8
64,96,11285,1,8
192,96,11660,5,4
446,72,13159,2,0,B|447:241,1,140
450,286,13909,1,8
384,224,14096,1,8
320,288,14284,1,8
128,288,14659,5,4
250,65,15783,1,8
250,65,16158,2,8,B|249:160,2,70
250,65,16908,1,8
256,193,17657,5,4
448,66,19157,5,4
448,160,19907,1,8
352,160,20094,1,8
448,160,20281,1,8
448,311,20656,1,4
384,320,22156,6,2,B|224:320,1,140
128,320,22905,2,10,B|32:320,2,70,10|10|10
37,231,23655,1,10
63,66,25155,5,8
174,68,25342,1,8
174,176,25529,1,8
174,176,25904,5,0
174,63,26092,1,0
285,63,26279,1,0
425,65,26654,5,4
63,241,27779,6,2,B|98:116|127:249,1,140
264,231,28528,2,4,B|421:231,2,140
262,69,29653,1,4
83,82,30778,5,0
187,82,30965,1,0
187,186,31152,1,0
187,186,31527,1,0
187,82,31715,1,0
291,82,31902,1,0
291,82,32277,1,0
289,186,32464,1,0
394,187,32652,1,0
394,187,33027,1,0
291,82,33214,1,0
396,80,33402,1,0
398,289,33776,2,0,B|324:225,2,70
265,241,34526,2,8,B|208:291,2,70,8|8|8
130,281,35276,2,0,B|70:233,2,70
418,184,36026,5,0
420,276,36213,1,0
418,184,36400,2,0,B|309:293,1,140
178,277,37150,6,2,B|77:278,2,70
174,178,37900,2,8,B|104:135,2,70,8|8|8
251,117,38650,2,2,B|251:12,2,70
318,187,39399,2,8,B|400:137,2,70
433,292,40149,6,4,B|340:272|266:325|248:297|160:460|56:279|27:251,1,420
59,91,41648,1,4
256,192,42398,12,4,43898
468,320,55143,6,8,B|308:318,1,140
333,248,55893,1,8
322,162,56268,2,8,B|411:163,1,70
416,64,57018,1,0
224,64,57393,1,0
64,64,57767,1,0
70,223,58892,2,8,B|78:122|138:83,1,140
213,66,59454,1,8
352,64,60017,1,0
422,184,60204,1,0
423,185,60579,1,0
352,64,60766,1,0
426,333,61141,2,2,B|263:332,1,140
160,321,61891,1,8
166,195,62266,2,8,B|76:196,1,70
55,127,63015,2,0,B|54:32,2,70
158,54,63765,6,2,B|316:54,1,140
424,53,64515,2,8,B|426:137,1,70
366,168,65639,1,0
291,92,66014,1,0
366,168,66202,1,0
444,88,66389,1,0
366,168,66577,1,0
366,168,66764,5,8
462,322,67139,2,8,B|306:322,1,140,8|8
224,171,67889,1,8
224,320,68263,2,8,B|146:321,1,70
65,64,69013,2,2,B|65:156,1,70
112,266,69388,2,0,B|112:167,1,70
158,65,69763,2,2,B|158:140,1,70
197,269,70138,2,0,B|197:183,1,70
411,271,70887,2,8,B|368:83|234:50,1,280
70,268,73137,2,8,B|222:268,1,140
336,265,73886,1,8
462,262,74261,2,8,B|462:167,1,70
480,191,75761,1,8
477,72,75948,1,8
336,75,76136,2,8,B|238:76,2,70,8|8|8
330,285,76885,2,2,B|169:285,1,140
46,284,77635,1,4
69,70,78760,6,8,B|136:130,1,70
239,117,79134,2,8,B|314:53,1,70
411,77,79509,2,8,B|489:140,1,70
467,295,80259,6,8,B|407:239,1,70
296,249,80634,2,8,B|222:311,1,70
123,289,81009,2,8,B|56:223,1,70
91,66,81758,2,8,B|166:66,1,70
278,84,82133,2,8,B|231:168,1,70
124,154,82508,2,8,B|205:154,1,70
292,156,83070,2,8,B|510:158,1,210
454,63,84757,5,0
313,65,85132,1,8
316,205,85507,1,0
456,206,85882,1,8
456,346,86257,1,0
315,343,86632,1,8
315,203,87006,1,0
455,206,87381,1,8
451,66,87756,1,0
311,59,88131,6,0,B|152:59,1,140
210,193,88881,2,0,B|362:193,1,140
304,325,89630,2,0,B|387:325,2,70
178,262,90380,2,8,B|178:361,2,70
37,263,91130,2,10,B|38:120|38:120|189:120,1,280,10|10
64,66,92629,5,2
273,65,93004,1,2
273,65,93379,1,2
448,63,94129,1,2
457,342,94504,1,2
457,342,94878,1,2
176,343,95253,1,2
47,341,95628,1,2
64,64,97128,2,2,B|224:64,1,140
192,192,97877,1,2
192,320,98065,1,2
192,192,98252,1,2
32,192,98627,2,2,B|32:32,1,140
194,51,99377,1,0
192,192,99564,1,0
192,192,99752,2,0,B|416:192|352:32|256:96|256:192|352:192|480:128|480:32,1,420
448,224,101626,1,4
65,62,102376,5,8
65,201,102563,1,8
65,60,102751,1,8
204,62,103125,2,8,B|281:126|347:51,1,140,8|8
205,131,104250,2,8,B|285:130,2,70,8|8|8
451,316,105375,1,8
346,313,105562,1,8
450,316,105749,1,8
349,312,106124,2,8,B|49:312,1,280
52,48,107249,1,8
262,49,107624,1,8
472,50,107999,1,8
405,248,108373,2,8,B|492:248,1,70
475,144,108748,1,8
474,52,109123,6,8,B|530:189|453:342,1,280
332,317,110248,1,0
228,319,110435,1,0
333,316,110623,1,0
332,232,110997,2,0,B|38:232,1,280
52,108,112122,2,0,B|53:6,2,70,0|0|0
94,256,112872,2,0,B|93:350,2,70,0|0|0
130,106,113621,2,0,B|132:5,2,70
154,258,114371,2,0,B|153:343,2,70
308,259,115121,6,8,B|441:259|441:259|441:88,2,280
258,41,117370,1,8
259,180,117557,1,8
259,320,117745,2,8,B|96:320,1,140
99,39,118495,1,8
93,240,118682,1,8
93,240,118869,1,8
291,42,119244,2,2,B|368:42|368:42|368:257,1,280
256,190,120744,5,0
395,192,120931,1,0
254,187,121119,2,0,B|319:188|382:114,1,140
439,49,121681,1,0
313,49,122243,6,0,B|221:48,1,70
165,44,122618,2,0,B|88:46|36:128,1,140
52,187,123180,1,0
248,315,123743,5,0
108,315,123930,1,0
248,316,124118,2,0,B|459:316|439:144|308:143|266:222|288:298|359:342|412:343|453:344|506:306|474:170,1,560
414,207,126742,5,0
412,67,126929,1,0
413,206,127116,1,0
272,68,127491,2,0,B|272:148,2,70,0|0|0
75,58,128241,1,0
214,60,128428,1,0
73,58,128616,1,0
72,156,128991,2,0,B|72:248,2,70,0|0|0
75,59,129740,2,0,B|72:190|188:184|227:141|253:111|304:185|299:345,1,420
288,326,131615,1,0
256,192,132364,12,4,133114
413,76,138737,5,8
413,76,138924,1,8
272,74,139112,1,8
131,74,139487,1,8
131,214,139862,1,8
270,218,140236,1,8
271,216,140424,1,8
410,211,140611,1,8
411,351,140986,1,8
270,347,141361,1,8
31,343,141736,1,8
146,345,141923,1,8
147,274,142111,2,8,B|30:197|30:197|32:50,1,280
151,52,143235,1,8
184,74,144735,2,8,B|239:132,1,70
284,186,145110,2,8,B|384:296,1,140
464,307,146234,2,8,B|465:213,1,70
465,166,146609,2,8,B|466:68|373:43,1,140
260,60,147734,2,8,B|176:60,1,70
102,62,148109,2,8,B|47:62|47:62|47:310,1,280
157,307,150733,2,0,B|243:307,1,70
312,305,151107,2,0,B|475:306,1,140
444,233,152232,2,0,B|448:135,1,70
450,81,152607,2,0,B|283:80,1,140
183,73,153731,2,0,B|85:71,1,70
53,74,154106,2,0,B|52:231|232:290,2,280
236,176,156730,5,8
283,177,156918,1,8
329,176,157105,1,8
335,272,157480,1,0
291,272,157667,1,0
242,274,157855,1,0
88,275,158417,5,0
88,188,158605,2,0,B|86:67|220:75|221:213,1,245
220,195,159448,2,0,B|102:115|231:63,1,175
321,58,160291,2,0,B|490:58|490:58|494:301|494:301|202:301|202:301|258:244,1,770
250,184,162915,1,8
250,184,163290,1,8
256,192,163665,12,4,165727
