osu file format v5

[General]
AudioFilename: Fay.mp3
AudioLeadIn: 0
PreviewTime: -1
Countdown: 1
SampleSet: None
StackLeniency: 0.7
Mode: 0
LetterboxInBreaks: 1
EditorBookmarks: 1163,6411,16907,18781,30777,53439,54768,78759,102000,120368,136165,138361,158041,158416,158604,159260,159447,159916,166850
EditorDistanceSpacing: 0.800000011920929

[Metadata]
Title:Kasahara Hiroko-Fay
Artist:Kasahara Hiroko
Creator:hbra000
Version:Easy
Source:Symphonic Rain
Tags:

[Difficulty]
HPDrainRate:6
CircleSize:3
OverallDifficulty:7
SliderMultiplier:1.4
SliderTickRate:1

[Events]
//Background and Video events
0,0,"dpcpwp02.jpg"
//Break Periods
2,44097,54242
2,92078,101475
2,133313,137836
//Storyboard Layer 0 (Background)
//Storyboard Layer 1 (Failing)
//Storyboard Layer 2 (Passing)
//Storyboard Layer 3 (Foreground)
//Storyboard Sound Samples
//Background Colour Transformations
3,100,163,162,255

[TimingPoints]
4163,374.859427714607,4,0,0,100,1,0
55096,-100,4,0,0,100,0,0
120649,-100,4,0,0,100,0,0

[HitObjects]
64,64,1164,2,0,B|224:64,1,140
288,64,2663,2,0,B|448:64,1,140
448,192,4162,2,0,B|288:192,1,140
224,192,5662,2,0,B|64:192,1,140
84,192,6412,1,0
82,283,7161,2,0,B|156:341|236:271,1,140
211,289,7911,1,0
303,290,8286,2,0,B|404:291,1,70
446,296,10160,2,0,B|449:145,1,140
430,80,10910,1,0
335,76,11285,2,0,B|337:179,1,70
359,218,13159,2,0,B|205:215,1,140
219,215,13909,1,0
143,215,14284,2,0,B|51:212,1,70
78,68,15783,2,0,B|361:71,1,280
84,65,19157,6,8,B|84:232,1,140
92,266,19907,1,8
189,271,20281,2,8,B|278:273,1,70
262,286,22156,5,4
350,290,22905,2,8,B|468:292|462:203,1,140
456,122,23468,1,8
441,62,25155,6,8,B|288:62,1,140
301,62,25904,1,8
199,63,26279,2,8,B|104:63,1,70
80,69,27779,2,8,B|77:165,2,70
84,176,28528,2,8,B|82:319|330:327|304:92|152:125|127:228|128:230|225:301|250:302,1,420
367,81,30778,2,8,B|453:81,2,70
233,165,32277,2,8,B|333:165,2,70
73,297,33776,2,8,B|172:298,2,70
73,297,34526,2,0,B|71:128|160:62|209:72,1,280
253,66,36775,2,0,B|356:66,2,70
422,70,38275,2,0,B|445:281|281:280,1,280
242,152,40149,1,4
235,280,41648,1,4
219,281,42398,2,4,B|56:281|56:281|55:154,1,280
76,76,55143,5,2
188,76,55893,2,2,B|339:76,1,140
330,76,56455,1,2
440,72,57393,5,4
435,172,58892,2,2,B|441:248|320:247,1,140
338,246,59642,1,2
223,252,60391,5,4
79,313,61141,5,8
79,211,61891,2,8,B|74:117|144:72,1,140
236,75,62641,1,8
341,75,63765,2,8,B|442:72|450:173,1,140
446,245,64515,1,0
446,245,64702,1,4
438,294,67139,2,2,B|281:295,1,140
232,299,67889,2,10,B|63:298,1,140
71,177,68638,2,2,B|226:178,1,140
287,178,69388,1,10
431,180,70138,5,4
434,72,70887,2,2,B|271:71,1,140
76,76,71637,1,4
74,193,73137,2,8,B|72:308|150:308,1,140
133,306,73886,2,8,B|294:308,1,140
423,307,74636,5,4
419,211,75761,2,4,B|419:123,1,70
407,60,76136,2,8,B|309:60,1,70
240,60,76510,2,8,B|144:62,1,70
65,70,77635,5,4
64,192,78760,2,2,B|64:282|141:306,1,140
221,222,80259,2,2,B|206:136|99:124,1,140
130,119,81758,2,2,B|213:60|276:88,1,140
324,84,82696,2,2,B|464:120|472:231,1,210
435,278,84757,5,8
365,201,84945,1,8
298,280,85132,1,8
172,278,86257,1,8
72,279,86444,2,8,B|72:124|146:76,1,210
228,76,87756,2,8,B|323:76,1,70
390,71,89630,5,4
386,178,90380,2,4,B|388:270|284:288,1,140
243,169,91130,1,4
57,138,102376,6,2,B|145:33|381:52|472:152,1,420
450,182,104250,2,8,B|449:255,2,70
337,183,105375,1,0
241,183,106124,2,0,B|95:183,1,140
80,94,107249,1,8
188,88,107624,2,8,B|190:252,1,140
61,263,109123,2,8,B|206:334|475:242,1,420
447,173,110623,2,0,B|446:45,1,105
344,66,111372,2,0,B|244:68,2,70
352,167,112122,2,0,B|176:168,1,140
132,169,113059,2,0,B|41:170,1,70
63,80,113621,1,0
168,84,115121,6,0,B|279:84|279:84|277:285,1,280
276,266,116620,2,0,B|409:264|409:264|408:99,1,280
378,70,118120,2,0,B|72:71,1,280
104,173,119244,2,0,B|197:174,2,70
100,304,120744,6,8,B|195:305,2,70
210,160,122243,2,8,B|296:161,2,70
336,73,123743,2,8,B|419:72,3,70
436,217,125242,1,8
92,96,126742,5,8
92,96,126929,1,8
92,96,127116,1,8
216,100,128241,2,8,B|374:100,1,140
419,84,129740,2,8,B|422:239,1,140
253,184,131615,1,4
334,221,132364,2,8,B|332:301|190:317|144:212|149:183|184:153,1,280
372,317,138737,6,8,B|64:314,1,280
84,211,140236,6,8,B|392:216,1,280
360,96,141736,6,8,B|69:94,1,280
77,167,143610,5,4
174,170,144735,6,0,B|466:170,1,280
458,77,146234,2,0,B|173:74,1,280
87,70,147734,2,0,B|84:160,2,70
72,175,149608,1,4
75,288,150733,6,4,B|185:288|219:60,1,280
424,304,152232,2,4,B|272:230|285:46,1,280
101,145,153731,2,0,B|188:71|335:74|425:170,1,350
244,206,155231,1,12
380,316,156730,2,12,B|379:152,1,140
128,114,158417,2,12,B|128:204,1,70
126,276,159261,2,12,B|210:280,1,70
267,284,159917,2,12,B|482:284,1,210
256,192,161978,12,4,163665
