osu file format v14

[General]
AudioFilename: Olimpia vs Bonolis Remix Mashup MV.mp3
AudioLeadIn: 0
PreviewTime: 6535
Countdown: 1
SampleSet: Normal
StackLeniency: 0.7
Mode: 0
LetterboxInBreaks: 1
WidescreenStoryboard: 0

[Editor]
Bookmarks: 28602,36098,38617,47072
DistanceSpacing: 1.5
BeatDivisor: 4
GridSize: 8
TimelineZoom: 2.699999

[Metadata]
Title:Olimpia vs Bonolis REMIX
TitleUnicode:Olimpia vs Bonolis REMIX
Artist:Karmin Shiff
ArtistUnicode:Karmin Shiff
Creator:Chewin
Version:DAMIANO CORAGGIO
Source:
Tags:
BeatmapID:793731
BeatmapSetID:361228

[Difficulty]
HPDrainRate:0
CircleSize:4
OverallDifficulty:8
ApproachRate:9.5
SliderMultiplier:1.8
SliderTickRate:1

[Events]
//Background and Video events
0,0,"PicMonkey-Collage-1-e1443599341791.jpg",0,0
Video,0,"lol.avi"
//Break Periods
2,14529,20042
2,28801,35543
2,36268,38092
//Storyboard Layer 0 (Background)
//Storyboard Layer 1 (Fail)
//Storyboard Layer 2 (Pass)
//Storyboard Layer 3 (Foreground)
//Storyboard Sound Samples

[TimingPoints]
239,239.865675221876,4,1,0,30,1,0
3836,-100,4,2,0,30,0,0
6115,-66.6666666666667,4,1,0,30,0,0
6535,239.865675221876,4,1,0,30,1,0
6535,-76.9230769230769,4,1,0,30,0,0
21886,-66.6666666666667,4,1,0,30,0,0
22366,-76.9230769230769,4,1,0,30,0,0
25724,-66.6666666666667,4,1,0,30,0,0

[Colours]
Combo1 : 255,255,128
Combo2 : 255,128,255
Combo3 : 66,66,255
Combo4 : 242,24,57

[HitObjects]
88,352,239,6,0,P|152:360|232:264,1,180,2|0,0:0|0:0,0:0:0:0:
496,224,718,6,0,L|304:232,1,180,2|0,0:0|0:0,0:0:0:0:
256,160,1078,1,2,0:0:0:0:
201,336,1198,6,0,P|284:312|316:231,1,180,2|0,0:0|0:0,0:0:0:0:
48,40,1798,6,0,L|56:88,1,45,2|0,0:0|0:0,0:0:0:0:
109,220,1918,2,0,P|128:180|128:136,1,90,2|0,0:0|0:0,0:0:0:0:
109,220,2877,6,0,P|128:180|128:136,1,90,2|0,0:0|0:0,0:0:0:0:
176,352,3836,5,0,0:0:0:0:
176,352,3956,1,0,0:0:0:0:
176,352,4076,1,0,0:0:0:0:
304,192,4316,6,0,L|400:184,2,90
272,328,5156,5,2,0:0:0:0:
176,352,5276,1,2,0:0:0:0:
112,280,5396,1,2,0:0:0:0:
112,280,5516,1,2,0:0:0:0:
304,192,5635,5,2,0:0:0:0:
80,368,5935,1,2,0:0:0:0:
272,328,6055,1,2,0:0:0:0:
272,328,6115,6,0,B|320:384|432:344|408:240|408:240|464:256|544:192|488:96|448:80,1,405.000015449525
341,33,6535,6,0,B|376:96|320:160|320:160|384:136|432:168,1,233.999989288331,6|2,0:0|0:0,0:0:0:0:
272,80,6834,2,0,L|160:64,1,58.4999973220826
16,328,7014,6,0,P|64:368|136:184,1,350.999983932496,2|0,0:0|0:0,0:0:0:0:
24,200,7434,1,2,0:0:0:0:
88,272,7494,6,0,P|152:294|289:207,1,233.999989288331,2|0,0:0|0:0,0:0:0:0:
296,131,7794,2,0,P|270:71|219:31,1,116.999994644165,2|0,0:0|0:0,0:0:0:0:
130,211,7974,6,0,P|205:197|99:172,1,292.499986610413,2|0,0:0|0:0,0:0:0:0:
16,328,8333,1,0,0:0:0:0:
24,200,8453,6,0,P|88:208|144:72,1,233.999989288331,2|2,0:0|0:0,0:0:0:0:
64,112,8753,2,0,L|32:40,1,58.4999973220826,2|0,0:0|0:0,0:0:0:0:
112,192,8873,6,0,P|192:176|176:352,1,292.499986610413,2|2,0:0|0:0,0:0:0:0:
136,376,9233,1,0,0:0:0:0:
72,320,9293,2,0,P|56:296|64:232,1,58.4999973220826,2|0,0:0|0:0,0:0:0:0:
172,261,9413,6,0,P|272:256|288:96,1,233.999989288331,2|2,0:0|0:0,0:0:0:0:
184,96,9713,1,0,0:0:0:0:
224,168,9773,6,0,P|280:208|400:152,1,175.499991966248,2|0,0:0|0:0,0:0:0:0:
440,128,10013,2,0,P|456:96|448:40,1,58.4999973220826,2|0,0:0|0:0,0:0:0:0:
456,224,10132,2,0,L|464:304,1,58.4999973220826,2|0,0:0|0:0,0:0:0:0:
408,360,10252,1,0,0:0:0:0:
320,360,10312,6,0,P|280:336|264:304,1,58.4999973220826,2|0,0:0|0:0,0:0:0:0:
112,192,10612,1,0,0:0:0:0:
172,260,10732,6,0,P|239:265|272:81,1,292.499986610413
224,168,11092,6,0,L|240:240,1,58.4999973220826,2|0,0:0|0:0,0:0:0:0:
200,352,11212,2,0,P|144:344|80:256,1,116.999994644165,2|0,0:0|0:0,0:0:0:0:
360,192,11572,1,0,0:0:0:0:
456,224,11692,6,0,P|416:272|288:120,1,350.999983932496
344,64,12111,1,0,0:0:0:0:
383,139,12171,6,0,P|376:167|360:192,1,58.4999973220826
296,248,12291,5,0,0:0:0:0:
296,248,12351,2,0,P|224:272|152:248,1,116.999994644165
112,232,12531,5,0,0:0:0:0:
112,232,12591,1,0,0:0:0:0:
112,232,12651,2,0,P|80:184|128:56,1,175.499991966248
176,152,12891,6,0,P|224:136|248:104,1,58.4999973220826
152,46,13011,2,0,P|125:55|104:75,1,58.4999973220826
176,152,13131,6,0,P|256:160|344:64,1,175.499991966248
368,40,13371,1,0,0:0:0:0:
488,167,13491,6,0,P|430:170|382:138,1,116.999994644165
296,248,13671,5,0,0:0:0:0:
312,328,13730,1,0,0:0:0:0:
392,304,13790,1,0,0:0:0:0:
392,304,13850,1,0,0:0:0:0:
112,232,13970,1,0,0:0:0:0:
464,360,14090,6,2,P|488:304|376:208,1,233.999989288331
152,224,20567,6,0,L|145:161,1,58.4999973220826,2|0,0:0|0:0,0:0:0:0:
176,32,20687,6,0,B|192:96|150:158|150:158|108:248|168:320,1,292.499986610413,2|0,0:0|0:0,0:0:0:0:
232,232,21046,6,2,P|272:288|288:168,1,292.499986610413
96,72,21406,1,0,0:0:0:0:
288,368,21526,6,0,P|352:360|424:264,1,175.499991966248,2|0,0:0|0:0,0:0:0:0:
424,179,21766,6,0,P|405:137|365:106,1,58.4999973220826,2|0,0:0|0:0,0:0:0:0:
305,74,21886,1,0,0:0:0:0:
421,279,22006,6,2,P|432:216|252:75,1,270.000010299683
72,352,22306,5,0,0:0:0:0:
136,296,22366,2,0,P|128:256|96:216,1,58.4999973220826,2|0,0:0|0:0,0:0:0:0:
8,216,22486,6,0,P|88:232|152:80,1,233.999989288331,2|0,0:0|0:0,0:0:0:0:
88,24,22785,1,0,0:0:0:0:
39,97,22845,6,0,L|80:152,1,58.4999973220826
136,216,22965,6,0,P|208:240|304:152,1,175.499991966248,2|0,0:0|0:0,0:0:0:0:
305,73,23205,1,0,0:0:0:0:
512,336,23325,5,0,0:0:0:0:
496,352,23385,2,0,P|432:360|416:192,1,233.999989288331
456,272,23685,2,0,P|480:232|488:192,1,58.4999973220826
448,64,23805,1,0,0:0:0:0:
408,144,23865,6,0,P|384:128|360:64,1,58.4999973220826,2|0,0:0|0:0,0:0:0:0:
40,96,24165,5,0,0:0:0:0:
312,360,24285,1,0,0:0:0:0:
248,304,24345,6,0,L|176:312,1,58.4999973220826,2|0,0:0|0:0,0:0:0:0:
29,334,24464,6,0,L|88:328,1,58.4999973220826,2|0,0:0|0:0,0:0:0:0:
240,224,24584,6,0,L|168:232,1,58.4999973220826,2|0,0:0|0:0,0:0:0:0:
21,254,24703,6,0,L|79:247,1,58.4999973220826,2|0,0:0|0:0,0:0:0:0:
271,143,24824,6,2,P|290:88|308:187,1,292.499986610413
192,104,25184,2,0,P|208:56|240:24,1,58.4999973220826
280,0,25304,1,0,0:0:0:0:
448,208,25544,6,0,L|456:288,1,58.4999973220826,2|0,0:0|0:0,0:0:0:0:
464,360,25664,1,0,0:0:0:0:
456,376,25724,6,2,B|432:312|464:248|464:248|496:152|448:88,1,270.000010299683
352,112,26024,2,0,P|352:144|376:184,1,67.5000025749208
304,264,26144,1,0,0:0:0:0:
248,360,26203,6,0,P|336:360|368:184,1,270.000010299683
304,264,26503,2,0,L|224:248,1,67.5000025749208
160,312,26623,1,0,0:0:0:0:
248,360,26683,6,2,P|232:248|80:248,1,270.000010299683
32,304,26983,2,0,P|48:336|96:360,1,67.5000025749208
160,312,27103,6,0,P|208:256|24:168,1,337.500012874604
95,233,27463,6,2,P|128:224|168:176,1,67.5000025749208
184,126,27583,6,2,P|223:59|207:171,1,337.500012874604
153,203,27943,2,0,P|113:179|104:120,1,67.5000025749208
104,80,28062,1,0,0:0:0:0:
104,80,28122,6,0,P|120:32|160:8,1,67.5000025749208
252,120,28242,6,0,P|320:128|400:48,1,135.000005149842
432,184,28422,6,0,P|472:136|432:8,1,202.500007724762
256,192,36068,5,6,0:0:0:0:
160,168,38617,6,2,P|160:64|96:208,1,506.250019311906
312,360,39336,2,0,L|392:352,1,67.5000025749208,2|0,0:0|0:0,0:0:0:0:
504,328,39456,6,0,B|416:320|416:320|272:352|272:352|120:312,1,337.500012874604,2|0,0:0|0:0,0:0:0:0:
263,219,39816,2,0,L|279:107,1,67.5000025749208,2|0,0:0|0:0,0:0:0:0:
271,19,39936,1,0,0:0:0:0:
263,27,39996,6,0,B|279:115|279:115|247:195|247:195|255:299,1,270.000010299683,2|0,0:0|0:0,0:0:0:0:
352,232,40296,2,0,L|448:224,1,67.5000025749208,2|0,0:0|0:0,0:0:0:0:
512,144,40416,1,0,0:0:0:0:
504,152,40475,6,0,P|448:208|416:48,1,337.500012874604,2|0,0:0|0:0,0:0:0:0:
424,136,40835,6,0,P|416:184|376:224,1,67.5000025749208
336,288,40955,6,2,P|264:320|152:128,1,337.500012874604
288,120,41315,1,0,0:0:0:0:
248,200,41375,6,0,P|152:256|24:112,1,337.500012874604
154,79,41735,6,0,L|141:146,1,67.5000025749208,2|0,0:0|0:0,0:0:0:0:
144,352,41855,6,2,B|160:248|160:248|104:168|104:168|136:16,1,337.500012874604
208,144,42215,2,0,L|296:136,1,67.5000025749208
480,192,42334,6,0,P|408:192|344:272,1,135.000005149842,2|0,0:0|0:0,0:0:0:0:
336,312,42514,6,0,P|368:344|416:344,1,67.5000025749208
480,336,42634,2,0,P|504:288|496:248,1,67.5000025749208
480,192,42754,1,0,0:0:0:0:
416,272,42814,6,2,P|384:216|528:96,1,270.000010299683
480,192,43114,2,0,P|440:184|408:144,1,67.5000025749208
414,25,43234,6,0,P|358:65|342:321,1,337.500012874604
256,368,43594,2,0,P|232:336|232:272,1,67.5000025749208
360,216,43714,6,0,P|304:296|200:120,1,405.000015449525,2|0,0:0|0:0,0:0:0:0:
293,151,44133,2,0,L|256:208,1,67.5000025749208
160,264,44253,6,0,P|104:200|80:376,1,405.000015449525,2|0,0:0|0:0,0:0:0:0:
72,288,44673,6,2,P|40:272|256:232,1,742.500028324128
160,264,45393,1,0,0:0:0:0:
104,208,45453,6,0,P|64:176|72:80,1,135.000005149842,2|0,0:0|0:0,0:0:0:0:
136,64,45633,6,0,P|256:112|176:192,1,270.000010299683,2|0,0:0|0:0,0:0:0:0:
160,264,45932,2,0,L|168:352,1,67.5000025749208,2|0,0:0|0:0,0:0:0:0:
256,376,46052,1,0,0:0:0:0:
280,288,46112,6,0,L|232:248,4,33.7500012874604
344,352,46292,2,0,L|432:344,1,67.5000025749208
512,296,46412,6,0,P|448:304|400:232,1,135.000005149842
424,176,46592,6,2,P|392:48|360:232,1,540.000020599366
