osu file format v9

[General]
AudioFilename: MinDeaD BlooD Vampire -Head Backing Version- [].mp3
AudioLeadIn: 0
PreviewTime: 56357
Countdown: 1
SampleSet: Normal
StackLeniency: 0.7
Mode: 0
LetterboxInBreaks: 1

[Editor]
Bookmarks: 11058,23400,34372,45343,56315,67286,83058,94715,105686,116658,127629,143400,166029,177000,187972,198943,209915,226372,237343,247458,252429
DistanceSpacing: 1.4
BeatDivisor: 4
GridSize: 4

[Metadata]
Title:Vampire -Head Backing Version-
Artist:Karen
Creator:Teras
Version:Collab
Source:MinDeaD BlooD
Tags:Yousei Teikoku black cyc Saten-san

[Difficulty]
HPDrainRate:7
CircleSize:4
OverallDifficulty:9
ApproachRate:9
SliderMultiplier:1.8
SliderTickRate:1

[Events]
//Background and Video events
0,0,"Blood.jpg"
//Break Periods
2,144285,165429
2,188172,188743
//Storyboard Layer 0 (Background)
//Storyboard Layer 1 (Fail)
//Storyboard Layer 2 (Pass)
//Storyboard Layer 3 (Foreground)
//Storyboard Sound Samples
//Background Colour Transformations
3,100,163,162,255

[TimingPoints]
1458,342.857142857143,4,1,1,70,1,0
34372,-100,4,2,1,70,0,0
56315,-100,4,1,1,70,0,1
78258,-100,4,1,1,70,0,0
105686,-200,4,2,1,70,0,0
110572,-100,4,2,1,70,0,0
111129,-200,4,2,1,70,0,0
116658,-100,4,1,1,70,0,1
131700,-200,4,1,1,70,0,1
132343,-100,4,1,1,70,0,1
138600,-100,4,1,1,70,0,0
143358,-200,4,1,1,70,0,0
144172,-100,4,1,1,70,0,0
177000,-100,4,2,0,50,0,1
188058,-200,4,2,0,70,0,0
198943,-100,4,1,1,70,0,1
203015,-200,4,1,1,70,0,1
203572,-100,4,1,1,70,0,1
220886,-100,4,1,1,70,0,0

[HitObjects]
72,312,11058,1,0
92,321,11143,1,0
113,328,11229,1,0
134,333,11315,1,0
156,336,11400,1,0
178,335,11486,1,0
199,328,11572,2,2,B|274:266|400:306,1,180,2|0
388,309,12000,1,0
407,319,12086,1,0
429,320,12172,1,0
449,311,12258,1,0
460,291,12343,1,0
459,268,12429,1,12
426,146,12600,6,0,B|379:127|327:149,1,90,0|0
239,65,12943,2,0,B|280:22,2,45,0|0|8
130,129,13286,1,0
110,153,13372,1,0
100,183,13458,1,0
99,214,13543,1,0
103,245,13629,1,0
117,268,13715,1,0
137,285,13800,2,0,B|328:286,1,180,10|8
422,215,14315,2,0,B|447:158|413:114,1,90,0|8
256,40,14658,2,0,B|232:96|256:136,1,90,0|8
250,322,15000,1,0
222,321,15086,1,0
194,320,15172,2,0,B|124:319|124:319|96:294,1,90,4|0
195,92,15515,6,0,B|309:92,1,90,8|0
377,178,15858,2,0,B|411:141,2,45
334,296,16200,2,0,B|278:351|224:325,1,90,8|0
168,241,16543,2,0,B|122:260|77:205,1,90
79,190,16800,1,0
77,162,16886,1,8
171,78,17058,2,2,B|256:30|346:82,1,180,2|0
420,179,17572,1,8
412,205,17658,1,0
397,227,17743,1,0
381,249,17829,1,0
363,269,17915,1,4
242,313,18086,6,0,B|191:331|147:303,1,90
209,193,18429,2,0,B|258:167|304:200,1,90,0|8
363,300,18772,1,0
406,310,18858,1,0
450,309,18943,1,0
480,276,19029,1,0
486,231,19115,1,0
441,224,19200,1,0
396,220,19286,2,0,B|355:199|356:127,1,90,2|0
467,82,19629,2,0,B|431:53|380:45,1,90,0|8
296,265,19972,2,0,B|245:284|194:283,1,90,0|8
168,121,20315,2,0,B|122:112|65:121,1,90,0|8
70,245,20658,2,0,B|25:274,2,45,4|0|0
175,303,21000,5,8
297,334,21172,1,0
418,301,21343,2,0,B|443:254|414:204,1,90
342,114,21686,1,8
342,100,21772,1,0
342,86,21858,1,0
222,48,22029,2,0,B|176:92|139:92|139:92|109:90,1,90,0|0
19,103,22372,1,8
96,201,22543,2,2,B|196:230|216:347,1,180,2|0
225,326,22972,1,0
240,328,23058,1,8
256,328,23143,1,0
272,328,23229,1,0
288,328,23315,1,0
304,328,23400,6,0,B|352:312|368:264,1,90,4|0
368,248,23658,1,0
360,232,23743,2,0,B|336:192|336:144,1,90
256,40,24086,2,0,B|208:40|176:80,2,90
376,104,24600,2,0,B|416:136|464:120,2,90
248,144,25115,2,0,B|208:176|208:224,1,90
200,240,25372,1,0
184,256,25458,1,0
160,264,25543,1,0
136,264,25629,1,0
112,264,25715,1,0
96,248,25800,6,0,B|24:168|72:72,1,180
200,40,26315,1,0
224,40,26400,1,0
248,48,26486,2,0,B|288:80|336:80,1,90
408,192,26829,2,0,B|408:240|360:272,1,90
232,280,27172,2,0,B|184:272|168:224,2,90
264,152,27686,2,0,B|312:168|320:216,2,90
240,144,28115,1,0
216,136,28200,1,0
200,120,28286,1,0
192,96,28372,1,0
200,80,28458,1,0
216,64,28543,6,0,B|312:32|392:72,1,180
480,176,29058,1,0
488,192,29143,1,0
488,216,29229,2,0,B|488:264|448:296,1,90
320,320,29572,2,0,B|272:304|264:256,1,90
248,120,29915,2,0,B|208:96|160:112,2,90
360,200,30429,2,0,B|408:176|408:128,2,90
336,208,30858,1,0
312,208,30943,1,0
288,200,31029,1,0
272,192,31115,1,0
248,192,31200,1,0
224,200,31286,6,0,B|160:240|112:192|48:240,1,180
104,360,31800,1,0
128,368,31886,1,0
152,360,31972,2,0,B|184:320|240:328,1,90
368,336,32315,2,0,B|408:312|424:264,1,90
432,136,32658,2,0,B|432:88|384:64,2,90
296,160,33172,2,0,B|312:208|360:224,2,90
288,144,33600,1,0
272,128,33686,1,0
248,120,33772,1,0
224,120,33858,1,0
208,128,33943,1,0
192,144,34029,2,0,B|144:232|32:184,1,180,0|4
81,303,34543,6,0,B|133:326|192:294,1,90,2|0
288,265,34886,2,0,B|344:249|389:271,1,90,0|2
476,188,35229,1,8
476,188,35315,1,0
392,93,35486,1,0
392,93,35572,1,8
267,79,35743,2,0,B|225:105|167:75,1,90,2|0
72,328,36086,2,0,B|115:362|160:323,1,90,2|0
192,303,36343,1,0
236,296,36429,2,0,B|328:259|430:306,1,180,0|2
452,321,36858,1,0
490,297,36943,1,0
505,254,37029,1,0
494,210,37115,6,0,B|445:224|311:140|418:143,1,180,4|0
297,98,37629,1,2
171,86,37800,1,0
77,167,37972,1,8
77,166,38058,1,0
120,283,38229,1,0
178,307,38315,1,8
302,322,38486,2,0,B|357:294|352:223,1,90,2|0
210,62,38829,2,0,B|155:90|160:161,1,90,2|0
391,346,39172,2,0,B|446:318|441:247,1,90,2|0
136,32,39515,2,0,B|81:60|86:131,1,90,2|0
95,146,39772,1,0
116,185,39858,1,4
155,307,40029,6,0,B|262:307,1,90,0|2
369,326,40372,1,0
470,251,40543,1,0
346,225,40715,2,0,B|295:252,1,45,8|0
324,120,40972,2,0,B|371:91,3,45,0|8|0|4
237,81,41400,1,8
237,81,41486,1,0
114,112,41658,1,0
114,112,41743,1,8
101,235,41915,2,0,B|112:299|178:299|178:299|250:361,1,180,2|2
275,346,42343,1,0
320,346,42429,1,0
365,346,42515,1,0
409,344,42600,1,4
399,93,42772,5,2
277,126,42943,1,0
152,106,43115,1,2
27,129,43286,1,0
105,224,43458,1,8
105,224,43543,1,0
200,305,43715,1,0
200,305,43800,2,0,B|277:262|382:292,1,180,8|2
395,300,44229,1,0
417,301,44315,1,0
438,293,44400,1,0
453,276,44486,1,0
455,253,44572,1,0
444,233,44658,1,2
318,227,44829,5,8
255,220,44915,1,0
214,172,45000,1,0
315,99,45172,1,8
266,58,45258,1,0
203,60,45343,6,0,B|152:64|104:104,1,90,4|0
88,120,45600,1,0
80,168,45686,2,0,B|96:216|144:232,1,90
176,256,45943,2,0,B|208:304|176:344,1,90
136,360,46200,2,0,B|88:360|56:312,2,90
256,296,46715,6,0,B|304:272|344:296,1,90
384,320,46972,2,0,B|440:312|456:272,1,90
456,224,47229,2,0,B|432:176|384:184,3,90
296,200,47915,1,0
208,192,48086,6,0,B|168:160|176:112,2,90
256,272,48600,2,0,B|288:312|264:360,2,90
168,264,49115,2,0,B|112:264|88:224,1,90
48,152,49458,6,0,B|24:104|48:64,1,90
80,40,49715,2,0,B|128:24|176:48,1,90
208,72,49972,2,0,B|256:88|304:72,2,90
168,88,50400,2,0,B|160:136|192:176,1,90
224,200,50658,2,0,B|272:224|312:208,1,90
464,192,51000,6,0,B|496:232|488:280,2,90
392,136,51515,2,0,B|360:96|368:48,1,90
400,24,51772,2,0,B|448:32|464:88,1,90
456,128,52029,2,0,B|432:192|392:200,1,90
256,256,52372,6,0,B|208:240|184:200,1,90
144,128,52715,2,0,B|112:88|64:96,2,90
184,152,53143,2,0,B|232:168|272:136,1,90
304,112,53400,2,0,B|352:112|384:152,1,90
408,240,53743,5,0
352,312,53915,1,0
256,344,54086,1,0
152,328,54258,1,0
64,256,54429,1,0
32,136,54600,1,0
120,32,54772,1,0
264,24,54943,1,0
408,80,55115,1,0
408,240,55286,2,0,B|296:272|248:184,1,180,0|4
84,318,56315,5,4
120,320,56400,1,0
152,320,56486,1,0
274,288,56658,2,0,B|319:253|376:276,1,90,0|8
441,175,57000,2,0,B|394:207|353:158,1,90,0|8
272,72,57343,1,0
240,56,57429,1,0
208,48,57515,1,8
176,56,57600,1,0
144,72,57686,1,0
138,294,57858,2,0,B|172:328|223:326,1,90,8|0
337,282,58200,2,0,B|381:256|386:192,1,90,8|0
326,96,58543,2,0,B|291:127|286:189,1,90,8|0
285,202,58800,1,0
268,223,58886,1,8
242,231,58972,1,0
219,216,59058,6,0,B|192:179|151:156,1,90,4|8
65,65,59400,2,0,B|57:112|64:168,1,90,0|8
118,267,59743,2,0,B|129:218|121:161,2,90,0|8|0
123,294,60172,1,0
135,318,60258,1,8
156,334,60343,1,0
182,336,60429,2,0,B|283:336,1,90,4|8
366,251,60772,2,0,B|268:251,1,90,0|8
73,227,61115,6,0,B|55:176|84:115,1,90,2|8
437,138,61458,2,0,B|457:176|439:227,1,90,2|8
349,313,61800,2,0,B|336:259|346:218,1,90,4|8
359,98,62143,1,0
240,54,62315,1,8
213,57,62400,1,0
186,61,62486,1,0
63,92,62658,2,0,B|34:55,2,45,8|0|0
118,122,62915,2,0,B|169:113,2,45,0|8|0
62,152,63172,2,0,B|42:202|67:259,1,90,0|8
166,307,63515,2,0,B|178:262|166:202,1,90,0|8
221,102,63858,2,0,B|204:143|221:196,1,90,0|8
427,242,64200,2,0,B|439:201|430:153,1,90,0|8
423,126,64458,1,0
406,105,64543,1,4
257,128,64715,6,0,B|154:128,1,90,8|0
70,210,65058,2,0,B|70:268|131:268,1,90,8|0
231,333,65400,2,0,B|231:276|298:276,1,90,8|0
398,335,65743,1,8
450,220,65915,1,4
444,207,66000,1,0
437,195,66086,1,0
429,184,66172,1,0
420,173,66258,1,0
410,163,66343,1,0
400,153,66429,1,0
389,143,66515,1,0
378,134,66600,1,0
367,125,66686,1,0
356,116,66772,1,0
344,108,66858,1,0
333,100,66943,1,0
321,93,67029,1,0
308,87,67115,1,0
295,81,67200,1,0
280,72,67286,6,0,B|240:48|192:64,1,90,4|0
184,200,67629,2,0,B|224:224|272:208,1,90
400,256,67972,1,0
408,280,68058,1,0
408,304,68143,1,0
400,328,68229,1,0
384,352,68315,2,0,B|344:376|296:360,1,90
160,336,68658,6,0,B|104:320|104:264,1,90
144,144,69000,2,0,B|192:128|208:72,1,90
216,56,69258,1,0
240,48,69343,1,0
264,48,69429,1,0
288,56,69515,1,0
312,72,69600,1,0
328,96,69686,2,0,B|344:144|400:160,1,90
488,248,70029,6,0,B|512:296|480:336,1,90
352,352,70372,2,0,B|312:320|312:272,2,90
392,224,70886,2,0,B|360:176|312:176,1,90
296,176,71143,1,0
272,184,71229,1,0
248,200,71315,1,0
232,224,71400,2,0,B|208:272|152:272,1,90
24,280,71743,6,0,B|0:328|32:368,2,90
32,256,72172,1,0
48,240,72258,1,0
72,224,72343,1,0
96,216,72429,2,0,B|144:192|152:144,1,90
256,64,72772,6,0,B|296:48|344:64,2,90
232,80,73200,1,0
208,96,73286,1,0
184,104,73372,1,0
160,104,73458,2,0,B|112:88|72:112,1,90
24,232,73800,2,0,B|24:280|64:312,1,90
192,344,74143,6,0,B|240:352|280:320,2,90
168,336,74572,1,0
144,320,74658,1,0
128,296,74743,1,0
128,272,74829,2,0,B|144:224|200:224,1,90
328,224,75172,2,0,B|376:216|392:168,1,90
440,40,75515,6,0,B|400:8|352:24,2,90
456,56,75943,1,0
464,80,76029,1,0
464,104,76115,1,0
456,128,76200,2,0,B|432:168|448:216,1,90
496,344,76543,2,0,B|456:368|400:352,1,90
288,288,76886,6,0,B|288:240,15,45
280,224,78258,5,0
268,208,78343,1,0
252,200,78429,1,0
236,196,78515,1,0
220,196,78600,1,0
204,200,78686,1,0
188,208,78772,1,0
176,220,78858,1,0
160,232,78943,1,0
144,236,79029,1,0
124,236,79115,1,0
108,228,79200,1,0
96,216,79286,1,0
84,204,79372,1,0
80,188,79458,1,0
80,172,79543,1,0
88,156,79629,5,0
100,144,79715,1,0
116,136,79800,1,0
132,132,79886,1,0
148,124,79972,1,0
160,112,80058,1,0
164,96,80143,1,0
176,80,80229,1,0
192,72,80315,1,0
208,72,80400,1,0
224,76,80486,1,0
240,84,80572,1,0
252,96,80658,1,0
256,112,80743,1,0
264,128,80829,1,0
276,140,80915,1,0
292,152,81000,5,0
308,156,81086,1,0
324,152,81172,1,0
340,144,81258,1,0
356,132,81343,1,0
376,132,81429,1,0
392,140,81515,1,0
404,152,81600,1,0
416,168,81686,1,0
420,184,81772,1,0
420,204,81858,1,0
416,220,81943,1,0
408,236,82029,1,0
396,252,82115,1,0
380,264,82200,1,0
364,268,82286,1,0
348,276,82372,5,0
332,276,82458,1,0
316,280,82543,1,0
296,280,82629,1,0
280,276,82715,1,0
264,268,82800,1,0
248,256,82886,1,0
244,240,82972,1,0
244,220,83058,1,4
171,80,83743,5,8
127,68,83829,1,0
84,83,83915,1,0
128,200,84086,2,0,B|179:216|242:193,1,90
319,124,84429,2,0,B|368:97,2,45,8|0|0
403,218,84772,1,0
362,337,84943,1,0
237,314,85115,1,8
197,293,85200,1,0
152,297,85286,2,0,B|85:308|57:257,1,90,0|0
193,130,85629,2,0,B|246:128|274:175,1,90,2|8
118,275,85972,2,0,B|78:252|49:197,1,90,2|8
318,64,86315,2,0,B|361:83|382:127,1,90,2|8
385,152,86572,1,0
383,179,86658,1,0
335,295,86829,6,0,B|316:337,2,45,4|0|0
210,273,87172,1,8
162,284,87258,1,0
113,272,87343,1,0
86,148,87515,2,0,B|141:98,3,45
119,117,87858,2,0,B|155:84|218:89,1,90,8|0
315,209,88200,1,0
240,311,88372,2,2,B|287:367|339:334|339:334|433:334,1,180,2|0
406,334,88886,1,0
433,297,88972,1,0
443,253,89058,1,0
436,208,89143,1,0
425,165,89229,1,12
299,161,89400,6,0,B|245:161|245:161|214:137,1,90
119,57,89743,2,0,B|71:57|71:57|39:83,1,90,0|8
111,186,90086,2,0,B|166:186|166:186|200:214,1,90
225,238,90343,1,0
259,266,90429,1,0
302,277,90515,1,0
346,269,90600,1,8
394,152,90772,2,0,B|349:132|301:159,1,90
357,321,91115,2,0,B|400:341|449:318,1,90,2|8
255,62,91458,2,0,B|206:49|158:64,1,90,2|0
95,322,91800,2,0,B|144:335|192:320,1,90,2|8
209,305,92058,1,0
235,311,92143,1,0
358,285,92315,6,0,B|381:329,3,45
378,324,92658,2,0,B|421:304|436:257,1,90,8|0
438,132,93000,2,0,B|419:87|372:59,1,90
277,136,93343,2,0,B|236:107|161:117,1,90,8|0
152,125,93600,1,0
136,157,93686,1,4
184,258,93858,5,0
209,282,93943,1,0
239,301,94029,1,0
273,310,94115,1,0
308,314,94200,1,0
344,312,94286,1,0
379,304,94372,1,0
411,287,94458,1,0
437,263,94543,1,0
455,220,94629,1,0
452,184,94715,6,0,B|452:128|412:108,1,90,4|0
376,104,94972,2,0,B|324:108|296:72,1,90
272,48,95229,2,0,B|228:28|184:52,1,90
100,156,95572,2,0,B|84:204|32:224,2,90
236,156,96086,2,0,B|252:204|304:224,2,90
168,40,96600,2,0,B|120:32|80:48,1,90
60,64,96858,1,0
48,88,96943,1,0
48,116,97029,1,0
60,140,97115,2,0,B|112:152|120:208,1,90
120,336,97458,6,0,B|164:352|216:336,1,90
316,256,97800,2,0,B|344:216|392:208,1,90
468,320,98143,2,0,B|444:360|392:368,1,90
360,368,98400,2,0,B|308:360|288:316,1,90
268,292,98658,2,0,B|244:256|188:256,1,90
164,260,98915,5,0
140,276,99000,1,0
124,296,99086,1,0
120,324,99172,1,0
108,348,99258,1,0
84,360,99343,1,0
56,356,99429,1,0
36,340,99515,5,0
28,316,99600,1,0
32,288,99686,1,0
32,260,99772,1,0
36,232,99858,1,0
52,212,99943,1,0
80,204,100029,1,0
108,200,100115,1,0
132,188,100200,6,0,B|184:168|184:116,1,90
80,32,100543,2,0,B|28:48|20:100,2,90
108,32,100972,1,0
136,36,101058,1,0
160,48,101143,1,0
180,68,101229,2,0,B|220:96|272:80,1,90
396,40,101572,6,0,B|440:72|420:124,1,90
312,196,101915,2,0,B|256:216|256:264,1,90
360,344,102258,2,0,B|416:352|448:316,1,90
472,284,102515,2,0,B|496:240|464:196,1,90
432,172,102772,2,0,B|388:144|396:92,1,90
276,32,103115,6,0,B|236:60|244:116,1,90
284,240,103458,2,0,B|304:292|264:332,1,90
236,352,103715,2,0,B|184:364|144:328,1,90
136,292,103972,2,0,B|124:244|80:228,1,90
52,224,104229,1,0
28,212,104315,5,0
12,188,104400,1,0
16,160,104486,1,0
36,144,104572,1,0
60,136,104658,1,0
88,140,104743,1,0
112,148,104829,1,0
120,172,104915,1,0
128,196,105000,2,0,B|192:272|296:236,1,180
256,164,105686,6,0,B|308:124|397:141,1,135,4|0
412,151,106286,1,0
428,177,106372,1,2
290,330,106715,1,0
109,273,107058,2,0,B|87:212,1,45,2|8
99,160,107400,1,0
140,112,107572,1,0
197,87,107743,2,0,B|226:74|252:97,1,45,2|0
268,145,108086,2,0,B|293:141|303:114,1,45
258,71,108429,2,0,B|322:30|400:65,2,135,4|0|2
336,169,109800,5,8
355,193,109886,1,0
359,224,109972,1,0
353,255,110058,1,0
338,282,110143,1,0
312,300,110229,1,8
281,307,110315,1,8
249,308,110400,1,8
217,307,110486,1,4
99,241,110743,1,2
221,183,111000,1,0
221,183,111086,1,0
221,183,111172,1,4
153,76,111515,6,0,B|101:75|74:131,2,90,0|8|0
256,147,112543,1,2
301,102,112715,1,0
358,77,112886,1,0
416,101,113058,1,0
457,148,113229,2,0,B|481:184|477:222|464:256|413:256|413:256|393:281,1,180,2|4
369,304,114000,5,0
343,322,114086,1,0
314,335,114172,1,0
283,341,114258,1,0
252,345,114343,1,0
220,339,114429,1,0
191,325,114515,1,0
164,309,114600,1,0
134,296,114686,1,0
102,300,114772,1,0
77,319,114858,1,0
46,313,114943,2,0,B|19:328,2,22.5
57,283,115200,2,0,B|79:265,3,22.5
43,264,115543,6,0,B|24:247,1,22.5
22,217,115715,1,0
24,185,115800,1,0
28,153,115886,1,0
47,127,115972,1,4
256,52,116658,6,0,B|364:36|412:116,1,180,4|0
420,140,117086,1,0
420,168,117172,1,0
412,192,117258,1,0
396,216,117343,1,0
376,236,117429,1,0
352,248,117515,2,0,B|308:224|264:244,2,90
256,340,118029,6,0,B|152:344|96:264,1,180
88,244,118458,1,0
84,216,118543,1,0
92,192,118629,1,0
108,168,118715,1,0
132,152,118800,1,0
160,148,118886,2,0,B|200:172|248:152,2,90
256,52,119400,6,0,B|352:20|436:68,1,180
448,84,119829,1,0
456,108,119915,1,0
448,132,120000,1,0
432,156,120086,1,0
412,172,120172,1,0
384,176,120258,1,0
356,172,120343,1,0
332,160,120429,6,0,B|232:172|192:260,1,180
192,288,120858,1,0
204,312,120943,1,0
224,328,121029,1,0
252,332,121115,1,0
276,324,121200,1,0
296,308,121286,1,0
312,288,121372,1,0
308,260,121458,6,0,B|268:172|168:160,2,180
312,288,122229,1,0
332,308,122315,1,0
356,320,122400,1,0
384,320,122486,1,0
408,312,122572,1,0
432,296,122658,2,0,B|468:268|460:216,1,90
428,196,122915,2,0,B|400:152|416:104,1,90
440,84,123172,2,0,B|428:32|368:24,1,90
244,28,123515,6,0,B|216:68|240:116,1,90
252,136,123772,1,0
268,156,123858,1,0
288,172,123943,1,0
312,184,124029,2,0,B|352:216|332:264,1,90
316,296,124286,2,0,B|304:344|344:376,1,90
380,376,124543,2,0,B|432:372|448:324,1,90
488,196,124886,6,0,B|480:96|384:64,1,180
356,64,125315,1,0
332,72,125400,1,0
308,88,125486,1,0
288,108,125572,2,0,B|244:196|136:200,1,180
44,52,126258,5,0
68,36,126343,1,0
96,28,126429,1,0
124,36,126515,1,0
148,48,126600,1,0
164,68,126686,1,0
172,92,126772,1,0
164,116,126858,1,0
148,140,126943,1,0
128,156,127029,1,0
108,172,127115,1,0
96,196,127200,1,0
88,224,127286,1,0
92,252,127372,1,0
108,276,127458,1,0
128,292,127543,1,0
152,300,127629,1,0
256,230,127800,6,0,B|298:239|355:251,1,90,8|0
458,195,128143,2,0,B|446:90,1,90,8|0
326,69,128486,1,8
213,126,128658,1,0
185,90,128743,1,0
141,78,128829,1,8
97,89,128915,1,0
72,126,129000,2,0,B|49:169|67:219,1,90,0|8
228,286,129343,2,0,B|249:237|239:183,1,90,0|8
72,126,129686,2,0,B|49:169|67:219,1,90,0|8
389,328,130029,2,0,B|413:277|383:216,1,90,0|8
375,198,130286,1,0
381,153,130372,1,4
267,99,130543,6,0,B|223:80|223:80|174:81,1,90,8|0
75,150,130886,2,0,B|127:149|127:149|164:166,1,90,8|0
95,272,131229,1,8
213,314,131400,1,0
233,331,131486,1,0
257,342,131572,1,0
284,342,131658,1,0
309,333,131743,2,0,B|459:333,1,135,4|0
360,72,132429,6,0,B|247:72,1,90,2|8
166,282,132772,2,0,B|269:282,1,90,2|8
379,255,133115,1,0
379,255,133200,1,0
379,255,133286,1,8
442,145,133458,2,0,B|394:121|354:149,1,90,0|8
237,106,133800,2,0,B|147:85,1,90,0|8
74,187,134143,2,0,B|40:217,3,45,0|0|8|0
40,216,134486,2,0,B|75:285|144:279,1,90,0|8
231,282,134829,2,0,B|337:282,1,90,0|8
440,239,135172,2,0,B|478:212|478:159,2,90,0|8|0
344,155,135686,1,8
344,155,135772,1,0
344,155,135858,1,4
171,103,136029,6,0,B|43:102,2,90,8|0|8
248,149,136543,2,0,B|351:149,2,90,0|8|0
143,236,137058,2,0,B|42:236,2,90,8|0|8
306,312,137572,2,0,B|397:312,2,90,0|8|0
279,307,138000,1,0
253,296,138086,1,0
158,212,138258,1,0
143,189,138343,1,0
135,163,138429,1,0
137,135,138515,1,0
151,112,138600,1,4
170,92,138686,5,0
193,78,138772,1,0
218,69,138858,1,0
244,69,138943,1,0
270,74,139029,1,0
294,86,139115,1,0
314,103,139200,1,0
325,127,139286,2,0,B|358:176|414:148,2,90,2|0|0
325,127,139800,2,0,B|276:109|234:150,1,90,2|4
222,163,140058,5,0
212,187,140143,1,0
209,214,140229,1,0
216,240,140315,1,0
233,260,140400,1,0
257,272,140486,1,0
283,268,140572,1,0
305,253,140658,2,0,B|346:217|400:244,2,90,2|0|0
305,253,141172,2,0,B|289:298|230:281,1,90,2|4
200,274,141429,5,0
174,263,141515,1,0
154,245,141600,1,0
141,221,141686,1,0
132,195,141772,1,0
132,167,141858,1,0
131,140,141943,1,0
137,113,142029,1,0
148,88,142115,1,0
167,69,142200,1,0
190,56,142286,1,0
216,53,142372,1,0
242,59,142458,2,0,B|284:35,2,45,0|8|0
239,85,142715,2,0,B|217:129,2,45,0|0|8
264,95,142972,2,0,B|322:100,1,45,0|8
331,113,143143,1,0
352,128,143229,1,8
372,146,143315,1,0
387,170,143400,2,2,B|366:179|366:179|377:184|377:184|366:191|366:191|377:194|377:194|366:202|366:202|377:206|378:205|378:206|378:206|366:212|366:212|378:217|378:217|366:226|366:226|378:231|378:231|366:240|366:240|378:244|378:244|366:252|366:252,1,180,2|4
256,52,166029,5,0
228,68,166115,1,0
212,96,166200,1,0
212,128,166286,1,0
228,156,166372,1,0
256,172,166458,1,0
288,176,166543,1,0
316,160,166629,1,0
332,132,166715,1,0
352,108,166800,1,0
384,108,166886,1,0
412,120,166972,1,0
424,148,167058,1,0
428,180,167143,1,0
420,212,167229,1,0
404,240,167315,1,0
380,260,167400,5,0
348,268,167486,1,0
316,268,167572,1,0
288,252,167658,1,0
264,232,167743,1,0
248,204,167829,1,0
260,176,167915,1,0
276,148,168000,1,0
296,124,168086,1,0
296,92,168172,1,0
280,64,168258,1,0
256,44,168343,1,0
224,36,168429,1,0
192,40,168515,1,0
164,56,168600,1,0
148,84,168686,1,0
148,116,168772,5,0
164,144,168858,1,0
192,156,168943,1,0
224,160,169029,1,0
256,156,169115,1,0
284,140,169200,1,0
308,116,169286,1,0
336,100,169372,1,0
368,96,169458,1,0
400,104,169543,1,0
424,124,169629,1,0
444,148,169715,1,0
440,180,169800,1,0
424,208,169886,1,0
400,232,169972,1,0
368,236,170058,1,0
336,232,170143,5,0
308,220,170229,1,0
288,196,170315,1,0
276,168,170400,1,0
272,136,170486,1,0
280,104,170572,1,0
280,72,170658,1,0
272,44,170743,1,0
248,24,170829,1,0
216,20,170915,1,0
184,24,171000,1,0
156,40,171086,1,0
140,68,171172,1,0
132,100,171258,1,0
132,132,171343,1,0
144,160,171429,1,0
164,184,171515,5,0
172,212,171600,1,0
156,240,171686,1,0
132,260,171772,1,0
104,272,171858,1,0
76,284,171943,1,0
64,312,172029,1,0
72,344,172115,1,0
96,364,172200,1,0
124,376,172286,1,0
152,364,172372,1,0
176,344,172458,1,0
192,316,172543,1,0
216,296,172629,1,0
248,292,172715,1,0
280,296,172800,1,0
304,316,172886,5,0
332,328,172972,1,0
364,320,173058,1,0
392,304,173143,1,0
408,276,173229,1,0
408,244,173315,1,0
388,220,173400,1,0
360,204,173486,1,0
328,204,173572,1,0
296,208,173658,1,0
268,196,173743,1,0
248,172,173829,1,0
240,140,173915,1,0
248,108,174000,1,0
276,92,174086,1,0
308,88,174172,1,0
336,100,174258,5,0
356,124,174343,1,0
376,148,174429,1,0
404,160,174515,1,0
436,164,174600,1,0
464,152,174686,1,0
484,128,174772,1,0
492,96,174858,1,0
488,64,174943,1,0
472,36,175029,1,0
444,24,175115,1,0
412,24,175200,1,0
384,36,175286,1,0
372,64,175372,1,0
384,92,175458,1,0
408,112,175543,1,0
436,96,175629,2,0,B|456:292|252:376,1,360,0|4
88,232,177000,5,2
135,329,177172,1,0
233,285,177343,1,0
326,340,177515,1,0
428,305,177686,1,0
345,234,177858,2,0,B|392:236|430:189,2,90
274,152,178372,2,0,B|286:107|331:73,2,90,2|0|0
179,205,178886,1,0
116,116,179058,1,0
22,168,179229,1,0
85,255,179400,1,0
147,166,179572,2,0,B|173:127,2,45,0|0|2
70,321,179915,5,0
176,303,180086,1,0
279,335,180258,1,0
363,268,180429,1,0
461,225,180600,1,0
344,175,180772,1,2
482,135,180943,1,0
328,80,181115,2,0,B|234:37|128:53,1,180,2|0
64,254,181800,6,2,B|50:299|67:353,1,90
447,342,182143,2,0,B|462:299|448:254,1,90,2|0
353,201,182486,1,4
326,95,182658,1,0
271,208,182829,1,0
251,65,183000,1,0
193,227,183172,1,0
178,31,183343,1,0
92,135,183515,1,0
92,135,183686,2,0,B|67:178|65:229,1,90,0|2
135,303,184029,6,0,B|165:256|159:206,2,90
231,352,184543,1,0
337,371,184715,1,0
435,320,184886,1,0
479,221,185058,1,0
479,221,185143,1,0
479,221,185229,2,0,B|379:224|368:126|368:126|247:62,1,270,2|2
273,76,186258,1,0
256,192,186429,12,4,187972
28,108,189343,6,0,B|128:4|284:36,1,270,4|0
364,56,190715,2,0,B|344:208|180:236,1,270,4|0
116,284,192086,2,0,B|216:388|372:352,1,270,4|0
436,300,193458,6,0,B|536:176|464:44,1,270,4|0
374,53,194829,2,0,B|443:180|344:304,1,270,4|0
264,344,196200,6,0,B|168:372|84:316,3,180,4|0|0|0
114,311,198943,6,0,B|55:311,2,45,0|0|0
235,344,199286,2,0,B|335:344,1,90,0|8
435,282,199629,2,0,B|469:313,2,45,0|0|8
381,167,199972,1,0
358,138,200058,1,0
338,108,200143,1,0
317,78,200229,1,0
296,48,200315,1,0
296,48,200486,2,0,B|244:75|193:60,1,90,8|0
109,141,200829,2,0,B|80:179|81:241,1,90,8|0
153,329,201172,2,0,B|257:349,1,90,8|0
331,256,201515,2,0,B|267:237,2,45,0|0|4
454,226,201858,5,8
369,133,202029,1,0
253,182,202200,2,0,B|164:140,1,90,8|0
60,204,202543,2,0,B|152:251,1,90,8|0
167,260,202800,1,0
190,273,202886,1,0
205,295,202972,1,0
215,320,203058,2,0,B|336:343,1,90,2|0
215,320,203572,1,0
213,317,203743,2,0,B|311:351,1,90,2|8
401,65,204086,2,0,B|316:36,1,90,2|8
192,64,204429,1,4
160,72,204515,1,0
128,80,204600,1,8
81,197,204772,6,0,B|69:259|93:309,1,90,0|8
200,335,205115,2,0,B|206:282|201:219,1,90,0|8
277,143,205458,1,0
299,128,205543,1,0
325,123,205629,1,0
351,125,205715,1,0
375,135,205800,1,0
375,135,205972,2,0,B|406:182|373:239,1,90,8|0
294,310,206315,2,0,B|272:260|251:211,1,90,8|0
199,115,206658,1,8
163,235,206829,1,0
173,109,207000,1,8
132,228,207172,2,0,B|40:237|10:141|10:141|10:32,1,270,6|0
133,5,207858,1,0
119,129,208029,1,8
160,10,208200,1,0
149,135,208372,1,8
273,115,208543,2,0,B|241:72,2,45,4|0|0
279,141,208800,6,0,B|263:186,2,45
303,127,209058,1,0
324,110,209143,1,0
349,101,209229,1,0
375,98,209315,1,0
401,101,209400,1,0
425,111,209486,1,0
443,130,209572,1,0
459,151,209658,1,0
470,175,209743,2,0,B|490:225,1,45,0|4
488,244,209915,6,0,B|464:300|412:300,1,90
336,280,210258,2,0,B|296:248|248:272,1,90
164,296,210600,1,0
136,292,210686,1,0
116,272,210772,1,0
64,196,210943,2,0,B|56:144|88:108,1,90
148,176,211286,6,0,B|144:220|88:244,1,90
12,280,211629,1,0
16,308,211715,1,0
28,332,211800,1,0
108,368,211972,2,0,B|156:376|204:352,1,90
272,312,212315,2,0,B|308:280|312:228,1,90
308,144,212658,6,0,B|304:96,2,45
388,180,213000,2,0,B|432:204|440:260,1,90
404,336,213343,2,0,B|360:356|312:340,1,90
352,260,213686,2,0,B|304:240|264:260,1,90
188,308,214029,1,0
164,320,214115,1,0
136,324,214200,1,0
48,296,214372,1,0
28,276,214458,1,0
20,252,214543,1,0
24,160,214715,6,0,B|56:116|120:120,1,90
188,140,215058,2,0,B|228:160|280:144,1,90
356,104,215400,1,0
380,96,215486,1,0
408,100,215572,1,0
480,156,215743,1,0
484,184,215829,1,0
476,208,215915,1,0
408,268,216086,6,0,B|368:284|320:264,1,90
240,228,216429,2,0,B|200:208|152:224,1,90
64,248,216772,2,0,B|60:292,2,45
64,136,217115,2,0,B|60:92,2,45
152,160,217458,6,0,B|200:176|240:156,2,90
192,84,217972,2,0,B|236:64|288:80,2,90
152,160,218486,1,0
144,184,218572,1,0
148,212,218658,1,0
192,292,218829,2,0,B|240:308|284:292,1,90
360,252,219172,2,0,B|400:216|396:172,1,90
376,84,219515,5,0
364,60,219600,1,0
340,48,219686,1,0
312,44,219772,1,0
284,48,219858,1,0
260,60,219943,1,0
252,84,220029,1,0
256,112,220115,1,0
272,132,220200,2,0,B|332:216|268:300,1,180
96,352,220886,5,0
72,336,220972,1,0
56,316,221058,1,0
52,288,221143,1,0
56,260,221229,1,0
72,240,221315,1,0
92,224,221400,1,0
120,220,221486,1,0
144,228,221572,1,0
160,252,221658,1,0
176,272,221743,1,0
204,276,221829,1,0
232,272,221915,1,0
256,256,222000,1,0
268,232,222086,1,0
272,204,222172,1,0
268,176,222258,5,0
272,148,222343,1,0
284,124,222429,1,0
300,104,222515,1,0
324,92,222600,1,0
352,92,222686,1,0
376,100,222772,1,0
400,116,222858,1,0
412,140,222943,1,0
412,168,223029,1,0
400,192,223115,1,0
380,208,223200,1,0
356,216,223286,1,0
336,236,223372,1,0
328,260,223458,1,0
332,288,223543,1,0
344,312,223629,5,0
368,328,223715,1,0
392,336,223800,1,0
420,336,223886,1,0
448,332,223972,1,0
472,320,224058,1,0
484,296,224143,1,0
488,268,224229,1,0
476,244,224315,1,0
452,232,224400,1,0
424,232,224486,1,0
400,240,224572,1,0
376,252,224658,1,0
352,264,224743,1,0
324,272,224829,1,0
296,272,224915,1,0
272,264,225000,5,0
248,256,225086,1,0
224,240,225172,1,0
200,232,225258,1,0
172,228,225343,1,0
144,228,225429,1,0
120,236,225515,1,0
96,248,225600,1,0
76,268,225686,1,0
64,292,225772,1,0
68,320,225858,6,0,B|68:344,12,22.5,0|0|0|0|0|0|0|0|0|0|0|0|4
191,340,226543,6,0,B|293:355,1,90,8|0
403,328,226886,1,8
421,202,227058,2,0,B|459:166,2,45,0|0|8
296,217,227400,2,0,B|239:261,2,45,0|0|8
274,92,227743,2,0,B|187:47|94:97,1,180,4|0
17,254,228258,6,0,B|52:297|112:250,1,90,8|0
351,69,228600,2,0,B|398:27|445:77,1,90,8|0
161,315,228943,2,0,B|114:357|67:307,1,90,8|0
57,291,229200,1,0
44,256,229286,1,4
118,153,229458,6,0,B|133:104,2,45,0|0|8
210,238,229800,2,0,B|266:325|388:294,1,180,2|0
392,288,230229,1,0
415,274,230315,1,0
431,252,230400,1,0
442,227,230486,2,0,B|421:125|301:97,1,180,2|0
202,70,231000,2,0,B|23:18,1,180,2|0
61,146,231515,2,0,B|27:187,4,45,0|0|0|0|4
168,212,232029,6,0,B|202:318,1,90,8|0
310,349,232372,2,0,B|364:361|419:344,1,90,8|0
464,240,232715,2,0,B|499:202,2,45,8|0|0
341,209,233058,1,8
451,148,233229,1,0
330,112,233400,1,8
330,112,233572,2,0,B|294:85|241:104,1,90,0|8
86,191,233915,2,0,B|134:169|185:196,1,90,0|8
335,270,234258,2,0,B|293:245|244:270,1,90,0|8
133,318,234600,5,0
159,334,234686,1,0
186,350,234772,1,8
310,336,234943,2,0,B|398:303,2,90,0|8|0
350,215,235458,2,0,B|446:181,2,90,8|0|8
228,250,235972,1,0
212,233,236058,1,0
199,214,236143,1,0
190,193,236229,1,0
185,170,236315,1,0
183,147,236400,1,0
181,124,236486,2,0,B|115:55|9:85,1,180,2|0
11,109,236915,2,0,B|-19:147,2,45
29,122,237172,2,0,B|42:166,2,45,0|0|4
