osu file format v6

[General]
AudioFilename: vampire_short.mp3
AudioLeadIn: 0
PreviewTime: 45950
Countdown: 0
SampleSet: Normal
StackLeniency: 0.4
Mode: 0
LetterboxInBreaks: 1

[Editor]
DistanceSpacing: 0.800000011920929
BeatDivisor: 4
GridSize: 8

[Metadata]
Title:Vampire
Artist:Karen
Creator:Nekomiya Nono
Version:Insane
Source:MinDeaD BlooD
Tags:Black Cyc Yousei Teikoku tsukamaete v2b

[Difficulty]
HPDrainRate:7
CircleSize:5
OverallDifficulty:9
SliderMultiplier:2
SliderTickRate:0.5

[Events]
//Background and Video events
0,0,"12_01.jpg"
//Break Periods
//Storyboard Layer 0 (Background)
//Storyboard Layer 1 (Fail)
//Storyboard Layer 2 (Pass)
//Storyboard Layer 3 (Foreground)
//Storyboard Sound Samples
//Background Colour Transformations
3,100,255,0,0

[TimingPoints]
2256,342.857142857143,4,1,1,60,1,0
45456,-100,4,1,1,0,0,0
45627,-100,4,1,1,60,0,0
46141,-100,4,1,1,60,0,1
73056,-100,4,1,1,60,0,0
73570,-100,4,1,1,60,0,1
83598,-100,4,1,1,60,0,0
83684,1371.42857142857,4,1,1,60,1,1
85055,-100,4,1,1,0,0,0

[Colours]
Combo1 : 0,0,91
Combo2 : 255,40,40
Combo3 : 94,0,0

[HitObjects]
32,80,2256,1,0
96,128,2427,1,0
160,80,2598,1,0
160,64,2684,1,0
160,48,2770,1,8
224,128,2941,1,0
288,80,3113,1,0
352,128,3284,1,0
352,144,3370,1,0
352,160,3456,1,8
416,80,3627,5,0
480,128,3798,1,0
480,144,3884,1,0
480,160,3970,1,8
480,240,4141,2,0,B|464:320|352:320|334:227,1,200,0|8
256,240,4655,1,0
176,240,4827,1,8
96,240,4998,5,0
48,304,5170,1,0
96,368,5341,1,0
112,368,5427,1,0
128,368,5513,1,8
208,368,5684,1,0
256,304,5855,1,0
208,240,6027,1,0
192,240,6113,1,0
176,240,6198,1,8
96,240,6370,5,0
48,176,6541,1,0
96,112,6713,1,8
144,176,6884,2,0,B|352:176,1,200,0|8
432,176,7398,1,0
440,160,7484,1,0
432,136,7570,1,8
424,120,7655,1,0
432,104,7741,6,0,B|432:0,1,100,4|0
336,48,8084,1,0
320,48,8170,1,0
304,48,8255,1,8
208,0,8427,2,0,B|208:112,1,100
112,48,8770,1,0
96,48,8855,1,0
80,48,8941,1,8
128,128,9113,5,0
64,192,9284,1,0
48,192,9370,1,0
32,192,9455,1,8
128,256,9627,2,0,B|144:336|256:336|274:243,1,200,0|8
272,176,10141,1,0
272,96,10313,1,8
320,16,10484,5,0
400,48,10655,1,0
480,96,10827,1,0
480,112,10913,1,0
480,128,10998,1,8
400,176,11170,1,0
320,208,11341,1,0
240,240,11513,1,0
240,256,11598,1,0
240,272,11684,1,8
240,352,11856,5,0
176,304,12027,1,0
112,352,12198,1,8
48,304,12370,2,0,B|48:96,1,200,0|8
96,32,12884,1,0
176,0,13056,1,8
256,32,13227,6,0,B|384:32,1,100,4|0
448,32,13570,1,0
432,64,13656,1,0
448,96,13741,1,8
464,128,13827,1,0
448,160,13913,2,0,B|336:160,1,100
256,160,14256,1,0
272,192,14341,1,0
256,224,14427,1,8
240,256,14513,1,0
256,288,14598,2,0,B|368:288,1,100
381,288,14856,1,0
405,288,14941,1,8
462,231,15113,6,0,B|542:215|542:103|449:85,1,200,0|8
384,48,15627,1,0
304,48,15798,1,8
224,48,15970,6,0,B|96:48,1,100
48,96,16313,1,0
16,112,16398,1,0
0,144,16484,1,8
16,176,16570,1,0
48,192,16656,2,0,B|160:192,1,100
240,192,16998,1,0
272,208,17084,1,0
288,240,17170,1,8
272,272,17256,1,0
240,288,17341,2,0,B|128:288,1,100
114,288,17598,1,0
89,288,17684,1,8
128,368,17856,6,0,B|352:368,1,200,0|8
358,368,18284,1,0
387,359,18370,1,0
414,348,18456,1,0
439,332,18541,1,8
461,310,18627,1,0
477,285,18713,6,0,B|477:174,1,100,4|0
416,96,19056,1,0
416,112,19141,1,0
416,128,19227,1,8
336,32,19398,2,0,B|336:144,1,100,0|0
275,221,19741,1,0
275,205,19827,1,0
275,189,19913,1,8
208,272,20084,5,0
160,336,20256,1,0
144,336,20341,1,0
128,336,20427,1,8
64,272,20598,2,0,B|-16:256|-16:144|77:126,1,200,0|8
144,128,21113,1,0
224,128,21284,1,8
304,128,21456,5,0
384,128,21627,1,0
448,80,21798,1,0
464,80,21884,1,0
480,80,21970,1,8
384,32,22141,1,0
304,32,22313,1,0
240,80,22484,1,0
224,80,22570,1,0
208,80,22656,1,8
144,32,22827,5,0
64,64,22998,1,0
80,144,23170,1,8
160,112,23341,2,0,B|354:206,1,200,0|8
368,213,23770,1,0
397,227,23856,1,0
426,241,23941,1,0
454,255,24027,1,8
483,269,24113,1,0
511,283,24198,5,4
464,352,24370,1,0
400,304,24541,1,0
352,368,24713,1,8
288,320,24884,1,0
208,352,25056,1,0
192,352,25141,1,8
176,272,25313,1,0
192,272,25398,1,8
160,192,25570,5,0
96,240,25741,1,8
96,256,25827,1,0
32,192,25998,1,8
32,176,26084,1,0
32,96,26256,1,0
80,32,26427,1,8
144,80,26598,1,0
192,16,26770,1,8
256,64,26941,5,0
336,32,27113,1,0
416,48,27284,1,8
480,96,27456,1,0
496,176,27627,2,0,B|464:288,1,100
432,304,27884,2,0,B|336:352,1,100,8|0
304,352,28141,1,8
224,336,28313,5,0
160,272,28484,1,0
96,208,28656,1,0
88,200,28741,1,0
80,192,28827,1,8
160,272,28998,1,0
224,208,29170,1,0
288,144,29341,1,0
296,136,29427,1,0
304,128,29513,1,8
312,120,29598,1,0
320,112,29684,6,0,B|432:112,1,100,4|0
436,240,30027,2,0,B|336:240,1,100,0|8
225,240,30370,2,0,B|193:240|193:162|225:162,1,100,0|0
291,160,30627,2,0,B|323:160|323:82|291:82,1,100,8|0
293,82,30884,1,8
224,16,31056,5,0
144,0,31227,1,0
64,32,31398,1,0
0,96,31570,1,8
0,112,31656,1,0
0,128,31741,2,0,B|0:240,1,100,0|8
32,256,31998,2,0,B|112:336,1,100,0|8
128,352,32256,1,0
208,368,32427,5,0
272,320,32598,1,0
336,368,32770,1,8
400,320,32941,1,0
416,320,33027,1,0
432,320,33113,2,0,B|496:240,1,100,0|8
512,208,33370,2,0,B|496:96,1,100,0|8
488,69,33627,1,0
416,32,33798,5,0
368,96,33970,1,0
304,144,34141,1,0
304,160,34227,1,8
240,96,34398,1,8
224,96,34484,1,0
208,96,34570,1,0
192,96,34656,1,8
176,96,34741,1,8
160,96,34827,1,0
144,96,34913,1,0
128,96,34998,1,8
112,96,35084,1,0
96,96,35170,6,0,B|16:112|16:224|109:242,1,200,4|8
104,164,35684,2,0,B|314:164,1,200
384,164,36198,1,8
464,164,36370,1,0
464,243,36541,6,0,B|448:323|336:323|318:230,1,200,0|8
240,243,37055,2,0,B|224:163|105:161|94:256,1,200
96,321,37570,1,8
176,321,37741,1,0
256,321,37913,6,0,B|523:322|211:232|544:232,2,300,0|8|0
64,256,39284,1,0
32,176,39455,1,0
64,96,39627,1,8
128,48,39798,1,0
208,32,39970,1,0
288,48,40141,1,0
352,96,40313,1,8
384,176,40484,1,0
352,256,40655,6,0,B|144:256,1,200,4|8
304,336,41170,2,0,B|96:336,1,200
32,288,41684,1,8
16,208,41855,1,0
48,128,42027,5,4
48,128,42370,1,8
464,256,42713,5,4
464,256,43055,1,8
256,208,43398,12,0,45455
208,48,46141,5,4
128,32,46313,1,8
112,112,46484,1,0
192,128,46655,1,8
272,144,46827,1,0
287,147,46913,1,0
303,150,46998,1,8
384,168,47170,1,0
400,184,47255,1,0
408,208,47341,1,8
400,232,47427,1,0
384,248,47513,6,0,B|272:248,1,100,0|8
224,288,47855,1,0
208,208,48027,1,8
144,256,48198,2,0,B|32:256,1,100,0|8
80,336,48541,1,0
96,336,48627,1,0
112,336,48713,1,8
192,336,48884,5,0
256,288,49055,1,8
304,352,49227,1,0
256,288,49398,1,8
320,240,49570,1,0
256,288,49741,1,8
208,224,49913,1,0
256,288,50084,1,8
336,304,50255,6,0,B|384:336|432:304,1,100,0|8
496,256,50598,2,0,B|528:208|496:160,1,100,0|8
464,96,50941,2,0,B|440:32|304:32|296:112,1,200,0|4
144,144,51627,5,0
96,208,51798,1,8
144,272,51970,1,0
192,208,52141,2,0,B|320:208,1,100,8|0
312,208,52398,1,0
332,208,52484,2,0,B|444:208,1,100,8|0
488,151,52827,1,8
464,64,52998,6,0,B|352:64,1,100,0|8
288,64,53341,1,0
272,64,53427,1,0
256,64,53513,1,8
176,64,53684,1,0
128,128,53855,1,8
208,160,54027,1,0
160,224,54198,1,8
80,192,54370,6,0,B|0:208|0:320|88:336,1,200,0|8
160,334,54884,2,0,B|240:318|240:206|152:190,1,200,0|8
120,264,55398,1,0
120,264,55484,1,0
120,264,55570,6,0,B|120:154,1,100,8|0
120,83,55913,1,8
176,32,56084,2,0,B|288:32,1,100,0|8
240,112,56427,2,0,B|368:112,1,100,0|8
432,112,56770,1,0
432,128,56855,1,0
432,144,56941,1,8
432,160,57027,1,0
432,176,57113,6,0,B|432:288,1,100,4|8
384,336,57455,1,0
304,336,57627,1,8
224,336,57798,2,0,B|112:336,3,100,0|8|0|8
64,272,58484,6,0,B|0:192,1,100,0|8
112,160,58827,2,0,B|48:80,1,100,0|8
208,128,59170,2,0,B|272:208,1,100,0|8
256,16,59513,2,0,B|320:96,1,100,0|8
400,96,59855,5,0
480,96,60027,1,8
400,176,60198,1,0
416,176,60284,1,0
432,176,60370,1,8
480,256,60541,1,0
400,256,60713,1,8
480,336,60884,1,0
464,336,60970,1,0
448,336,61055,1,8
368,336,61227,6,0,B|256:336,1,100,0|8
192,336,61570,1,0
176,336,61655,1,0
160,336,61741,1,8
144,336,61827,1,0
128,336,61913,2,0,B|48:320|48:208|136:192,1,200,0|4
240,64,62598,5,0
320,96,62770,1,8
400,128,62941,1,0
480,160,63113,1,8
400,128,63284,1,0
336,176,63455,1,8
272,224,63627,1,0
208,272,63798,1,8
272,224,63970,5,0
192,192,64141,1,8
112,160,64313,1,0
32,128,64484,1,8
112,160,64655,1,0
176,112,64827,1,8
240,64,64998,1,0
304,16,65170,1,8
392,65,65341,5,0
475,111,65513,1,8
394,158,65684,1,0
387,171,65770,1,0
378,185,65855,1,8
382,278,66027,1,0
298,232,66198,1,8
378,185,66370,1,0
387,171,66455,1,0
394,158,66541,1,8
288,112,66713,5,0
224,160,66884,1,8
160,112,67055,1,0
96,160,67227,1,8
80,176,67313,1,0
64,192,67398,1,0
80,208,67484,1,0
96,224,67570,1,8
80,240,67655,1,0
64,256,67741,1,0
80,272,67827,1,0
96,288,67913,1,8
80,304,67998,1,0
64,320,68084,1,4
128,368,68255,5,0
192,320,68427,1,8
272,320,68598,2,0,B|384:320,1,100
384,240,68941,1,0
496,160,69113,2,0,B|384:160,1,100,8|0
320,160,69455,5,0
240,160,69627,1,0
160,160,69798,2,0,B|80:240,1,100,8|0
160,272,70141,1,0
240,272,70313,1,0
320,272,70484,2,0,B|400:192,1,100,8|0
256,192,70827,5,0
256,192,70998,1,0
256,136,71170,5,0
256,248,71341,1,0
256,128,71513,5,0
256,256,71684,1,0
256,120,71855,5,0
256,264,72027,1,0
256,112,72198,5,0
256,272,72370,1,0
256,192,72541,5,0
256,192,72627,1,0
256,192,72713,1,0
256,192,72798,1,0
256,192,72884,1,4
112,32,73570,6,0,B|112:144,1,100,4|8
112,160,73827,1,0
112,192,73913,1,0
112,224,73998,1,0
112,256,74084,1,8
208,320,74255,6,0,B|208:208,1,100,8|0
208,192,74513,1,0
208,160,74598,1,0
208,128,74684,1,0
208,96,74770,1,8
304,32,74941,6,0,B|304:144,1,100,0|8
304,160,75198,1,0
304,192,75284,1,0
304,224,75370,1,0
304,256,75455,1,8
400,320,75627,5,8
400,288,75713,1,0
400,256,75798,1,0
400,224,75884,1,8
400,192,75970,1,0
400,160,76055,1,0
400,128,76141,1,8
384,32,76313,6,0,B|352:80,3,50,8|0|0|0
368,112,76655,2,0,B|336:160,3,50,8|0|8|0
352,192,76998,2,0,B|320:240,3,50,0|0|8|0
336,272,77341,2,0,B|304:320,3,50,8|0|0|0
296,328,77684,1,0
280,344,77770,1,0
264,328,77855,1,8
248,344,77941,1,0
232,328,78027,1,0
112,328,78198,2,0,B|32:312|32:200|120:184,1,200,0|8
224,184,78713,5,0
240,184,78798,1,0
256,184,78884,1,0
272,184,78970,1,0
288,184,79055,2,0,B|416:184,1,100,8|0
352,264,79398,2,0,B|224:264,1,100,0|8
320,344,79741,2,0,B|192:344,1,100,0|8
72,344,80084,2,0,B|200:344,1,100,8|0
40,264,80427,2,0,B|168:264,1,100,0|8
104,184,80770,2,0,B|-24:184,1,100,0|8
32,104,81113,1,8
64,24,81284,1,0
144,24,81455,1,0
176,104,81627,1,8
256,72,81798,5,8
304,8,81970,1,0
352,72,82141,2,0,B|416:72,2,50,0|8|0
304,136,82484,1,0
256,200,82655,1,8
208,136,82827,2,0,B|128:136,2,50,0|8|0
256,80,83170,5,0
256,80,83341,1,0
256,80,83513,1,0
256,80,83684,2,0,B|256:288,1,200,4|0
