osu file format v6

[General]
AudioFilename: vampire_short.mp3
AudioLeadIn: 0
PreviewTime: 45950
Countdown: 0
SampleSet: Normal
StackLeniency: 0.7
Mode: 0
LetterboxInBreaks: 1

[Editor]
DistanceSpacing: 0.899999976158142
BeatDivisor: 4
GridSize: 8

[Metadata]
Title:Vampire
Artist:Karen
Creator:Nekomiya Nono
Version:Hard
Source:MinDeaD BlooD
Tags:Black Cyc Yousei Teikoku tsukamaete v2b

[Difficulty]
HPDrainRate:6
CircleSize:4
OverallDifficulty:7
SliderMultiplier:1.8
SliderTickRate:0.5

[Events]
//Background and Video events
0,0,"12_01.jpg"
//Break Periods
//Storyboard Layer 0 (Background)
//Storyboard Layer 1 (Fail)
//Storyboard Layer 2 (Pass)
//Storyboard Layer 3 (Foreground)
//Storyboard Sound Samples
//Background Colour Transformations
3,100,255,0,0

[TimingPoints]
2256,342.857142857143,4,1,1,60,1,0
12284,-200,4,1,1,60,0,0
12798,-100,4,1,1,60,0,0
17598,-200,4,1,1,60,0,0
18284,-100,4,1,1,60,0,0
24198,-100,4,2,1,80,0,0
24284,-100,4,1,1,60,0,0
44598,-100,4,2,1,100,0,0
44684,-100,4,1,1,60,0,0
45798,-100,4,1,1,81,0,0
46141,-100,4,1,1,81,0,1
68084,-100,4,1,1,0,0,1
72884,-100,4,1,1,81,0,0
73398,-100,4,1,1,70,0,0
73570,-100,4,1,1,70,0,1
83598,-100,4,1,1,70,0,0
83684,-100,4,1,1,70,0,1
83770,-100,4,1,1,70,0,0

[Colours]
Combo1 : 0,0,91
Combo2 : 255,40,40
Combo3 : 94,0,0

[HitObjects]
32,176,2256,2,0,B|96:256,1,90
128,304,2598,1,8
128,304,2770,1,0
176,256,2941,2,0,B|240:176,1,90
256,112,3284,1,8
256,112,3456,1,0
279,185,3627,2,0,B|336:256,1,90
384,304,3970,1,8
384,304,4141,1,0
423,246,4313,2,0,B|488:168,1,90
480,176,4655,1,8
480,176,4827,1,0
480,112,4998,6,0,B|464:64|400:64,1,90
336,64,5341,2,0,B|336:176,1,90,8|0
336,224,5684,2,0,B|320:272|256:272,1,90,0|0
192,272,6027,2,0,B|80:272,1,90,8|0
48,224,6370,2,0,B|64:176|128:176,1,90
192,176,6713,2,0,B|304:176,1,90,8|0
256,208,6970,12,0,7741
112,64,8084,5,8
64,120,8255,1,0
96,184,8427,2,0,B|144:280,1,90
168,328,8770,1,8
216,272,8941,1,0
248,208,9113,2,0,B|248:100,1,90
304,64,9455,1,8
352,120,9627,1,0
400,176,9798,2,0,B|344:264,1,90
312,312,10141,1,8
384,328,10313,1,0
456,344,10484,6,0,B|488:240,3,90,0|0|8|0
456,40,11170,2,0,B|488:136,3,90,0|0|8|0
400,192,11856,2,0,B|272:192,1,90,0|0
240,192,12198,1,8
168,192,12370,6,2,B|48:192,1,90,2|0
78,192,12884,1,8
78,192,12970,1,0
78,192,13056,1,0
128,136,13227,5,0
176,80,13398,1,0
224,24,13570,2,0,B|237:103,2,45,8|0|0
288,64,13913,2,0,B|384:128,1,90
424,152,14256,1,8
424,152,14341,1,0
424,152,14427,1,0
376,208,14598,1,0
328,264,14770,1,0
288,320,14941,2,0,B|312:368,2,45,8|0|0
224,288,15284,2,0,B|128:256,1,90
72,232,15627,1,8
72,232,15713,1,0
72,232,15798,1,0
136,192,15970,5,0
200,152,16141,1,0
264,120,16313,2,0,B|280:64,2,45,8|0|0
288,184,16656,1,0
312,256,16827,1,0
336,328,16998,1,8
336,328,17084,1,0
336,328,17170,1,0
384,272,17341,2,0,B|448:192,1,90
488,144,17684,1,8
488,144,17770,1,0
488,144,17856,6,2,B|416:72,1,90,2|0
384,24,18370,2,0,B|360:96,2,45,8|0|0
312,48,18713,6,0,B|200:88,1,90
184,136,19056,1,8
176,152,19141,1,0
168,168,19227,1,0
224,208,19398,2,0,B|336:248,1,90,0|0
352,296,19741,1,8
360,312,19827,1,0
368,328,19913,1,0
312,368,20084,2,0,B|200:328,1,90
184,280,20427,1,8
176,264,20513,1,0
168,248,20598,1,0
224,208,20770,2,0,B|336:168,1,90
352,120,21113,1,8
360,104,21198,1,0
368,88,21284,1,0
296,96,21456,5,0
224,112,21627,1,0
152,128,21798,2,0,B|104:112,2,45,8|0|0
184,192,22141,1,0
200,264,22313,1,0
208,336,22484,2,0,B|192:384,2,45,8|0|0
272,304,22827,1,0
344,288,22998,1,0
416,272,23170,1,8
416,272,23256,1,0
416,272,23341,6,2,B|488:256|512:168|448:96,1,180,2|0
400,104,23856,2,0,B|328:120|304:208|368:280,1,180,8|4
368,320,24370,5,0
296,320,24541,2,0,B|168:320,1,90,8|0
136,320,24884,2,0,B|82:320|66:272,2,90,0|0|8
136,248,25398,2,0,B|136:120,1,90
200,128,25741,2,0,B|200:232,1,90,0|8
200,288,26084,1,0
272,288,26256,2,0,B|392:256|384:160,1,180,0|8
384,96,26770,1,0
312,96,26941,6,0,B|104:96,1,180,0|8
132,96,27456,1,0
88,152,27627,2,0,B|32:192|80:264,1,90
128,256,27970,2,0,B|184:224|136:144,1,90,8|0
152,178,28313,1,0
132,96,28484,2,0,B|352:96,1,180
376,56,28998,2,0,B|376:160,1,90,8|2
440,112,29341,2,0,B|440:216,1,90,8|2
496,248,29684,5,0
440,296,29856,2,0,B|432:352|368:352,1,90,0|8
368,280,30198,1,0
352,208,30370,2,0,B|299:207|291:263,1,90
224,280,30713,2,0,B|193:327|135:300,1,90,8|0
96,256,31056,1,0
72,192,31227,1,0
96,128,31398,1,8
72,192,31570,1,0
96,128,31741,1,0
160,96,31913,1,0
216,136,32084,1,8
272,184,32256,1,0
344,192,32427,6,0,B|464:200|496:88,1,180,0|8
432,64,32941,1,0
360,64,33113,2,0,B|240:64,1,90
248,64,33370,1,0
224,64,33456,2,0,B|120:64,1,90,8|0
80,112,33798,2,0,B|16:192|88:296,1,180,0|8
128,336,34313,1,0
192,304,34484,6,0,B|192:200,1,90,0|0
320,80,34827,2,0,B|320:184,1,90,8|0
120,144,35170,2,0,B|232:144,1,90,4|0
392,240,35513,2,0,B|280:240,2,90,8|0|0
440,192,36027,1,0
440,120,36198,2,0,B|400:64|328:80,1,90,8|0
304,112,36541,2,0,B|229:149|192:96,1,90
168,64,36884,1,8
144,136,37055,6,0,B|64:224,1,90
136,256,37398,2,0,B|196:189,1,90,0|8
272,192,37741,1,0
344,200,37913,2,0,B|424:216|448:248,1,90
392,296,38255,2,0,B|320:272|272:304,1,90,8|0
248,344,38598,1,0
184,312,38770,2,0,B|88:240,1,90,0|8
128,192,39113,2,0,B|224:264,1,90
272,224,39455,1,0
336,200,39627,1,8
400,176,39798,1,0
464,152,39970,2,0,B|456:56,1,90
392,40,40313,2,0,B|280:32,1,90,8|0
248,80,40655,6,0,B|200:168,1,90,4|0
168,224,40998,1,8
136,288,41170,2,0,B|236:285,1,90
300,285,41513,1,0
376,280,41684,2,0,B|323:194,1,90,8|0
291,139,42027,5,0
284,248,42198,1,0
192,188,42370,1,8
291,139,42541,1,0
284,248,42713,1,8
192,188,42884,1,0
291,139,43055,1,8
284,248,43227,1,0
192,188,43398,1,8
256,208,43570,12,4,44598
256,120,44770,5,8
256,128,44855,1,0
256,136,44941,1,8
256,144,45027,1,0
256,152,45113,1,8
256,160,45198,1,0
256,168,45284,1,8
256,176,45370,1,0
256,184,45455,1,8
176,64,46141,6,0,B|264:-16|360:88,1,180,0|0
160,192,46655,2,0,B|360:192,1,180,8|0
336,318,47170,2,0,B|264:400|176:320,1,180,8|0
340,192,47684,2,0,B|160:192,1,180,0|8
176,64,48198,2,0,B|264:-16|360:88,1,180,0|8
400,136,48713,1,0
360,224,48884,6,0,B|336:320,1,90
256,312,49227,1,8
176,312,49398,2,0,B|152:224,1,90
256,224,49741,1,8
256,136,49913,2,0,B|256:344,2,180,0|8|0
256,64,50770,1,0
344,104,50941,6,0,B|440:144|416:264,1,180,8|0
418,250,51455,1,0
256,296,51627,2,0,B|160:168|344:168|256:24,2,270,0|8|0
256,296,52827,1,0
93,250,52998,2,0,B|72:144|168:104,1,180,0|8
256,80,53513,1,0
345,104,53684,2,0,B|440:144|418:250,1,180,0|8
418,250,54198,1,0
368,328,54370,6,0,B|312:216,1,90
256,208,54713,1,8
184,248,54884,2,0,B|136:344,1,90,0|0
256,320,55227,1,8
256,240,55398,2,0,L|256:56,2,180,0|8|0
256,240,56255,1,0
176,288,56427,2,0,B|256:368|344:280,1,180,0|8
334,288,56941,1,0
416,272,57113,6,0,B|480:184|416:88,1,180,0|8
344,64,57627,2,0,B|224:80,1,90
176,88,57970,1,8
160,168,58141,2,0,B|184:264,1,90
96,112,58484,2,0,B|32:200|96:296,1,180,0|8
168,320,58998,2,0,B|296:304,1,90
336,304,59341,1,8
328,224,59513,2,0,B|312:104,1,90
256,88,59855,6,0,B|144:96|120:200,1,180,0|8
256,296,60370,2,0,B|368:288|392:184,1,180,0|8
256,104,60884,2,0,B|256:288,2,180,0|8|0
256,104,61741,1,0
184,120,61913,6,0,B|64:144,1,90,8|0
63,203,62255,2,0,B|168:256,1,90
192,296,62598,1,8
256,256,62770,2,0,B|216:168,1,90
264,120,63113,2,0,B|304:208,2,90,0|8|0
328,120,63627,2,0,B|456:144,1,90,8|0
449,203,63970,2,0,B|336:256,1,90,0|0
328,304,64313,1,8
256,272,64484,1,8
256,200,64655,6,0,B|256:16,2,180,0|8|8
184,192,65513,1,0
184,192,65684,1,0
256,120,65855,1,8
256,120,66027,1,8
328,192,66198,1,0
328,192,66370,1,0
256,264,66541,1,8
256,264,66713,1,8
184,264,66884,6,0,B|80:192,1,90,0|8
256,120,67227,2,0,B|256:232,1,90,0|8
327,263,67570,2,0,B|401:212,1,90,0|8
256,264,67913,1,0
256,208,68084,12,0,69370
256,208,69455,12,0,70741
256,208,70827,12,0,72884
200,136,73570,6,0,B|136:112,2,45
312,248,73913,2,0,B|354:263,2,45,8|0|0
255,112,74255,2,0,B|237:71,2,45
256,271,74598,2,0,B|274:312,2,45,8|0|0
312,136,74941,2,0,B|327:93,2,45
199,248,75284,2,0,B|184:290,2,45,8|0|0
335,191,75627,2,0,B|376:173,2,45
176,192,75970,2,0,B|135:210,2,45,8|0|0
256,112,76313,5,0
256,112,76398,1,0
256,112,76484,1,0
332,167,76655,1,8
332,167,76741,1,0
332,167,76827,1,0
303,256,76998,1,0
303,256,77084,1,0
303,256,77170,1,0
208,256,77341,1,8
208,256,77427,1,0
208,256,77513,1,0
179,167,77684,1,0
179,167,77770,1,0
179,167,77856,1,0
160,96,78027,5,8
88,88,78198,2,0,B|-16:136|-8:272|112:304,1,270,0|8
160,288,78884,1,0
232,272,79055,6,0,B|296:192,1,90
336,144,79398,1,8
336,144,79484,1,0
336,144,79570,1,0
272,120,79741,2,0,B|208:200,1,90
168,240,80084,1,8
168,240,80170,1,0
168,240,80255,1,0
128,184,80427,2,0,B|71:113,1,90
128,72,80770,1,8
128,72,80855,1,0
128,72,80941,1,0
184,112,81113,2,0,B|119:190,1,90
80,232,81455,1,8
80,232,81541,1,0
80,232,81627,1,0
80,304,81798,6,0,B|96:352|160:352,1,90
224,336,82141,2,0,B|224:224,1,90,8|0
224,176,82484,2,0,B|240:128|304:128,1,90
368,128,82827,2,0,B|480:128,1,90,8|0
448,200,83170,2,0,B|432:248|368:248,1,90
304,248,83513,2,8,B|216:248,2,45,8|8|4
