osu file format v5

[General]
AudioFilename: Sudden Death R99.mp3
AudioLeadIn: 0
PreviewTime: -1
Countdown: 0
SampleSet: Normal
StackLeniency: 0.2
Mode: 0
LetterboxInBreaks: 1
EditorDistanceSpacing: 0.800000011920929

[Metadata]
Title:Sudden Death R99
Artist:Karen
Creator:v2b
Version:Normal
Source:Extravaganza
Tags:

[Difficulty]
HPDrainRate:5
CircleSize:4
OverallDifficulty:5
SliderMultiplier:1.4
SliderTickRate:0.5

[Events]
//Background and Video events
0,0,"oct_1024_768.jpg"
//Break Periods
2,87348,94293
//Storyboard Layer 0 (Background)
//Storyboard Layer 1 (Failing)
//Storyboard Layer 2 (Passing)
//Storyboard Layer 3 (Foreground)
//Storyboard Sound Samples
//Background Colour Transformations
3,100,0,0,0

[TimingPoints]
20517,315.789473684211,4,1,0,70,1,0
82253,-100,4,1,0,0,0,0
94727,-100,4,1,0,70,0,0
136411,-100,4,1,0,0,0,0

[Colours]
Combo1 : 64,128,128
Combo2 : 0,0,160
Combo3 : 196,0,196
Combo4 : 64,0,128

[HitObjects]
272,72,20516,1,0
216,72,20674,2,0,L|144:72|144:160,1,140,2|0
144,248,21306,1,2
144,248,21464,1,0
256,248,21780,2,0,L|328:248,2,70,0|0|2
256,136,22411,2,0,L|168:136,2,70,0|0|2
240,312,23043,5,0
296,312,23201,2,0,L|368:312|368:224,1,140,2|0
368,136,23833,1,2
368,136,23991,1,0
256,136,24307,2,0,L|184:136,2,70,0|0|2
256,248,24938,2,0,L|344:248,2,70,0|0|6
200,248,25411,6,0,L|32:248,2,140,0|0|0
200,192,26201,1,0
312,192,26517,1,0
312,136,26674,2,0,L|472:136,2,140,0|0|4
256,40,27622,5,0
144,40,27938,2,0,L|144:208,1,140
144,288,28569,1,0
144,344,28727,2,0,L|312:344,1,140
336,344,29201,2,0,L|336:200,3,140,0|0|0|4
368,96,30464,5,0
256,96,30780,1,2
144,96,31095,1,0
32,96,31411,1,0
256,192,31569,12,4,32674
144,288,32990,5,0
256,288,33306,1,2
368,288,33621,1,0
480,288,33937,1,0
256,192,34095,12,4,35201
256,64,35517,6,0,L|352:64,2,70,0|0|2
256,176,36148,2,0,L|160:176,2,70,0|0|0
256,192,36622,12,4,37727
256,320,38043,6,0,L|160:320,2,70,0|0|2
256,208,38674,2,0,L|352:208,2,70,0|0|4
256,192,39148,12,4,40253
256,64,40727,5,0
312,64,40885,2,0,L|376:64|432:136,1,140,2|0
424,232,41517,2,0,L|424:304,1,70,2|0
312,304,41990,1,0
312,304,42148,1,0
312,304,42306,1,2
256,208,42622,1,0
256,208,42780,1,0
256,208,42938,1,2
256,320,43253,5,0
200,320,43411,2,0,L|136:320|80:248,1,140,2|0
88,152,44043,2,0,L|88:80,1,70,2|0
200,80,44516,1,0
200,80,44674,1,0
200,80,44832,1,2
256,176,45148,1,0
256,176,45306,1,0
256,176,45464,1,6
256,120,45622,6,0,L|416:120,1,140
400,232,46253,2,0,L|296:232,1,70
328,344,46727,2,0,L|232:344|144:256,1,210,0|2
72,184,47517,1,4
72,72,47832,6,0,L|152:72,1,70
200,72,48148,2,0,L|360:72,2,140
200,128,48938,2,0,L|200:200|272:256,1,140
312,248,49411,2,0,L|456:248,3,140,0|2|0|6
256,40,50990,6,0,L|256:200,1,140
256,344,51780,1,0
256,344,52095,1,0
256,232,52411,1,0
256,232,52569,1,0
256,120,52885,1,2
256,344,53517,6,0,L|256:184,1,140
256,40,54307,1,0
256,40,54622,1,0
256,152,54938,1,0
256,152,55096,1,0
256,264,55412,1,2
40,192,56043,5,0
152,192,56359,1,0
320,192,56832,2,0,L|184:288,1,140
296,336,57464,2,0,L|368:336,1,70
480,336,57938,1,2
472,192,58569,5,0
360,192,58885,1,0
192,192,59358,2,0,L|328:96,1,140
216,48,59990,2,0,L|144:48,1,70
32,48,60464,1,2
256,192,60622,12,4,61411
392,112,61727,6,0,B|328:40,1,70,0|0
288,56,62043,2,0,L|120:56,1,140
32,56,62674,1,0
32,112,62832,2,0,L|192:112,1,140
176,168,63306,2,0,L|344:168,1,140,0|2
256,264,63938,1,4
120,272,64253,6,0,B|184:344,1,70,0|0
224,328,64569,2,0,L|392:328,1,140
480,328,65200,1,0
480,272,65358,2,0,L|320:272,1,140
336,216,65832,2,0,L|168:216,1,140,0|2
256,120,66464,2,0,L|104:120,1,140,0|6
128,312,67095,6,0,L|272:312,2,140
128,312,67885,2,0,L|128:232|200:200,1,140
240,208,68359,1,0
352,208,68674,1,2
464,208,68989,1,4
464,96,69306,5,0
352,96,69622,2,0,L|208:96,3,140
96,96,70885,1,2
96,208,71201,1,2
152,208,71359,1,4
256,336,71832,5,0
368,336,72148,2,0,L|368:184,1,140
368,80,72780,2,0,L|296:80,1,70
184,80,73253,1,0
184,136,73411,2,0,L|32:136,2,140,0|2|4
256,48,74359,5,0
144,48,74675,2,0,L|144:200,1,140
144,304,75307,2,0,L|216:304,1,70
328,304,75780,1,0
328,248,75938,2,0,L|480:248,3,140,0|2|0|6
472,136,77201,6,0,L|472:40|424:24,1,140
320,24,77832,1,0
320,24,77990,2,0,L|176:24,1,140
180,24,78464,2,0,L|32:24,1,140,0|2
40,136,79095,1,4
64,240,79411,6,0,L|104:304|176:304,1,140
280,304,80043,2,0,L|424:304,1,140
424,192,80674,1,0
424,192,80990,2,0,L|424:40,1,140,2|2
424,52,81464,1,4
256,192,82253,12,0,83359
256,192,83517,12,0,84622
256,192,84780,12,0,87148
256,64,95043,5,0
256,120,95201,2,0,L|256:176|160:208,1,140,2|0
72,232,95833,2,0,L|96:304,1,70,2|0
208,296,96306,1,0
208,296,96464,1,0
208,296,96622,1,2
256,192,96938,1,0
256,192,97096,1,0
256,192,97254,1,2
256,320,97569,5,0
256,264,97727,2,0,L|256:208|352:176,1,140,2|0
440,152,98359,2,0,L|416:80,1,70,2|0
304,88,98832,1,0
304,88,98990,1,0
304,88,99148,1,2
256,192,99464,1,0
256,192,99622,1,0
256,192,99780,1,6
256,136,99938,6,0,L|144:40,1,140
40,48,100569,2,0,L|40:128,1,70
40,232,101043,1,0
40,232,101201,1,0
152,232,101517,1,2
264,232,101833,1,4
376,232,102148,6,0,L|456:232,1,70
448,176,102464,2,0,L|296:176,2,140
448,120,103253,2,0,L|304:120,1,140
304,64,103727,2,0,L|448:64,3,140,0|2|0|6
398,312,105306,5,0
398,312,105622,1,0
262,192,106095,2,0,L|118:192,1,140
118,80,106727,2,0,L|198:80,1,70
302,80,107201,1,2
118,80,107832,5,0
118,80,108148,1,0
254,200,108621,2,0,L|398:200,1,140
398,312,109253,2,0,L|318:312,1,70
214,312,109727,1,2
256,32,110359,5,0
256,144,110674,1,0
256,312,111148,2,0,L|112:312,1,140
112,200,111780,2,0,L|184:200,1,70
296,200,112253,1,2
256,352,112885,5,0
256,240,113200,1,0
256,72,113674,2,0,L|400:72,1,140
400,184,114306,2,0,L|328:184,1,70
216,184,114779,1,2
256,192,114938,12,4,115727
400,56,116043,5,0
400,112,116201,1,0
400,168,116359,2,0,L|232:168,2,140
400,224,117148,2,0,L|232:224,1,140
256,280,117622,2,0,L|424:280,1,140,0|2
256,280,118254,1,4
112,328,118569,5,0
112,272,118727,1,0
112,216,118885,2,0,L|280:216,2,140
112,160,119674,2,0,L|280:160,1,140
256,104,120148,2,0,L|88:104,1,140,0|2
256,104,120780,2,0,L|408:104,1,140,0|6
400,216,121411,5,0
400,216,121727,1,0
400,328,122043,2,0,L|328:328,1,70
216,328,122517,1,0
216,328,122674,2,0,L|144:328|80:264,2,140,0|2|4
216,216,123622,5,0
328,216,123938,2,0,L|480:216,3,140
472,104,125201,1,2
360,104,125517,2,0,L|280:104,1,70,2|4
96,32,126148,5,0
16,112,126464,2,0,L|16:264,1,140
96,336,127096,2,0,L|176:336,1,70
280,336,127569,1,0
280,336,127727,2,0,L|416:288,2,140,0|2|4
416,352,128674,5,0
496,272,128990,2,0,L|496:120,1,140
416,48,129622,2,0,L|336:48,1,70
232,48,130095,1,0
232,48,130253,2,0,L|96:96,3,140,0|2|0|6
40,192,131517,6,0,L|40:352,1,140
152,336,132148,1,0
152,336,132306,2,0,L|296:336,1,140
288,280,132780,2,0,L|140:280,1,140,0|2
144,168,133411,1,4
208,80,133727,6,0,L|368:80,1,140
440,136,134359,2,0,L|440:296,1,140
352,344,134990,1,0
264,272,135306,2,0,L|264:120,1,140,2|2
264,132,135780,1,4
256,192,136569,12,0,137675
256,192,137833,12,0,138938
256,192,139096,12,0,141464
