osu file format v5

[General]
AudioFilename: Sudden Death R99.mp3
AudioLeadIn: 0
PreviewTime: -1
Countdown: 0
SampleSet: Normal
StackLeniency: 0.2
Mode: 0
LetterboxInBreaks: 1
EditorDistanceSpacing: 0.800000011920929

[Metadata]
Title:Sudden Death R99
Artist:Karen
Creator:v2b
Version:Hard
Source:Extravaganza
Tags:

[Difficulty]
HPDrainRate:6
CircleSize:5
OverallDifficulty:6
SliderMultiplier:1.8
SliderTickRate:0.5

[Events]
//Background and Video events
0,0,"oct_1024_768.jpg"
//Break Periods
2,87348,94293
2,141664,159661
//Storyboard Layer 0 (Background)
//Storyboard Layer 1 (Failing)
//Storyboard Layer 2 (Passing)
//Storyboard Layer 3 (Foreground)
//Storyboard Sound Samples
//Background Colour Transformations
3,100,0,0,0

[TimingPoints]
20517,315.789473684211,4,1,0,70,1,0
82253,-100,4,1,0,0,0,0
94727,-100,4,1,0,70,0,0
136411,-100,4,1,0,0,0,0
159938,-200,4,2,0,70,0,0
170517,-200,4,2,0,100,0,0
179517,-100,4,1,0,70,0,0
200911,-100,4,1,0,0,0,0

[Colours]
Combo1 : 64,128,128
Combo2 : 0,0,160
Combo3 : 196,0,196
Combo4 : 64,0,128

[HitObjects]
96,24,20516,1,0
56,80,20674,1,0
96,136,20832,1,2
56,192,20990,1,0
96,248,21148,1,0
56,304,21306,1,2
96,360,21464,1,0
219,285,21780,1,0
291,285,21938,1,0
257,221,22095,1,2
293,81,22411,1,0
221,81,22569,1,0
255,145,22726,1,2
416,360,23043,5,0
456,304,23201,1,0
416,248,23359,1,2
456,192,23517,1,0
416,136,23675,1,0
456,80,23833,1,2
416,24,23991,1,0
293,99,24307,1,0
221,99,24465,1,0
255,163,24622,1,2
219,303,24938,1,0
291,303,25096,1,0
257,239,25253,1,6
224,160,25411,6,0,L|40:160,2,180,0|0|0
288,160,26201,2,0,L|480:160,1,180
256,80,26990,5,0
256,296,27306,1,0
384,232,27622,5,0
384,160,27780,1,0
320,192,27938,2,0,L|128:192,1,180
72,320,28569,1,0
144,320,28727,2,0,L|328:320,1,180
440,160,29517,5,0
256,40,29832,1,0
72,160,30148,1,4
72,304,30464,5,0
144,304,30622,1,0
216,304,30780,1,2
216,160,31095,1,0
144,160,31253,1,0
72,160,31411,1,0
192,232,31727,2,0,L|288:232,1,90
282,232,32043,2,0,L|376:232,1,90,2|0
372,232,32359,1,0
372,232,32517,1,2
372,232,32674,1,4
440,80,32990,5,0
368,80,33148,1,0
296,80,33306,1,2
296,224,33621,1,0
368,224,33779,1,0
440,224,33937,1,0
320,152,34253,2,0,L|224:152,1,90
230,152,34569,2,0,L|136:152,1,90,2|0
140,152,34885,1,0
140,152,35043,1,2
140,152,35200,1,4
320,328,35517,6,0,L|440:328,1,90
456,272,35832,2,0,L|360:272,1,90,2|0
320,216,36148,2,0,L|432:216,1,90
456,160,36464,2,0,L|336:160,1,90
320,104,36780,2,0,L|424:104,1,90
456,48,37095,2,0,L|360:48,1,90,2|0
296,48,37411,1,0
248,104,37569,1,2
176,112,37727,1,0
128,168,37885,1,6
192,56,38043,6,0,L|72:56,1,90
56,112,38358,2,0,L|152:112,1,90,2|0
192,168,38674,2,0,L|80:168,1,90
56,224,38990,2,0,L|176:224,1,90
192,280,39306,2,0,L|88:280,1,90
56,336,39621,2,0,L|152:336,1,90,2|0
216,336,39938,1,0
264,280,40096,1,2
336,272,40254,1,0
384,216,40412,1,6
368,48,40727,5,0
368,120,40885,2,0,L|272:120,1,90,0|2
280,192,41201,1,0
280,264,41359,2,0,L|392:264,1,90,0|2
368,336,41674,1,0
496,264,41990,1,0
496,192,42148,1,0
496,120,42306,1,2
352,120,42622,1,0
352,192,42780,1,0
352,264,42938,1,2
144,336,43253,5,0
144,264,43411,2,0,L|240:264,1,90,0|2
232,192,43727,1,0
232,120,43885,2,0,L|120:120,1,90,0|2
144,48,44200,1,0
16,120,44516,1,0
16,192,44674,1,0
16,264,44832,1,2
160,264,45148,1,0
160,192,45306,1,0
160,120,45464,1,6
224,152,45622,6,0,L|416:152,1,180
400,296,46253,2,0,L|288:296,1,90
168,296,46727,1,0
168,296,46885,2,0,L|80:296|32:200,1,180,0|2
40,72,47517,1,4
176,24,47832,6,0,L|272:24,1,90
336,24,48148,2,0,L|432:24|496:112,2,180
336,96,48938,2,0,L|280:168|280:280,1,180
280,328,49411,2,0,L|80:328,1,180,0|2
48,192,50043,2,0,L|232:192,1,180,0|6
456,272,50990,6,0,L|456:80,1,180
256,40,51780,2,0,L|256:224,1,180
256,360,52411,2,0,L|256:264,1,90
136,192,52885,1,2
56,112,53517,6,0,L|56:304,1,180
256,344,54307,2,0,L|256:160,1,180
256,24,54938,2,0,L|256:120,1,90
376,192,55412,1,2
96,112,56043,6,0,L|208:112|144:184,1,180
376,192,56832,2,0,L|472:192|424:112,1,180
296,56,57464,2,0,L|192:56,1,90
256,272,57938,1,2
416,272,58569,6,0,L|304:272|368:200,1,180
136,192,59358,2,0,L|40:192|88:272,1,180
216,328,59990,2,0,L|320:328,1,90
256,112,60464,1,2
256,192,60622,12,4,61411
400,56,61727,5,0
344,104,61885,1,0
288,152,62043,2,0,L|136:272,1,180
256,352,62674,1,0
256,280,62832,2,0,L|256:88,1,180
256,24,63306,2,0,L|72:24,1,180,0|2
72,168,63938,1,4
112,328,64253,5,0
168,280,64411,1,0
224,232,64569,2,0,L|376:112,1,180
256,32,65200,1,0
256,104,65358,2,0,L|256:296,1,180
256,360,65832,2,0,L|440:360,1,180,0|2
440,216,66464,2,0,L|240:216,1,180,0|6
120,192,67095,6,0,L|72:112|136:40,1,180
272,48,67727,1,0
344,48,67885,2,0,L|344:256,1,180
344,296,68359,1,0
200,296,68674,1,2
56,296,68990,1,4
56,152,69306,6,0,L|240:152,1,180
456,80,69938,2,0,L|272:80,1,180
256,224,70569,2,0,L|256:328,1,90,0|2
256,224,70885,2,0,L|256:40,1,180,0|2
256,44,71359,1,4
456,120,71832,5,0
456,192,71990,1,0
456,264,72148,1,0
328,192,72464,1,0
184,192,72780,1,0
256,192,72938,2,0,L|256:104|168:64,1,180
96,64,73411,1,0
24,192,73727,1,2
168,192,74043,1,4
56,264,74359,5,0
56,192,74517,1,0
56,120,74675,1,0
184,192,74991,1,0
328,192,75307,1,0
256,192,75465,2,0,L|256:280|344:320,1,180
416,320,75938,1,0
488,192,76254,1,2
344,192,76569,2,0,L|152:192,1,180,0|6
72,80,77201,5,0
216,80,77517,2,0,L|408:80,1,180
400,152,77990,2,0,L|208:152,1,180
144,152,78464,2,0,L|144:248|248:248,1,180,0|2
368,248,79095,1,4
472,344,79411,6,0,L|280:344,1,180
144,344,80043,1,0
144,344,80359,2,0,L|40:344|40:256,1,180
40,192,80832,1,0
112,192,80990,1,2
256,192,81306,1,2
184,192,81464,1,4
256,192,82253,12,0,83359
256,192,83517,12,0,84622
256,192,84780,12,0,87148
448,56,95043,5,0
448,128,95201,1,0
376,128,95359,1,2
376,200,95517,1,0
304,200,95675,1,0
304,272,95833,1,2
232,272,95990,1,0
88,272,96306,1,0
160,272,96464,1,0
160,200,96622,1,2
16,200,96938,1,0
16,128,97095,1,0
88,128,97253,1,2
64,328,97569,5,0
64,256,97727,1,0
136,256,97885,1,2
136,184,98043,1,0
208,184,98201,1,0
208,112,98359,1,2
280,112,98516,1,0
424,112,98832,1,0
352,112,98990,1,0
352,184,99148,1,2
496,184,99464,1,0
496,256,99621,1,0
424,256,99779,1,6
296,256,99938,6,0,L|104:256,1,180
112,112,100569,1,0
184,112,100727,2,0,L|384:112,1,180
368,184,101201,2,0,L|176:184,1,180,0|2
188,184,101832,1,4
320,320,102148,5,0
392,320,102306,1,0
464,320,102464,2,0,L|464:120,2,180
464,320,103253,2,0,L|272:320,1,180
285,320,103727,1,0
224,184,104043,1,2
168,320,104359,1,0
104,184,104675,1,2
48,320,104990,1,4
256,192,105306,6,0,L|56:192|56:192|56:184,1,180
256,192,106095,2,0,L|464:192,1,180
256,192,106727,2,0,L|256:96,1,90
256,328,107201,1,2
256,192,107832,6,0,L|456:192|456:192|456:200,1,180
256,192,108621,2,0,L|48:192,1,180
256,192,109253,2,0,L|256:288,1,90
256,56,109727,1,2
424,192,110359,5,0
280,192,110675,1,0
64,192,111148,1,0
64,336,111464,1,0
208,336,111780,1,0
280,336,111938,1,0
136,336,112253,1,2
88,192,112885,5,0
232,192,113201,1,0
448,192,113674,1,0
448,48,113990,1,0
304,48,114306,1,0
232,48,114464,1,0
376,48,114779,1,2
256,192,114938,12,4,115727
328,336,116043,5,0
256,336,116201,1,0
184,336,116359,2,0,L|120:336|32:248,1,180
40,112,116990,1,0
112,112,117148,2,0,L|296:112,1,180
296,184,117622,2,0,L|232:248,2,90,2|0|2
440,184,118253,1,4
184,48,118569,5,0
256,48,118727,1,0
328,48,118885,2,0,L|392:48|480:136,1,180
472,272,119516,1,0
400,272,119674,2,0,L|216:272,1,180
216,200,120148,2,0,L|280:136,2,90,2|0|2
72,200,120779,1,4
192,344,121411,6,0,L|376:344,1,180
376,200,122043,1,0
376,200,122201,2,0,L|376:104|312:40,1,180,0|0
240,48,122674,2,0,L|128:48,2,90,2|0|2
240,120,123148,2,0,L|240:240,2,90,0|0|2
168,120,123622,6,0,L|80:120|32:216,1,180
40,344,124253,2,0,L|128:344|176:248,1,180
312,264,124885,2,0,L|424:264,1,90
472,264,125201,1,2
472,120,125517,1,2
472,192,125675,1,4
256,192,126148,5,0
184,192,126306,1,0
256,192,126464,2,0,L|448:192,2,180
256,192,127253,2,0,L|256:96|152:96,1,180
96,96,127727,2,0,L|96:280,1,180,0|2
96,276,128359,1,4
256,192,128674,5,0
328,192,128832,1,0
256,192,128990,2,0,L|64:192,2,180
256,192,129779,2,0,L|256:288|360:288,1,180
416,288,130253,2,0,L|416:104,1,180,0|2
416,108,130885,1,4
144,280,131517,5,0
256,192,131832,1,0
368,104,132148,1,0
368,104,132306,1,0
256,192,132622,1,0
256,192,132780,1,0
144,104,133095,1,2
256,192,133411,1,4
368,280,133727,6,0,L|320:336|208:336,3,180
72,336,134990,2,0,L|72:224,1,90,0|2
72,176,135306,2,0,L|152:128|240:184,1,180,0|2
225,174,135780,1,4
256,192,136569,12,0,137675
256,192,137833,12,0,138938
256,192,139096,12,0,141464
40,24,160569,5,0
120,64,160885,1,0
200,24,161201,1,0
280,64,161517,1,2
480,136,161832,5,0
400,176,162148,1,0
320,136,162464,1,0
240,176,162780,1,4
40,224,163095,5,0
120,264,163411,1,0
200,224,163727,1,0
280,264,164043,1,2
480,336,164358,5,0
400,376,164674,1,0
320,336,164990,1,0
240,376,165306,1,4
160,352,165622,6,0,L|56:352,1,90
96,272,166253,2,0,L|216:272,1,90,0|2
208,192,166885,2,0,L|104:192,1,90
144,112,167517,2,0,L|248:112,1,90,0|4
352,336,168148,6,0,L|456:336,1,90
416,256,168779,2,0,L|304:256,1,90,0|2
304,176,169411,2,0,L|408:176,1,90
368,96,170043,2,0,L|248:96,1,90,0|4
128,64,170674,5,4
64,120,170990,1,0
16,192,171306,1,0
64,264,171622,1,0
120,328,171938,1,0
128,192,172253,6,0,L|176:192,1,45,0|2
448,192,172727,2,0,L|384:192,1,45,0|2
319,75,173201,5,4
367,147,173517,1,0
367,235,173832,1,0
316,307,174148,1,0
232,192,174464,6,0,L|280:192,3,45,0|0|0|2
312,192,175095,2,0,L|344:192,7,22.5,0|0|2|2|0|0|2|2
352,192,175727,6,0,L|392:192,2,22.5,0|0|2
352,64,176043,2,0,L|392:64,2,22.5,0|0|2
224,64,176359,2,0,L|224:32,2,22.5,0|0|2
96,64,176674,2,0,L|96:32,2,22.5,0|0|2
96,192,176990,2,0,L|56:192,2,22.5,0|0|2
96,320,177306,2,0,L|56:320,2,22.5,0|0|2
224,320,177622,2,0,L|224:352,2,22.5,0|0|2
352,320,177938,2,0,L|352:352,2,22.5,0|0|2
208,240,178253,5,0
304,240,178411,1,0
304,144,178569,1,0
208,144,178727,1,0
256,272,178885,5,2
336,192,179043,1,2
256,112,179201,1,2
176,192,179359,1,2
256,192,179517,12,4,180148
112,56,180464,5,0
168,104,180622,1,0
224,152,180780,2,0,L|376:272,1,180
256,352,181411,1,0
256,280,181569,2,0,L|256:88,1,180
256,24,182043,2,0,L|440:24,1,180,0|2
440,168,182675,1,4
400,328,182990,5,0
344,280,183148,1,0
288,232,183306,2,0,L|136:112,1,180
256,32,183937,1,0
256,104,184095,2,0,L|256:296,1,180
256,360,184569,2,0,L|72:360,1,180,0|2
72,216,185201,2,0,L|272:216,1,180,0|6
392,192,185832,6,0,L|440:112|376:40,1,180
240,48,186464,1,0
168,48,186622,2,0,L|168:256,1,180
168,296,187096,1,0
312,296,187411,1,2
456,296,187727,1,4
456,152,188043,6,0,L|272:152,1,180
56,80,188675,2,0,L|240:80,1,180
256,224,189306,2,0,L|256:328,1,90,0|2
256,224,189622,2,0,L|256:40,1,180,0|2
256,44,190096,1,4
56,120,190569,5,0
56,192,190727,1,0
56,264,190885,1,0
184,192,191201,1,0
328,192,191517,1,0
256,192,191675,2,0,L|256:104|344:64,1,180
416,64,192148,1,0
488,192,192464,1,2
344,192,192780,1,4
456,264,193096,5,0
456,192,193254,1,0
456,120,193412,1,0
328,192,193728,1,0
184,192,194044,1,0
256,192,194202,2,0,L|256:280|168:320,1,180
96,320,194675,1,0
24,192,194991,1,2
168,192,195306,2,0,L|360:192,1,180,0|6
440,80,195938,5,0
296,80,196254,2,0,L|104:80,1,180
112,152,196727,2,0,L|304:152,1,180
368,152,197201,2,0,L|368:248|264:248,1,180,0|2
144,248,197832,1,4
40,344,198148,6,0,L|232:344,1,180
368,344,198780,1,0
368,344,199096,2,0,L|472:344|472:256,1,180
472,192,199569,1,0
400,192,199727,1,2
256,192,200043,1,2
328,192,200201,1,4
256,192,200990,12,0,205885
