osu file format v9

[General]
AudioFilename: Karen - Hijiri.mp3
AudioLeadIn: 2000
PreviewTime: 23324
Countdown: 0
SampleSet: Soft
StackLeniency: 0.6
Mode: 0
LetterboxInBreaks: 0

[Editor]
DistanceSpacing: 1.2
BeatDivisor: 4
GridSize: 8

[Metadata]
Title:Hijiri
Artist:Karen
Creator:quintitem
Version:Plume
Source:Sacred Plume
Tags:Video Game

[Difficulty]
HPDrainRate:8
CircleSize:5
OverallDifficulty:6
ApproachRate:7
SliderMultiplier:1.5
SliderTickRate:0.5

[Events]
//Background and Video events
0,0,"Rita.jpg"
//Break Periods
2,16419,19830
2,68753,72165
2,121088,126304
//Storyboard Layer 0 (Background)
//Storyboard Layer 1 (Fail)
//Storyboard Layer 2 (Pass)
//Storyboard Layer 3 (Foreground)
Sprite,Foreground,TopLeft,"StoryBoard\artist.png",320,240 M,0,17121,18023,80,320,80,305 F,0,17121,18023,0,1 M,0,19828,20730,80,305,80,320 F,0,19828,20730,1,0
Sprite,Foreground,TopLeft,"StoryBoard\aa.png",320,240 M,0,1782,,110,401 F,0,1782,2007,0,1 F,0,8323,8549,1,0
Sprite,Foreground,TopLeft,"StoryBoard\ab.png",320,240 M,0,4940,,310,400 F,0,4940,5165,0,1 F,0,8323,8549,1,0
Sprite,Foreground,TopLeft,"StoryBoard\ac.png",320,240 M,0,9000,,110,400 F,0,9000,9226,0,1 F,0,15993,16219,1,0
Sprite,Foreground,TopLeft,"StoryBoard\ad.png",320,240 M,0,12158,,279,400 F,0,12158,12384,0,1 F,0,15993,16219,1,0
Sprite,Foreground,TopLeft,"StoryBoard\ba.png",320,240 M,0,23437,,110,400 F,0,23437,23663,0,1 F,0,29979,30205,1,0
Sprite,Foreground,TopLeft,"StoryBoard\bb.png",320,240 M,0,27047,,240,400 F,0,27047,27272,0,1 F,0,29979,30205,1,0
Sprite,Foreground,TopLeft,"StoryBoard\bc.png",320,240 M,0,30656,,110,400 F,0,30656,30881,0,1 F,0,37198,37423,1,0
Sprite,Foreground,TopLeft,"StoryBoard\bd.png",320,240 M,0,34265,,232,400 F,0,34265,34491,0,1 F,0,37198,37423,1,0
Sprite,Foreground,TopLeft,"StoryBoard\be.png",320,240 M,0,37874,,110,400 F,0,37874,38100,0,1 F,0,44416,44642,1,0
Sprite,Foreground,TopLeft,"StoryBoard\bf.png",320,240 M,0,41484,,233,400 F,0,41484,41709,0,1 F,0,44416,44642,1,0
Sprite,Foreground,TopLeft,"StoryBoard\bg.png",320,240 M,0,45093,,110,400 F,0,45093,45319,0,1 F,0,53440,53665,1,0
Sprite,Foreground,TopLeft,"StoryBoard\bh.png",320,240 M,0,48702,,246,400 F,0,48702,48928,0,1 F,0,53440,53665,1,0
Sprite,Foreground,TopLeft,"StoryBoard\bi.png",320,240 M,0,51409,,386,400 F,0,51409,51635,0,1 F,0,53440,53665,1,0
Sprite,Foreground,TopLeft,"StoryBoard\ca.png",320,240 M,0,54116,,110,400 F,0,54116,54342,0,1 F,0,60658,60884,1,0
Sprite,Foreground,TopLeft,"StoryBoard\cb.png",320,240 M,0,57274,,302,400 F,0,57274,57500,0,1 F,0,60658,60884,1,0
Sprite,Foreground,TopLeft,"StoryBoard\cc.png",320,240 M,0,61335,,110,400 F,0,61335,61560,0,1 F,0,68328,68553,1,0
Sprite,Foreground,TopLeft,"StoryBoard\cd.png",320,240 M,0,64493,,285,400 F,0,64493,64719,0,1 F,0,68328,68553,1,0
Sprite,Foreground,TopLeft,"StoryBoard\da.png",320,240 M,0,75772,,110,400 F,0,75772,75998,0,1 F,0,82314,82539,1,0
Sprite,Foreground,TopLeft,"StoryBoard\db.png",320,240 M,0,79381,,234,400 F,0,79381,79607,0,1 F,0,82314,82539,1,0
Sprite,Foreground,TopLeft,"StoryBoard\dc.png",320,240 M,0,82991,,110,400 F,0,82991,83216,0,1 F,0,89532,89758,1,0
Sprite,Foreground,TopLeft,"StoryBoard\dd.png",320,240 M,0,86600,,275,400 F,0,86600,86825,0,1 F,0,89532,89758,1,0
Sprite,Foreground,TopLeft,"StoryBoard\de.png",320,240 M,0,90209,,110,400 F,0,90209,90435,0,1 F,0,96751,96977,1,0
Sprite,Foreground,TopLeft,"StoryBoard\df.png",320,240 M,0,93818,,218,400 F,0,93818,94044,0,1 F,0,96751,96977,1,0
Sprite,Foreground,TopLeft,"StoryBoard\dg.png",320,240 M,0,97428,,110,400 F,0,97428,97653,0,1 F,0,105774,106000,1,0
Sprite,Foreground,TopLeft,"StoryBoard\dh.png",320,240 M,0,101037,,241,400 F,0,101037,101263,0,1 F,0,105774,106000,1,0
Sprite,Foreground,TopLeft,"StoryBoard\di.png",320,240 M,0,103744,,363,400 F,0,103744,103970,0,1 F,0,105774,106000,1,0
Sprite,Foreground,TopLeft,"StoryBoard\aa.png",320,240 M,0,106451,,110,401 F,0,106451,106677,0,1 F,0,112993,113218,1,0
Sprite,Foreground,TopLeft,"StoryBoard\ab.png",320,240 M,0,109609,,310,400 F,0,109609,109835,0,1 F,0,112993,113218,1,0
Sprite,Foreground,TopLeft,"StoryBoard\ac.png",320,240 M,0,113670,,110,400 F,0,113670,113895,0,1 F,0,120211,120437,1,0
Sprite,Foreground,TopLeft,"StoryBoard\ad.png",320,240 M,0,116828,,279,400 F,0,116828,117053,0,1 F,0,120211,120437,1,0
Sprite,Foreground,TopLeft,"StoryBoard\ca.png",320,240 M,0,120888,,110,400 F,0,120888,121114,0,1 F,0,127430,127656,1,0
Sprite,Foreground,TopLeft,"StoryBoard\cb.png",320,240 M,0,124046,,302,400 F,0,124046,124272,0,1 F,0,127430,127656,1,0
Sprite,Foreground,TopLeft,"StoryBoard\cc.png",320,240 M,0,128107,,110,400 F,0,128107,128332,0,1 F,0,134649,134874,1,0
Sprite,Foreground,TopLeft,"StoryBoard\cd.png",320,240 M,0,131265,,285,400 F,0,131265,131491,0,1 F,0,134649,134874,1,0
Sprite,Foreground,TopLeft,"StoryBoard\ea.png",320,240 F,0,135325,135551,0,1 M,0,135325,142093,110,365,190,365 F,0,141867,142093,1,0
Sprite,Foreground,TopLeft,"StoryBoard\eb.png",320,240 F,0,138935,139160,0,1 M,0,138935,142093,285,400,245,400 F,0,141867,142093,1,0
Sprite,Foreground,TopLeft,"StoryBoard\ec.png",320,240 F,0,142544,142770,0,1 M,0,142544,149311,110,365,190,365 F,0,149086,149311,1,0
Sprite,Foreground,TopLeft,"StoryBoard\ed.png",320,240 F,0,146153,146379,0,1 M,0,146153,149311,300,400,260,400 F,0,149086,149311,1,0
Sprite,Foreground,TopLeft,"StoryBoard\ee.png",320,240 F,0,149763,149988,0,1 M,0,149763,154725,110,400,150,400 F,0,154500,154725,1,0
//Storyboard Sound Samples
//Background Colour Transformations
3,100,163,162,255

[TimingPoints]
1782,451.161741484322,4,2,1,45,1,0
22535,-111.111111111111,4,2,1,40,0,0
54116,-100,4,2,1,45,0,0
68553,-100,4,2,1,30,0,0
72163,-111.111111111111,4,2,1,40,0,0
89871,-111.111111111111,4,2,1,30,0,0
90040,-111.111111111111,4,2,1,35,0,0
90153,-111.111111111111,4,2,1,40,0,0
106451,-100,4,2,1,45,0,0
120775,-100,4,2,1,30,0,0
126302,-100,4,2,1,45,0,0
134197,-100,4,2,1,30,0,0
134479,-100,4,2,1,45,0,0
149650,-100,4,2,1,30,0,0
149763,-100,4,2,1,20,0,0

[Colours]
Combo1 : 236,200,164
Combo2 : 105,62,185
Combo3 : 146,158,201
Combo4 : 217,170,177

[HitObjects]
256,192,428,12,6,1782
268,84,2233,6,0,B|420:84,2,150,8|2|8
128,140,3586,1,2
72,192,3812,2,0,B|32:192,2,37.5,0|0|8
128,240,4263,1,0
72,288,4488,2,0,B|240:288,1,150,2|8
280,240,5165,5,0
280,240,5391,2,0,B|368:252|368:356,2,150,2|8|2
148,168,6744,2,0,B|148:20,2,150,8|2|8
296,136,8098,2,0,B|328:108,1,37.5,2|8
392,80,8436,2,0,B|420:112,1,37.5,0|12
464,168,8775,1,0
464,168,9000,6,0,B|464:336,2,150,6|8|2
368,52,10354,1,8
272,168,10805,1,2
272,168,11030,2,0,B|324:168,2,37.5,0|0|8
220,112,11481,1,0
172,168,11707,1,2
132,312,12158,5,8
132,312,12384,1,0
132,312,12609,2,0,B|288:312,2,150,2|8|2
44,192,13963,1,8
44,192,14414,1,2
132,72,14865,1,8
132,72,15316,2,0,B|168:100,1,37.5,2|8
236,80,15655,2,0,B|252:128,1,37.5,0|8
256,192,15993,1,8
256,192,16219,1,6
256,192,20730,12,0,22535
256,192,22986,5,8
196,144,23212,1,8
196,144,23324,1,8
196,144,23437,2,0,B|196:40,2,101.249995172024,4|8|0
136,188,24340,2,0,B|68:188,2,67.4999967813493,0|0|8
196,228,25016,1,0
136,272,25242,2,0,B|32:272,2,101.249995172024,0|8|0
196,316,26144,2,0,B|240:320|240:372,2,67.4999967813493,0|0|8
316,144,27047,6,0,B|316:40,2,101.249995172024,0|8|0
376,188,27949,2,0,B|444:188,2,67.4999967813493,0|0|8
316,228,28626,1,0
376,272,28851,2,0,B|480:272,2,101.249995172024,0|8|0
316,316,29754,2,0,B|272:320|272:372,2,67.4999967813493,0|0|8
284,248,30430,1,8
220,212,30656,6,0,B|221:149|156:146,2,101.249995172024,0|8|0
160,256,31558,1,0
160,256,31784,2,0,B|160:332,2,67.4999967813493,0|8|0
100,212,32460,2,0,B|38:214|39:277,2,101.249995172024,0|8|0
100,136,33363,2,0,B|100:88|48:88,2,67.4999967813493,0|0|8
292,172,34265,6,0,B|290:234|355:237,2,101.249995172024,0|8|0
352,128,35167,1,0
352,128,35393,2,0,B|352:52,2,67.4999967813493,0|8|0
412,172,36070,2,0,B|473:169|472:106,2,101.249995172024,0|8|0
412,248,36972,2,0,B|412:296|464:296,2,67.4999967813493,0|0|8
344,220,37649,1,8
276,248,37874,6,0,B|164:248,2,101.249995172024,6|8|0
268,172,38777,1,0
268,172,39002,1,0
224,112,39228,1,8
224,112,39454,1,0
156,84,39679,2,0,B|94:81|95:18,2,101.249995172024,2|8|0
116,148,40581,2,0,B|68:148,2,33.7499983906747,2|0|0
156,212,41033,1,8
356,284,41484,6,0,B|417:286|416:349,2,101.249995172024,2|8|0
300,236,42386,2,0,B|300:153|384:146,1,134.999993562699,0|8
156,100,43288,6,0,B|94:97|95:34,2,101.249995172024,2|8|0
212,148,44191,2,0,B|211:230|127:237,1,134.999993562699,0|8
388,192,45093,6,0,B|496:192,2,101.249995172024,6|8|0
320,156,45995,1,0
320,156,46221,1,0
296,228,46447,1,8
296,228,46672,1,0
232,192,46898,2,0,B|170:194|171:257,2,101.249995172024,2|8|0
232,116,47800,2,0,B|232:76,2,33.7499983906747,2|0|0
232,116,48251,1,8
92,280,48702,6,0,B|30:277|31:214,2,101.249995172024,2|8|0
92,280,49605,1,0
92,356,49830,1,0
156,320,50056,1,8
156,244,50281,1,0
92,204,50507,2,0,B|92:104,2,101.249995172024,2|8|0
156,168,51409,6,0,B|217:165|216:102,1,101.249995172024
216,76,51860,2,0,B|216:28|160:28,2,67.4999967813493,8|0|4
292,76,52537,2,0,B|340:76|340:16,2,67.4999967813493,0|8|0
292,152,53214,2,0,B|328:184,1,33.7499983906747,0|8
364,232,53552,1,8
364,232,53778,1,8
320,292,54003,2,0,B|280:340,1,33.7499983906747,8|6
172,236,54567,6,0,B|16:236,1,150,8|2
100,108,55470,2,0,B|252:108,1,150,8|2
320,80,56146,1,0
320,80,56259,1,0
320,80,56372,2,0,B|320:32|268:32,2,75,8|0|2
480,117,57274,5,8
480,117,57500,1,0
480,117,57726,2,0,B|480:273,2,150,2|8|2
32,267,59079,2,0,B|32:111,2,150,8|2|8
256,192,60433,2,0,B|288:164,1,37.5,2|8
320,100,60771,2,0,B|284:64,1,37.5,0|12
224,48,61109,1,0
152,72,61335,6,0,B|64:84|64:188,1,150,6|8
196,248,62237,2,0,B|284:260|284:364,2,150,2|8|2
128,216,63365,1,0
128,216,63478,1,0
128,216,63591,2,0,B|128:164|180:164,2,75,8|0|2
181,32,64493,5,8
181,32,64719,1,0
181,32,64944,2,0,B|337:32,2,150,2|8|2
331,352,66298,2,0,B|175:352,2,150,8|2|8
256,192,67651,1,2
256,192,67764,1,8
308,140,67989,1,0
308,140,68102,2,0,B|308:60,2,75,12|8|6
256,192,73065,12,0,74870
196,96,75321,5,8
196,96,75546,1,8
196,96,75772,2,0,B|197:33|132:30,2,101.249995172024,4|8|0
136,160,76674,1,0
136,160,76900,1,0
196,224,77126,1,8
196,224,77351,1,0
136,288,77577,2,0,B|32:288,2,101.249995172024,0|8|0
196,352,78479,1,0
256,288,78705,1,0
316,352,78930,1,8
316,96,79381,6,0,B|315:33|380:30,2,101.249995172024,0|8|0
376,160,80284,1,0
376,160,80509,1,0
316,224,80735,1,8
316,224,80960,1,0
376,288,81186,2,0,B|480:288,2,101.249995172024,0|8|0
316,352,82088,1,0
256,288,82314,1,0
196,352,82539,1,8
44,156,82991,5,0
132,60,83329,1,8
224,156,83667,2,0,B|224:240,2,67.4999967813493
300,112,84344,1,8
300,112,84570,1,0
300,112,84795,2,0,B|404:112,2,101.249995172024,0|8|0
224,68,85698,2,0,B|224:20|280:20,2,67.4999967813493,0|0|8
468,228,86600,5,0
380,324,86938,1,8
288,228,87277,2,0,B|288:144,2,67.4999967813493
212,272,87953,1,8
212,272,88179,1,0
212,272,88405,2,0,B|108:272,2,101.249995172024,0|8|0
288,316,89307,2,0,B|288:364|232:364,2,67.4999967813493,0|0|8
288,228,89984,1,8
288,216,90096,1,8
288,204,90209,6,0,B|288:104,2,101.249995172024,6|8|0
212,248,91112,1,0
212,248,91337,2,0,B|212:316,2,67.4999967813493,0|8|0
128,220,92014,1,2
20,144,92352,1,8
128,68,92691,1,0
212,44,92916,1,2
212,44,93029,1,0
212,44,93142,2,0,B|296:44,1,67.4999967813493,0|8
400,224,93818,6,0,B|400:340,2,101.249995172024,2|8|0
400,136,94721,1,0
400,136,95172,1,8
112,160,95623,6,0,B|112:44,2,101.249995172024,2|8|0
112,248,96525,1,0
112,248,96977,1,8
472,192,97428,5,6
388,92,97766,1,8
300,192,98105,2,0,B|300:244|236:244,2,67.4999967813493
212,192,98781,2,0,B|212:140|276:140,2,67.4999967813493,8|0|2
124,292,99571,1,8
40,192,99909,1,0
108,136,100135,2,0,B|160:136,2,33.7499983906747,2|0|0
40,80,100586,1,8
256,32,101037,5,2
360,112,101375,1,8
256,192,101714,1,0
256,280,101939,1,0
180,236,102165,1,0
180,148,102391,1,8
256,104,102616,1,0
256,192,102842,2,0,B|372:192,2,101.249995172024,2|8|0
256,280,103744,5,0
124,284,104082,2,0,B|92:248,1,33.7499983906747,0|8
44,192,104421,1,0
44,192,104646,2,0,B|44:112,2,67.4999967813493,4|0|8
124,156,105323,1,0
180,88,105549,1,0
180,88,105661,2,0,B|256:88,1,67.4999967813493,8|8
332,64,106113,2,0,B|332:24,3,33.7499983906747,8|8|8|6
476,192,106902,6,0,B|476:360,2,150,8|2|8
324,292,108256,1,2
256,352,108481,1,0
256,352,108594,1,0
256,352,108707,2,0,B|176:352,2,75,8|0|2
32,192,109609,6,0,B|32:272,2,75,8|0|2
256,32,110511,1,8
480,192,110963,1,2
256,296,111414,5,8
108,192,111865,1,2
256,88,112316,1,8
404,192,112767,1,2
404,192,112880,1,8
324,236,113106,1,0
324,236,113218,1,12
340,324,113444,1,0
256,356,113670,5,6
444,56,114121,1,8
256,356,114572,1,2
68,56,115023,1,8
256,356,115474,5,2
192,292,115700,2,0,B|136:292,2,37.5,0|0|8
256,228,116151,1,0
256,228,116377,1,2
104,60,116828,5,8
104,60,117053,1,0
104,60,117279,1,2
408,104,117730,1,8
104,148,118181,1,2
408,192,118632,1,8
104,236,119084,1,2
408,280,119535,1,8
104,324,119986,6,0,B|164:304,1,37.5,2|8
228,312,120324,2,0,B|252:280,1,37.5,0|12
256,192,120663,1,0
256,192,120888,1,6
256,192,127204,6,0,B|236:152,1,37.5,2|8
180,88,127543,2,0,B|144:116,1,37.5,0|12
76,160,127881,1,8
76,176,127994,1,8
76,192,128107,6,0,B|76:360,2,150,6|8|2
232,104,129460,1,8
232,104,129911,1,2
300,160,130137,1,0
300,160,130250,1,0
300,160,130363,1,8
372,104,130588,1,0
444,160,130814,2,0,B|444:316,1,150,2|8
364,352,131491,1,0
284,312,131716,5,2
240,72,132167,1,8
196,312,132618,1,2
152,72,133070,1,8
108,312,133521,1,2
64,72,133972,1,8
256,192,134423,5,6
256,192,134536,1,8
324,132,134761,1,0
324,132,134874,1,8
256,72,135100,1,8
256,72,135213,1,8
256,72,135325,6,0,B|380:72,1,112.5,6|0
392,72,135777,2,0,B|440:72|440:132,2,75,8|0|2
360,248,136679,1,8
288,300,136904,1,0
288,300,137017,1,0
288,300,137130,2,0,B|164:300,1,112.5,2|0
152,300,137581,2,0,B|108:300|108:352,2,75,8|0|2
112,124,138484,6,0,B|32:124,2,75,8|0|2
212,32,139273,2,0,B|232:68,1,37.5,0|8
244,152,139611,1,0
244,152,139837,2,0,B|404:152,1,150,2|8
452,224,140514,2,0,B|488:224,2,37.5,0|0|2
400,296,140965,1,0
344,224,141190,1,8
292,296,141416,1,0
236,224,141642,1,2
236,224,141754,1,8
180,296,141980,1,0
180,296,142093,2,0,B|92:296,2,75,12|0|6
152,164,142882,6,0,B|172:120,1,37.5,0|8
236,72,143221,1,0
236,72,143446,2,0,B|396:72,1,150,2|8
452,132,144123,1,0
452,132,144236,1,0
452,132,144349,2,0,B|452:244,1,112.5,2|0
452,268,144800,2,0,B|404:268|404:332,2,75,8|0|2
256,300,145702,6,0,B|256:352|204:352,2,75,8|0|2
132,240,146492,2,0,B|104:208,1,37.5,0|8
36,160,146830,1,0
36,160,147056,2,0,B|35:68|123:56,1,150,2|8
184,124,147732,2,0,B|184:160,2,37.5,0|0|2
272,100,148183,2,0,B|272:20,2,75,0|8|0
324,176,148860,2,0,B|356:220,1,37.5,2|8
376,292,149199,2,0,B|324:332,1,37.5,0|12
256,332,149537,2,0,B|256:284,2,37.5,8|8|2
256,192,149988,12,2,155628
