osu file format v6

[General]
AudioFilename: (Kara)_Wanna_.mp3
AudioLeadIn: 0
PreviewTime: 49677
Countdown: 1
SampleSet: Normal
StackLeniency: 0.7
Mode: 0
LetterboxInBreaks: 1

[Editor]
Bookmarks: 12597,85081,97379,146199,152534
DistanceSpacing: 1
BeatDivisor: 2
GridSize: 32

[Metadata]
Title:Wanna
Artist:Kara
Creator:mydoctor93
Version:Normal
Source:
Tags:

[Difficulty]
HPDrainRate:3
CircleSize:4
OverallDifficulty:3
SliderMultiplier:1.4
SliderTickRate:1

[Events]
//Background and Video events
0,0,"Kara_Revolution.jpg"
//Break Periods
2,85281,95939
2,146398,151094
//Storyboard Layer 0 (Background)
//Storyboard Layer 1 (Fail)
//Storyboard Layer 2 (Pass)
//Storyboard Layer 3 (Foreground)
//Storyboard Sound Samples
//Background Colour Transformations
3,100,163,162,255

[TimingPoints]
485.481306084201,372.669742761278,4,1,1,100,1,0
152532,372.669742761278,4,1,1,100,1,1
168929,372.669742761277,4,1,1,100,1,0

[HitObjects]
96,64,12597,2,0,B|192:64,1,70
224,64,12969,1,0
288,64,13156,2,0,B|384:64|416:160,1,140,0|2
416,256,14087,2,0,B|320:224,1,70
288,224,14459,1,0
224,224,14646,2,0,B|128:224|96:320,1,140,0|2
128,160,15578,5,0
192,128,15764,2,0,B|288:64,1,70
320,96,16137,2,0,B|416:128|416:224,1,140,0|2
256,192,17069,1,0
288,256,17255,2,0,B|288:352,1,70
224,320,17628,2,0,B|128:288|128:192,1,140,0|2
96,128,18559,5,0
96,192,18746,1,0
96,256,18932,1,0
160,256,19118,2,0,B|160:96,1,140,0|2
320,128,20050,1,0
320,192,20237,1,0
320,256,20423,1,0
384,256,20609,2,0,B|384:96,1,140,0|2
448,128,21541,6,0,B|352:64|288:64,1,140
256,64,22100,2,0,B|224:64|192:96|160:128,1,70
128,128,22472,1,2
64,256,23032,2,0,B|160:320|224:320,1,140
256,320,23591,2,0,B|288:320|320:288|352:256,1,70
384,256,23963,1,2
384,128,24336,6,0,L|320:192,1,70,0|2
306,226,24709,2,0,L|242:162,1,70,0|2
224,224,25081,2,2,L|128:96,1,140,2|2
96,64,26199,6,0,L|96:288,1,210
160,256,26945,1,8
160,256,27131,1,8
224,160,27504,2,0,L|384:160|224:288,1,350
160,320,28622,1,8
160,192,28994,1,8
121,192,30112,5,2
208,193,30485,1,2
304,193,30858,1,2
399,192,31230,1,2
416,64,32162,6,0,L|416:288,1,210
352,256,32908,1,8
352,256,33094,1,8
288,160,33467,2,0,L|128:160|288:288,1,350
352,320,34585,1,8
352,192,34957,1,8
128,128,35703,5,8
128,128,35889,1,2
128,128,36076,1,2
160,224,36448,2,2,L|320:320|512:256,1,350
480,192,37752,6,2,L|416:224|352:192,1,140,2|8
352,96,38311,2,2,L|416:64|480:96,1,140,2|8
417,144,38870,1,2
285,96,39243,2,2,L|221:64|157:96,1,140,2|8
157,192,39802,2,2,L|221:224|285:192,1,140,2|8
221,145,40361,1,2
320,96,40733,5,8
256,96,40920,1,8
256,160,41106,1,8
256,224,41292,1,8
288,288,41479,2,0,L|352:224,1,70
384,192,41851,1,8
448,224,42038,1,2
480,96,42410,2,2,L|337:142|128:96,1,350
64,192,43715,6,2,L|128:224|192:192,1,140,2|8
192,96,44274,2,2,L|128:64|64:96,1,140,2|8
128,143,44833,1,2
224,192,45206,2,2,L|288:224|352:192,1,140,2|8
352,96,45765,2,2,L|288:64|224:96,1,140,2|8
288,143,46324,1,2
406,69,46696,5,8
445,133,46882,1,8
416,192,47069,1,8
352,192,47255,1,8
320,256,47441,2,0,L|416:256,2,70
288,320,48000,2,2,L|64:192|256:0,1,490,0|0
160,96,49677,5,0
160,96,49864,1,0
160,96,50050,1,0
230,145,50236,1,0
230,146,50423,1,0
230,147,50609,1,0
288,192,50795,2,2,L|448:192,1,140
416,192,52659,5,0
416,192,52846,1,0
416,192,53032,1,0
352,192,53218,1,0
352,192,53405,1,0
352,192,53591,1,0
288,192,53777,2,2,L|128:192,1,140
128,96,55640,5,0
128,96,55826,1,0
128,96,56013,1,0
192,96,56199,1,0
192,96,56385,1,0
192,96,56572,1,0
288,96,56944,5,2
320,160,57131,1,0
320,160,57317,1,0
320,160,57503,1,0
384,160,57690,1,0
384,160,57876,1,0
384,160,58062,1,0
320,256,58435,5,2
255,207,58621,1,0
255,207,58808,1,0
255,207,58994,1,0
192,160,59180,1,0
192,160,59367,1,0
192,160,59553,1,0
160,96,59739,2,2,L|320:96,1,140
448,96,60857,6,2,L|352:320,1,210
288,288,61603,5,0
288,224,61789,1,0
288,160,61975,1,0
288,96,62162,1,0
224,64,62348,1,0
224,128,62534,1,0
224,192,62721,2,2,L|224:352,1,140
160,160,64584,5,0
224,160,64771,1,0
288,160,64957,1,0
352,160,65143,1,0
384,224,65330,1,0
320,224,65516,1,0
256,224,65702,2,2,L|96:224,1,140
96,128,67566,5,0
96,128,67752,1,0
96,128,67938,1,0
96,128,68125,1,0
96,128,68311,1,0
96,128,68497,1,0
192,128,68870,5,2
256,128,69056,1,0
256,128,69243,1,0
256,128,69429,1,0
256,128,69615,1,0
256,128,69802,1,0
256,128,69988,1,0
288,224,70361,5,2
288,288,70547,1,0
288,288,70733,1,0
288,288,70920,1,0
288,288,71106,1,0
288,288,71292,1,0
288,288,71479,1,0
288,288,71665,2,2,L|288:128,1,140
64,128,73528,6,2,L|224:128,1,140,2|8
256,128,74087,2,2,L|416:128,1,140,2|8
448,128,74646,2,2,L|448:224,1,70,2|8
448,256,75019,2,2,L|288:256,1,140,2|8
256,256,75578,2,2,L|96:256,1,140,2|8
64,256,76137,2,2,L|64:160,1,70,2|8
64,128,76510,6,2,L|224:128,1,140,2|8
256,128,77069,2,2,L|416:128,1,140,2|8
448,128,77628,2,2,L|448:224,1,70,2|8
448,256,78001,2,2,L|288:256,1,140,2|8
256,256,78560,2,2,L|96:256,1,140,2|8
64,256,79119,2,2,L|64:160,1,70,2|8
96,64,79677,6,0,B|192:64,1,70
224,64,80049,1,0
288,64,80236,2,0,B|384:64|416:160,1,140,0|2
416,288,81167,2,0,B|320:224,1,70
288,224,81539,1,0
224,224,81726,2,0,B|128:224|96:320,1,140,0|2
96,128,82659,5,0
96,192,82846,1,0
96,256,83032,1,0
160,256,83218,2,0,B|160:96,1,140,0|2
320,128,84150,1,0
320,192,84337,1,0
320,256,84523,1,0
384,256,84709,2,0,B|384:96,1,140,0|2
65,176,97379,6,2,L|129:144|193:176,1,140,2|8
193,272,97938,2,2,L|129:304|65:272,1,140,2|8
128,224,98497,1,2
256,175,98870,2,2,L|320:143|384:175,1,140,2|8
384,271,99429,2,2,L|320:303|256:271,1,140,2|8
320,224,99988,1,2
192,288,100360,5,8
256,288,100547,1,8
256,224,100733,1,8
256,160,100919,1,8
224,96,101106,2,0,L|160:160,1,70
128,192,101478,1,8
64,160,101665,1,2
32,288,102037,2,2,L|175:242|384:288,1,350
481,176,103342,6,2,L|417:144|353:176,1,140,8|2
353,272,103901,2,2,L|417:304|481:272,1,140,2|8
417,225,104460,1,2
254,176,104833,2,2,L|190:144|126:176,1,140,2|8
126,272,105392,2,2,L|190:304|254:272,1,140,2|8
190,225,105951,1,2
256,192,106323,12,2,108932
384,192,109305,5,0
384,192,109492,1,0
384,192,109678,1,0
320,192,109864,1,0
320,193,110051,1,0
320,194,110237,1,0
256,192,110423,2,2,L|96:192,1,140
128,192,112287,5,0
128,192,112474,1,0
128,192,112660,1,0
192,192,112846,1,0
192,192,113033,1,0
192,192,113219,1,0
256,192,113405,2,2,L|416:192,1,140
384,96,115268,5,0
384,96,115454,1,0
384,96,115641,1,0
320,96,115827,1,0
320,96,116013,1,0
320,96,116200,1,0
224,96,116572,5,2
192,160,116759,1,0
192,160,116945,1,0
192,160,117131,1,0
128,160,117318,1,0
128,160,117504,1,0
128,160,117690,1,0
192,256,118063,5,2
257,207,118249,1,0
257,207,118436,1,0
257,207,118622,1,0
320,160,118808,1,0
320,160,118995,1,0
320,160,119181,1,0
352,96,119367,2,2,L|192:96,1,140
96,96,120485,6,2,L|160:320,1,210
224,288,121231,5,0
224,224,121417,1,0
224,160,121603,1,0
224,96,121790,1,0
288,64,121976,1,0
288,128,122162,1,0
288,192,122349,2,2,L|288:352,1,140
352,160,124212,5,0
288,160,124399,1,0
224,160,124585,1,0
160,160,124771,1,0
128,224,124958,1,0
192,224,125144,1,0
256,224,125330,2,2,L|416:224,1,140
416,128,127194,5,0
416,128,127380,1,0
416,128,127566,1,0
416,128,127753,1,0
416,128,127939,1,0
416,128,128125,1,0
320,128,128498,5,2
256,128,128684,1,0
256,128,128871,1,0
256,128,129057,1,0
256,128,129243,1,0
256,128,129430,1,0
256,128,129616,1,0
224,224,129989,5,2
224,288,130175,1,0
224,288,130361,1,0
224,288,130548,1,0
224,288,130734,1,0
224,288,130920,1,0
224,288,131107,1,0
224,288,131293,2,2,L|224:128,1,140
64,128,133155,6,0,L|512:128,1,420,0|2
480,256,134646,6,0,L|32:256,1,420,0|2
64,128,136137,6,0,L|512:128,1,420,0|2
480,192,137441,2,0,L|480:288,1,70,2|0
416,288,137814,2,0,L|320:288,1,70,2|0
288,288,138186,2,2,L|160:288,1,210
64,128,139118,6,0,L|512:128,1,420,0|2
480,256,140609,6,0,L|32:256,1,420,0|2
64,128,142100,6,0,L|512:128,1,420,0|2
480,192,143404,2,0,L|480:288,1,70,2|0
416,288,143777,2,0,L|320:288,1,70,2|0
288,288,144149,2,2,L|160:288,1,210
128,128,145081,6,0,L|192:192,1,70,0|2
206,224,145454,2,0,L|270:160,1,70,0|2
288,224,145826,2,2,L|384:96,1,140
128,96,152534,5,0
128,96,152720,1,0
128,96,152907,1,0
192,96,153093,1,0
192,96,153279,1,0
192,96,153466,1,0
288,96,153838,5,2
320,160,154025,1,0
320,160,154211,1,0
320,160,154397,1,0
384,160,154584,1,0
384,160,154770,1,0
384,160,154956,1,0
320,256,155329,5,2
255,207,155515,1,0
255,207,155702,1,0
255,207,155888,1,0
192,160,156074,1,0
192,160,156261,1,0
192,160,156447,1,0
160,96,156633,2,2,L|320:96,1,140
416,96,157379,5,2
416,96,157751,2,2,L|352:320,1,210
288,288,158497,5,0
288,224,158683,1,0
288,160,158869,1,0
288,96,159056,1,0
224,64,159242,1,0
224,128,159428,1,0
224,192,159615,2,2,L|224:352,1,140
160,160,161478,5,0
224,160,161665,1,0
288,160,161851,1,0
352,160,162037,1,0
384,224,162224,1,0
320,224,162410,1,0
256,224,162596,2,2,L|96:224,1,140
256,192,164460,12,2,168932
416,64,170609,6,0,B|320:64,1,70
288,64,170981,1,0
224,64,171168,2,0,B|128:64|96:160,1,140,0|2
96,288,172099,2,0,B|192:224,1,70
224,224,172471,1,0
288,224,172658,2,0,B|384:224|416:320,1,140,0|2
384,160,173590,5,0
320,128,173776,2,0,B|224:64,1,70
192,96,174149,2,0,B|96:128|96:224,1,140,0|2
256,192,175081,1,0
224,256,175267,2,0,B|224:352,1,70
288,320,175640,2,0,B|384:288|384:192,1,140,0|2
416,128,176571,5,0
416,192,176758,1,0
416,256,176944,1,0
352,256,177130,2,0,B|352:96,1,140,0|2
192,128,178062,1,0
192,192,178249,1,0
192,256,178435,1,0
128,256,178621,2,0,B|128:96,1,140,0|2
64,128,179553,6,0,B|160:64|224:64,1,140
256,64,180112,2,0,B|288:64|320:96|352:128,1,70
384,128,180484,1,2
448,256,181044,2,0,B|352:320|288:320,1,140
256,320,181603,2,0,B|224:320|192:288|160:256,1,70
128,256,181975,1,2
