osu file format v6

[General]
AudioFilename: (Kara)_Wanna_.mp3
AudioLeadIn: 0
PreviewTime: 49677
Countdown: 1
SampleSet: Normal
StackLeniency: 0.7
Mode: 0
LetterboxInBreaks: 1

[Editor]
Bookmarks: 12597,85081,97379,146199,152534
DistanceSpacing: 1.39999997615814
BeatDivisor: 2
GridSize: 32

[Metadata]
Title:Wanna
Artist:Kara
Creator:mydoctor93
Version:Insane
Source:
Tags:

[Difficulty]
HPDrainRate:7
CircleSize:6
OverallDifficulty:7
SliderMultiplier:1.4
SliderTickRate:1

[Events]
//Background and Video events
0,0,"Kara_Revolution.jpg"
//Break Periods
2,85281,96479
2,146399,151634
//Storyboard Layer 0 (Background)
//Storyboard Layer 1 (Fail)
//Storyboard Layer 2 (Pass)
//Storyboard Layer 3 (Foreground)
//Storyboard Sound Samples
//Background Colour Transformations
3,100,163,162,255

[TimingPoints]
485.481306084201,372.669742761278,4,1,1,100,1,0
152532,372.669742761278,4,1,1,100,1,1
168929,372.669742761277,4,1,1,100,1,0

[HitObjects]
411,157,12597,1,0
330,101,12784,1,0
252,43,12970,1,0
175,103,13156,1,0
96,160,13342,1,0
96,160,13528,2,0,C|96:256,1,70,2|0
96,224,14088,1,0
176,280,14274,1,0
260,332,14461,1,0
340,275,14647,1,0
422,220,14833,1,0
422,220,15019,2,0,C|422:124,1,70,2|0
416,64,15579,5,0
342,127,15765,1,0
268,63,15951,1,0
193,126,16138,1,0
119,63,16323,1,0
119,63,16510,2,0,C|55:127,1,70,2|0
84,222,17069,1,0
158,287,17256,1,0
231,221,17442,1,0
306,284,17628,1,0
381,219,17814,1,0
381,219,18000,2,0,C|445:283,1,70,2|0
480,128,18560,5,0
388,96,18746,1,0
295,66,18933,1,0
198,64,19119,1,0
108,99,19305,1,0
14,126,19491,2,0,L|14:220,1,70,2|0
11,257,20050,1,0
103,289,20236,1,0
196,319,20423,1,0
293,321,20609,1,0
383,286,20795,1,0
477,259,20982,2,0,L|477:163,1,70,2|0
439,95,21541,5,0
439,193,21728,1,0
439,290,21914,1,0
342,293,22100,1,0
342,194,22287,1,0
343,96,22472,2,0,L|256:96,1,70,2|0
149,98,23032,1,0
149,195,23218,1,0
149,293,23405,1,0
52,293,23591,1,0
51,195,23777,1,0
50,96,23964,1,2
84,114,24336,5,0
143,193,24523,1,2
199,273,24709,1,2
259,195,24895,1,2
319,273,25082,1,2
350,236,25174,1,2
378,194,25268,1,2
405,153,25361,1,2
430,110,25454,1,2
480,96,26200,5,0
387,67,26386,1,0
384,164,26572,1,0
478,194,26759,1,0
478,291,26945,1,0
384,256,27131,2,0,B|320:224,1,70
288,96,27504,2,0,C|288:192,2,70
190,94,28063,2,0,C|190:164,2,70
96,96,28622,2,8,B|96:192,1,70
96,288,28994,2,8,B|96:192,1,70
64,192,30113,5,2
192,192,30485,1,2
320,192,30858,1,2
448,192,31231,1,2
64,320,32162,5,0
148,268,32349,1,0
63,220,32535,1,0
145,166,32721,1,0
61,115,32908,1,0
145,65,33094,2,0,B|224:128,1,70
256,64,33467,2,0,C|352:64,2,70
320,160,34026,2,0,C|250:160,2,70
320,256,34584,2,8,B|224:256,1,70
128,256,34957,2,8,B|224:256,1,70
416,224,35703,5,0
358,145,35889,1,0
304,225,36075,2,0,B|214:225,1,70
96,224,36448,1,0
160,288,36634,2,0,L|256:288,1,70
320,288,37007,2,0,L|416:256,1,70
480,256,37379,2,0,L|480:160,1,70
448,96,37753,6,0,B|416:64|384:96,1,70
289,96,38125,1,0
288,194,38312,2,0,B|320:162|352:194,1,70
448,191,38684,1,0
363,141,38871,1,0
172,97,39243,2,0,B|140:65|108:97,1,70
12,95,39616,1,0
14,192,39802,2,0,B|46:160|78:192,1,70
173,197,40175,1,0
264,161,40361,1,0
128,64,40734,5,0
73,130,40920,1,0
182,130,41107,1,0
128,192,41293,1,0
182,258,41479,1,0
128,320,41666,1,0
76,257,41852,1,0
128,192,42038,1,0
314,127,42411,1,0
256,192,42597,2,0,L|328:255,1,70
308,238,42969,2,0,L|256:288,1,70
257,286,43342,2,0,L|224:224,1,70
64,288,43715,6,0,B|96:320|128:288,1,70
224,288,44088,1,0
224,190,44274,2,0,B|192:222|160:190,1,70
65,193,44647,1,0
146,247,44833,1,0
338,285,45206,2,0,B|370:317|402:285,1,70
498,285,45579,1,0
498,187,45765,2,0,B|466:219|434:187,1,70
338,190,46138,1,0
244,220,46324,1,0
387,286,46697,5,0
443,210,46883,1,0
378,131,47069,1,0
295,133,47256,1,0
224,210,47442,1,0
286,286,47628,1,0
337,210,47815,1,0
384,288,48001,1,0
296,207,48373,1,0
234,283,48559,1,0
173,205,48746,1,0
112,281,48932,1,0
49,205,49118,1,0
112,129,49305,1,0
173,205,49491,1,0
91,142,49678,5,0
91,243,49864,1,0
171,192,50051,1,0
255,142,50237,1,0
253,243,50423,1,0
170,191,50610,1,0
89,140,50796,1,0
254,243,51169,1,0
91,243,51540,1,0
91,243,51727,1,0
254,242,52100,1,0
255,141,52287,1,0
255,243,52473,1,0
254,141,52659,5,0
333,192,52846,1,0
420,247,53032,1,0
413,144,53218,1,0
336,190,53405,1,0
255,244,53591,1,0
253,140,53777,1,0
253,140,54150,1,0
335,189,54523,2,0,B|175:189,2,140
257,141,55641,5,0
169,190,55827,1,0
92,244,56013,1,0
90,137,56200,1,0
168,189,56386,1,0
256,244,56572,1,0
256,142,56945,5,0
257,245,57131,1,0
336,191,57318,1,0
415,143,57504,1,0
418,245,57690,1,0
337,191,57877,1,0
256,143,58063,1,0
258,245,58436,5,0
175,192,58622,1,0
97,142,58808,1,0
98,245,58995,1,0
174,192,59181,1,0
255,141,59367,1,0
258,246,59554,1,0
338,191,59740,1,0
338,191,60113,1,0
448,288,60858,6,0,B|448:64,1,210
384,64,61603,5,0
448,127,61790,1,0
384,192,61976,1,0
449,254,62162,1,0
386,317,62349,1,0
325,255,62535,1,0
384,193,62721,1,0
385,25,63094,1,0
436,108,63280,5,0
384,192,63467,1,0
336,107,63653,1,0
285,190,63839,1,0
229,109,64026,1,0
178,192,64212,1,0
128,64,64585,5,0
48,120,64771,1,0
48,217,64957,1,0
131,270,65144,1,0
214,217,65330,1,0
210,119,65516,1,0
129,173,65703,1,0
132,322,66075,1,0
34,320,66262,5,0
113,261,66448,1,0
205,227,66634,1,0
304,224,66821,1,0
391,266,67007,1,0
474,317,67193,1,0
427,243,67566,5,0
426,141,67752,1,0
342,191,67939,1,0
258,246,68125,1,0
259,138,68311,1,0
345,192,68498,1,0
259,135,68870,5,0
172,190,69057,1,0
93,246,69243,1,0
90,134,69429,1,0
171,190,69616,1,0
257,247,69802,1,0
259,136,69988,1,0
257,248,70361,5,0
338,190,70547,1,0
419,134,70734,1,0
423,247,70920,1,0
340,190,71106,1,0
260,136,71293,1,0
256,256,71479,1,0
170,189,71665,1,0
170,189,72038,1,0
480,160,73528,5,0
416,128,73715,1,0
352,96,73901,1,0
288,64,74087,1,0
224,64,74274,1,0
160,96,74460,1,0
96,128,74646,1,0
32,160,74833,1,0
32,224,75019,1,0
96,256,75205,1,0
160,288,75392,1,0
224,320,75578,1,0
288,320,75764,1,0
352,288,75951,1,0
416,256,76137,1,0
480,224,76323,1,0
480,160,76510,5,0
416,128,76697,1,0
352,96,76883,1,0
288,64,77069,1,0
224,64,77256,1,0
160,96,77442,1,0
96,128,77628,1,0
32,160,77815,1,0
32,224,78001,1,0
96,256,78187,1,0
160,288,78374,1,0
224,320,78560,1,0
288,320,78746,1,0
352,288,78933,1,0
416,256,79119,1,0
480,224,79305,1,0
411,157,79677,5,0
330,101,79864,1,0
252,43,80050,1,0
175,103,80236,1,0
96,160,80423,1,0
96,160,80609,2,0,C|96:256,1,70
96,224,81168,1,0
176,280,81354,1,0
260,332,81541,1,0
340,275,81727,1,0
422,220,81913,1,0
422,220,82100,2,0,C|422:124,1,70
480,128,82659,5,0
388,96,82845,1,0
295,66,83032,1,0
198,64,83218,1,0
108,99,83404,1,0
14,126,83590,2,0,L|14:215,1,70
11,257,84149,1,0
103,289,84335,1,0
196,319,84522,1,0
293,321,84708,1,0
383,286,84894,1,0
477,259,85081,1,0
64,96,97379,6,0,B|96:64|128:96,1,70
223,96,97751,1,0
224,194,97938,2,0,B|192:162|160:194,1,70
64,191,98310,1,0
149,141,98497,1,0
339,98,98869,2,0,B|371:66|403:98,1,70
499,96,99242,1,0
497,193,99428,2,0,B|465:161|433:193,1,70
338,198,99801,1,0
247,162,99987,1,0
384,64,100360,5,0
438,130,100546,1,0
331,127,100733,1,0
384,192,100919,1,0
331,255,101105,1,0
384,320,101292,1,0
441,257,101478,1,0
384,192,101664,1,0
198,127,102037,1,0
256,192,102224,2,0,L|192:256,1,70
206,241,102596,2,0,L|256:288|288:288,1,70
257,288,102969,2,0,L|304:219,1,70
448,288,103341,6,0,B|416:320|384:288,1,70
288,288,103714,1,0
288,190,103900,2,0,B|320:222|352:190,1,70
447,193,104273,1,0
366,247,104459,1,0
173,284,104832,2,0,B|141:316|109:284,1,70
13,284,105205,1,0
13,186,105391,2,0,B|45:218|77:186,1,70
173,189,105764,1,0
267,219,105950,1,0
256,192,106324,12,0,108933
421,243,109305,5,0
341,192,109492,1,0
257,142,109678,1,0
259,243,109864,1,0
340,191,110051,1,0
423,140,110237,1,0
421,242,110423,1,0
258,142,110795,1,0
423,141,111168,1,0
423,141,111354,1,0
258,242,111727,1,0
257,141,111914,1,0
257,243,112100,1,0
258,141,112286,5,0
179,192,112473,1,0
92,247,112659,1,0
99,144,112845,1,0
176,190,113032,1,0
257,244,113218,1,0
259,140,113404,1,0
259,140,113777,1,0
177,189,114150,2,0,B|337:189,2,140
255,141,115268,5,0
343,190,115454,1,0
420,244,115640,1,0
422,137,115827,1,0
344,189,116013,1,0
256,244,116199,1,0
256,142,116572,5,0
255,245,116758,1,0
176,191,116945,1,0
97,143,117131,1,0
94,245,117317,1,0
175,191,117504,1,0
256,143,117690,1,0
254,245,118063,5,0
337,192,118249,1,0
415,142,118435,1,0
414,245,118622,1,0
338,192,118808,1,0
257,141,118994,1,0
254,246,119181,1,0
174,191,119367,1,0
174,191,119740,1,0
64,96,120485,6,0,B|64:320,1,210
128,320,121230,5,0
67,259,121417,1,0
128,192,121603,1,0
63,129,121789,1,0
126,67,121976,1,0
186,129,122162,1,0
129,193,122348,1,0
128,360,122721,1,0
76,276,122907,5,0
128,192,123094,1,0
176,277,123280,1,0
227,194,123466,1,0
283,275,123653,1,0
334,192,123839,1,0
384,320,124212,5,0
464,264,124398,1,0
464,167,124584,1,0
381,114,124771,1,0
298,167,124957,1,0
302,265,125143,1,0
383,211,125330,1,0
380,62,125702,1,0
478,64,125889,5,0
399,123,126075,1,0
307,157,126261,1,0
208,160,126448,1,0
121,118,126634,1,0
38,67,126820,1,0
427,141,127193,5,0
426,243,127379,1,0
342,193,127566,1,0
258,138,127752,1,0
259,246,127938,1,0
345,192,128125,1,0
259,249,128497,5,0
172,194,128684,1,0
93,138,128870,1,0
90,250,129056,1,0
171,194,129243,1,0
257,137,129429,1,0
259,248,129615,1,0
257,136,129988,5,0
338,194,130174,1,0
419,250,130361,1,0
423,137,130547,1,0
340,194,130733,1,0
260,248,130920,1,0
256,128,131106,1,0
170,195,131292,1,0
170,195,131665,1,0
416,64,133156,5,0
352,137,133342,1,0
286,64,133529,1,0
224,139,133715,1,0
161,64,133901,2,0,B|97:128,1,70
29,166,134273,1,0
96,224,134647,5,0
161,297,134833,1,0
226,223,135019,1,0
289,298,135206,1,0
353,223,135392,2,0,B|417:287,1,70
480,256,135764,1,0
448,160,136137,5,0
384,85,136324,1,0
323,160,136510,1,0
260,85,136696,1,0
197,160,136883,2,0,B|133:96,1,70
256,224,137442,2,0,B|256:128,1,70
264,64,137814,2,0,B|360:64,1,70
416,64,138187,2,0,B|480:160|416:288,1,210
416,320,139118,5,0
352,247,139304,1,0
286,320,139491,1,0
224,245,139677,1,0
161,320,139863,2,0,B|97:256,1,70
16,243,140236,1,0
96,160,140609,5,0
161,87,140795,1,0
226,161,140981,1,0
289,86,141168,1,0
353,161,141354,2,0,B|417:97,1,70
480,128,141727,1,0
448,224,142099,5,0
384,299,142286,1,0
323,224,142472,1,0
260,299,142658,1,0
197,224,142845,2,0,B|133:288,1,70
256,160,143404,2,0,B|256:256,1,70
264,320,143776,2,0,B|360:320,1,70
416,320,144149,2,0,B|480:224|416:96,1,210
428,114,145081,5,0
369,193,145268,1,0
313,273,145454,1,0
253,195,145640,1,0
193,273,145827,1,0
163,234,145919,1,0
134,194,146013,1,0
107,152,146106,1,0
82,110,146199,1,0
257,243,152534,5,0
169,194,152720,1,0
92,140,152906,1,0
90,247,153093,1,0
168,195,153279,1,0
256,140,153465,1,0
256,242,153838,5,0
257,139,154024,1,0
336,193,154211,1,0
415,241,154397,1,0
418,139,154583,1,0
337,193,154770,1,0
256,241,154956,1,0
258,139,155329,5,0
175,192,155515,1,0
97,242,155701,1,0
98,139,155888,1,0
174,192,156074,1,0
255,243,156260,1,0
258,138,156447,1,0
338,193,156633,1,0
338,193,157006,1,0
352,288,157380,5,0
448,288,157752,2,0,B|448:64,1,210
384,64,158497,5,0
446,127,158684,1,0
384,192,158870,1,0
446,254,159056,1,0
386,317,159243,1,0
327,255,159429,1,0
384,191,159615,1,0
385,28,159988,1,0
436,108,160174,5,0
384,192,160361,1,0
336,107,160547,1,0
285,190,160733,1,0
229,109,160920,1,0
178,192,161106,1,0
128,64,161479,5,0
48,120,161665,1,0
48,217,161851,1,0
131,270,162038,1,0
214,217,162224,1,0
210,119,162410,1,0
129,173,162597,1,0
132,322,162969,1,0
34,320,163156,5,0
113,261,163342,1,0
205,227,163528,1,0
304,224,163715,1,0
391,266,163901,1,0
474,317,164087,1,0
256,192,164460,12,0,168932
256,256,169304,5,0
256,256,169863,1,0
101,157,170609,5,0
182,101,170796,1,0
260,43,170982,1,0
337,103,171168,1,0
416,160,171354,1,0
416,160,171540,2,0,B|416:256,1,70
416,224,172100,1,0
336,280,172286,1,0
252,332,172473,1,0
172,275,172659,1,0
90,220,172845,1,0
90,220,173031,2,0,C|90:124,1,70
96,64,173591,5,0
170,127,173777,1,0
244,63,173963,1,0
319,126,174150,1,0
393,63,174335,1,0
393,63,174522,2,0,C|457:127,1,70
428,222,175081,1,0
354,287,175268,1,0
281,221,175454,1,0
206,284,175640,1,0
131,219,175826,1,0
131,219,176012,2,0,C|67:283,1,70
32,128,176572,5,0
124,96,176758,1,0
217,66,176945,1,0
314,64,177131,1,0
404,99,177317,1,0
497,126,177503,2,0,B|497:233,1,70
501,257,178062,1,0
409,289,178248,1,0
316,319,178435,1,0
219,321,178621,1,0
129,286,178807,1,0
35,259,178994,2,0,B|35:165,1,70
73,95,179553,5,0
73,193,179740,1,0
73,290,179926,1,0
170,293,180112,1,0
170,194,180299,1,0
169,96,180484,2,0,B|256:96,1,70
363,98,181043,1,0
363,195,181230,1,0
363,293,181417,1,0
460,293,181603,1,0
461,195,181789,1,0
462,96,181976,1,0
