osu file format v6

[General]
AudioFilename: (Kara)_Wanna_.mp3
AudioLeadIn: 0
PreviewTime: 49677
Countdown: 1
SampleSet: Normal
StackLeniency: 0.7
Mode: 0
LetterboxInBreaks: 1

[Editor]
Bookmarks: 12597,85081,97379,146199,152534
DistanceSpacing: 1
BeatDivisor: 2
GridSize: 32

[Metadata]
Title:Wanna
Artist:Kara
Creator:mydoctor93
Version:Hard
Source:
Tags:

[Difficulty]
HPDrainRate:5
CircleSize:5
OverallDifficulty:5
SliderMultiplier:1.4
SliderTickRate:1

[Events]
//Background and Video events
0,0,"Kara_Revolution.jpg"
//Break Periods
2,85281,96179
2,146399,151334
//Storyboard Layer 0 (Background)
//Storyboard Layer 1 (Fail)
//Storyboard Layer 2 (Pass)
//Storyboard Layer 3 (Foreground)
//Storyboard Sound Samples
//Background Colour Transformations
3,100,163,162,255

[TimingPoints]
485.481306084201,372.669742761277,4,1,1,100,1,0
152517,372.669742761278,4,1,1,100,1,1
168914,372.669742761277,4,1,1,100,1,0

[HitObjects]
101,157,12597,1,0
182,101,12784,1,0
260,43,12970,1,0
337,103,13156,1,0
416,160,13343,2,0,C|416:256,1,70,0|2
416,224,14088,1,0
336,280,14274,1,0
252,332,14461,1,0
172,275,14647,1,0
90,220,14833,2,0,C|90:124,1,70,0|2
96,64,15579,5,0
170,127,15765,1,0
244,63,15951,1,0
319,126,16138,1,0
393,63,16324,2,0,C|457:127,1,70,0|2
428,222,17069,1,0
354,287,17256,1,0
281,221,17442,1,0
206,284,17628,1,0
131,219,17815,2,0,C|67:283,1,70,0|2
32,128,18560,5,0
124,96,18746,1,0
217,66,18933,1,0
314,64,19119,1,0
404,99,19305,1,0
498,126,19492,1,2
501,257,20050,1,0
409,289,20236,1,0
316,319,20423,1,0
219,321,20609,1,0
129,286,20795,1,0
35,259,20982,1,2
73,95,21541,5,0
73,193,21728,1,0
73,290,21914,1,0
170,293,22100,1,0
170,194,22287,1,0
169,96,22473,1,2
363,98,23032,1,0
363,195,23218,1,0
363,293,23405,1,0
460,293,23591,1,0
461,195,23777,1,0
462,96,23964,1,2
428,114,24336,5,0
369,193,24523,1,2
313,273,24709,1,2
253,195,24895,1,2
193,273,25082,1,2
134,194,25268,1,2
82,110,25454,1,2
32,96,26200,5,0
125,67,26386,1,0
128,164,26572,1,0
34,194,26759,1,0
34,291,26945,1,0
127,262,27131,1,0
224,96,27504,2,0,C|224:192,2,70
322,94,28063,2,0,C|322:164,2,70
420,95,28622,1,8
418,291,28995,1,8
448,192,30113,5,2
320,192,30485,1,2
192,192,30858,1,2
64,192,31231,1,2
448,320,32162,5,0
364,268,32349,1,0
449,220,32535,1,0
367,166,32721,1,0
451,115,32908,1,0
370,60,33094,1,0
256,64,33467,2,0,C|160:64,2,70
192,160,34026,2,0,C|262:160,2,70
192,258,34585,1,8
388,258,34958,1,8
96,224,35703,5,2
154,145,35889,1,2
212,224,36076,1,2
407,221,36448,2,2,C|279:317|119:221,1,350
64,96,37753,6,2,B|96:64|128:96,1,70
223,96,38125,1,8
224,194,38312,2,2,B|192:162|160:194,1,70
64,191,38684,1,8
149,141,38871,1,2
339,97,39243,2,2,B|371:65|403:97,1,70
499,95,39616,1,8
497,192,39802,2,2,B|465:160|433:192,1,70
338,197,40175,1,8
247,161,40361,1,2
384,64,40734,5,0
448,128,40920,1,0
320,128,41107,1,0
384,192,41293,1,0
320,256,41479,1,0
384,320,41666,1,0
448,256,41852,1,0
384,192,42038,1,2
198,127,42411,1,2
256,192,42597,2,8,B|256:352,2,140
448,288,43715,6,2,B|416:320|384:288,1,70
288,288,44088,1,8
288,190,44274,2,2,B|320:222|352:190,1,70
447,193,44647,1,8
366,247,44833,1,2
178,283,45206,2,2,B|146:315|114:283,1,70
18,283,45579,1,8
18,185,45765,2,2,B|50:217|82:185,1,70
178,188,46138,1,8
272,218,46324,1,2
125,286,46697,5,0
69,210,46883,1,0
134,131,47069,1,0
217,133,47256,1,0
288,210,47442,1,0
226,286,47628,1,0
175,210,47815,1,0
128,288,48001,1,2
64,192,48373,2,2,B|487:192,1,350,0|0
421,142,49678,5,0
419,245,49864,1,0
338,195,50051,1,0
257,143,50237,1,0
258,242,50423,1,0
338,195,50610,1,0
420,142,50796,1,8
258,243,51169,1,8
419,244,51541,1,8
419,244,51727,1,8
256,243,52100,1,8
257,142,52287,1,8
256,243,52473,1,8
257,141,52659,5,0
170,192,52846,1,0
82,244,53032,1,0
83,140,53218,1,0
171,192,53405,1,0
257,244,53591,1,0
257,139,53777,1,8
256,140,54150,1,8
171,191,54523,2,2,B|331:191,2,140
257,136,55641,5,0
339,194,55827,1,0
425,251,56013,1,0
426,138,56200,1,0
341,193,56386,1,0
256,251,56572,1,0
256,135,56945,5,2
255,252,57131,1,0
173,192,57318,1,0
86,136,57504,1,0
90,251,57690,1,0
173,191,57877,1,0
255,136,58063,1,0
256,256,58435,5,2
337,193,58622,1,0
417,136,58808,1,0
420,254,58995,1,0
337,193,59181,1,0
255,136,59367,1,0
256,256,59554,1,0
171,190,59740,1,8
170,190,60113,1,8
64,288,60858,6,2,B|64:64,1,210
128,64,61603,5,0
64,127,61790,1,0
128,192,61976,1,0
69,254,62162,1,0
126,317,62349,1,0
189,255,62535,1,0
127,190,62721,1,8
129,28,63094,1,8
76,108,63280,5,0
128,192,63467,1,0
176,107,63653,1,0
227,190,63839,1,2
283,109,64026,1,2
334,192,64212,1,2
384,64,64585,5,0
464,120,64771,1,0
464,217,64957,1,0
381,270,65144,1,0
298,217,65330,1,0
302,119,65516,1,0
383,173,65703,1,8
380,322,66075,1,8
478,320,66262,5,0
399,261,66448,1,0
307,227,66634,1,0
208,224,66821,1,2
121,266,67007,1,2
38,317,67193,1,2
86,139,67566,5,0
87,252,67752,1,0
169,194,67938,1,0
255,135,68125,1,0
257,249,68311,1,0
168,194,68497,1,0
256,135,68870,5,2
257,252,69056,1,0
339,192,69243,1,0
426,136,69429,1,0
422,251,69615,1,0
339,191,69802,1,0
257,136,69988,1,0
256,256,70360,5,2
175,193,70547,1,0
95,136,70733,1,0
92,254,70920,1,0
175,193,71106,1,0
257,136,71292,1,0
256,256,71479,1,0
341,190,71665,1,8
342,190,72038,1,8
64,224,73527,6,0,B|128:128|224:128,1,140,2|0
256,96,74086,2,0,B|320:32|384:96,1,140,2|0
448,96,74645,1,2
448,96,74832,1,0
448,160,75018,2,0,B|512:224|448:288,1,140,2|0
384,288,75577,2,0,B|320:352|256:288,1,140,2|0
192,288,76136,1,2
128,256,76322,1,0
64,224,76509,6,0,B|128:128|224:128,1,140,2|0
256,96,77068,2,0,B|320:32|384:96,1,140,2|0
448,96,77627,1,2
448,96,77814,1,0
448,160,78000,2,0,B|512:224|448:288,1,140,2|0
384,288,78559,2,0,B|320:352|256:288,1,140,2|0
192,288,79118,1,2
128,256,79304,1,0
101,157,79677,5,0
182,101,79864,1,0
260,43,80050,1,0
337,103,80236,1,0
416,160,80423,2,0,C|416:256,1,70,0|2
416,224,81168,1,0
336,280,81354,1,0
252,332,81541,1,0
172,275,81727,1,0
90,220,81913,2,0,C|90:124,1,70,0|2
32,128,82659,5,0
124,96,82845,1,0
217,66,83032,1,0
314,64,83218,1,0
404,99,83404,1,0
498,126,83591,1,2
501,257,84149,1,0
409,289,84335,1,0
316,319,84522,1,0
219,321,84708,1,0
129,286,84894,1,0
35,259,85081,1,2
448,96,97379,6,2,B|416:64|384:96,1,70
289,96,97751,1,8
288,194,97938,2,2,B|320:162|352:194,1,70
448,191,98310,1,8
363,141,98497,1,2
174,95,98869,2,2,B|142:63|110:95,1,70
14,93,99242,1,8
16,190,99428,2,2,B|48:158|80:190,1,70
175,195,99801,1,8
266,159,99987,1,2
128,64,100360,5,0
64,128,100546,1,0
192,128,100733,1,0
128,192,100919,1,0
192,256,101105,1,0
128,320,101292,1,0
64,256,101478,1,0
128,192,101664,1,2
314,127,102037,1,2
256,192,102223,2,8,B|256:352,2,140
64,288,103341,6,2,B|96:320|128:288,1,70
224,288,103714,1,8
224,190,103900,2,2,B|192:222|160:190,1,70
65,193,104273,1,8
146,247,104459,1,2
337,290,104832,2,2,B|369:322|401:290,1,70
497,290,105205,1,8
497,192,105391,2,2,B|465:224|433:192,1,70
337,195,105764,1,8
243,225,105950,1,2
256,192,106324,12,2,108933
91,242,109305,5,0
93,139,109491,1,0
174,189,109678,1,0
255,241,109864,1,0
254,142,110050,1,0
174,189,110237,1,0
92,242,110423,1,8
254,141,110796,1,8
93,140,111168,1,8
93,140,111354,1,8
256,141,111727,1,8
255,242,111914,1,8
256,141,112100,1,8
255,243,112286,5,0
342,192,112473,1,0
430,140,112659,1,0
429,244,112845,1,0
341,192,113032,1,0
255,140,113218,1,0
255,245,113404,1,8
256,244,113777,1,8
341,193,114150,2,2,B|181:193,2,140
255,248,115268,5,0
173,190,115454,1,0
87,133,115640,1,0
86,246,115827,1,0
171,191,116013,1,0
256,133,116199,1,0
256,249,116572,5,2
257,132,116758,1,0
339,192,116945,1,0
426,248,117131,1,0
422,133,117317,1,0
339,193,117504,1,0
257,248,117690,1,0
256,128,118062,5,2
175,191,118249,1,0
95,248,118435,1,0
92,130,118622,1,0
175,191,118808,1,0
257,248,118994,1,0
256,128,119181,1,0
341,194,119367,1,8
342,194,119740,1,8
448,96,120485,6,2,B|448:320,1,210
384,320,121230,5,0
446,258,121417,1,0
384,192,121603,1,0
448,129,121789,1,0
386,67,121976,1,0
322,128,122162,1,0
386,191,122348,1,8
385,357,122721,1,8
436,276,122907,5,0
384,192,123094,1,0
336,277,123280,1,0
285,194,123466,1,2
229,275,123653,1,2
178,192,123839,1,2
128,320,124212,5,0
48,264,124398,1,0
48,167,124584,1,0
131,114,124771,1,0
214,167,124957,1,0
210,265,125143,1,0
129,211,125330,1,8
132,62,125702,1,8
34,64,125889,5,0
113,123,126075,1,0
205,157,126261,1,0
304,160,126448,1,2
391,118,126634,1,2
474,67,126820,1,2
426,245,127193,5,0
425,132,127379,1,0
343,190,127565,1,0
257,248,127752,1,0
256,132,127938,1,0
343,192,128124,1,0
256,249,128497,5,2
255,132,128683,1,0
173,192,128870,1,0
86,248,129056,1,0
90,133,129242,1,0
173,193,129429,1,0
255,248,129615,1,0
256,128,129987,5,2
337,191,130174,1,0
417,248,130360,1,0
420,130,130547,1,0
337,191,130733,1,0
255,248,130919,1,0
256,128,131106,1,0
171,194,131292,1,8
170,194,131665,1,8
96,64,133156,5,0
160,137,133342,1,0
226,64,133529,1,0
288,139,133715,1,0
351,64,133901,2,0,B|415:128,1,70,0|2
416,224,134647,5,0
351,297,134833,1,0
286,223,135019,1,0
223,298,135206,1,0
159,223,135392,2,0,B|95:287,1,70,0|2
64,160,136137,5,0
128,85,136324,1,0
189,160,136510,1,0
252,85,136696,1,0
315,160,136883,2,0,B|379:96,1,70,0|2
256,224,137442,2,2,B|256:128,1,70,2|0
248,64,137814,2,2,B|152:64,1,70,2|0
96,64,138187,2,2,B|32:160|96:288,1,210,0|0
96,320,139118,5,0
160,247,139304,1,0
226,320,139491,1,0
288,245,139677,1,0
351,320,139863,2,0,B|415:256,1,70,0|2
416,160,140609,5,0
351,87,140795,1,0
286,161,140981,1,0
223,86,141168,1,0
159,161,141354,2,0,B|95:97,1,70,0|2
64,224,142099,5,0
128,299,142286,1,0
189,224,142472,1,0
252,299,142658,1,0
315,224,142845,2,0,B|379:288,1,70,0|2
256,160,143404,2,2,B|256:256,1,70
248,320,143776,2,2,B|152:320,1,70
96,320,144149,2,2,B|32:224|96:96,1,210
84,114,145081,5,0
143,193,145268,1,2
199,273,145454,1,2
259,195,145640,1,2
319,273,145827,1,2
378,194,146013,1,2
430,110,146199,1,2
257,248,152534,5,0
339,190,152720,1,0
425,133,152906,1,0
426,246,153093,1,0
341,191,153279,1,0
256,133,153465,1,0
256,249,153838,5,2
255,132,154024,1,0
173,192,154211,1,0
86,248,154397,1,0
90,133,154583,1,0
173,193,154770,1,0
255,248,154956,1,0
256,128,155328,5,2
337,191,155515,1,0
417,248,155701,1,0
420,130,155888,1,0
337,191,156074,1,0
255,248,156260,1,0
256,128,156447,1,0
171,194,156633,1,8
170,194,157006,1,8
160,288,157380,5,2
64,288,157752,2,2,B|64:64,1,210
128,64,158497,5,0
65,126,158684,1,0
128,192,158870,1,0
68,254,159056,1,0
126,317,159243,1,0
185,255,159429,1,0
129,191,159615,1,8
128,25,159988,1,8
76,108,160174,5,0
128,192,160361,1,0
176,107,160547,1,0
227,190,160733,1,2
283,109,160920,1,2
334,192,161106,1,2
384,64,161479,5,0
464,120,161665,1,0
464,217,161851,1,0
381,270,162038,1,0
298,217,162224,1,0
302,119,162410,1,0
383,173,162597,1,8
380,322,162969,1,8
478,320,163156,5,0
399,261,163342,1,0
307,227,163528,1,0
208,224,163715,1,2
121,266,163901,1,2
38,317,164087,1,2
256,192,164460,12,2,168932
411,157,170609,5,0
330,101,170796,1,0
252,43,170982,1,0
175,103,171168,1,0
96,160,171355,2,0,C|96:256,1,70,0|2
96,224,172100,1,0
176,280,172286,1,0
260,332,172473,1,0
340,275,172659,1,0
422,220,172845,2,0,C|422:124,1,70,0|2
416,64,173591,5,0
342,127,173777,1,0
268,63,173963,1,0
193,126,174150,1,0
119,63,174336,2,0,C|55:127,1,70,0|2
84,222,175081,1,0
158,287,175268,1,0
231,221,175454,1,0
306,284,175640,1,0
381,219,175827,2,0,C|445:283,1,70,0|2
480,128,176572,5,0
388,96,176758,1,0
295,66,176945,1,0
198,64,177131,1,0
108,99,177317,1,0
14,126,177504,1,2
11,257,178062,1,0
103,289,178248,1,0
196,319,178435,1,0
293,321,178621,1,0
383,286,178807,1,0
477,259,178994,1,2
439,95,179553,5,0
439,193,179740,1,0
439,290,179926,1,0
342,293,180112,1,0
342,194,180299,1,0
343,96,180485,1,2
149,98,181044,1,0
149,195,181230,1,0
149,293,181417,1,0
52,293,181603,1,0
51,195,181789,1,0
50,96,181976,1,2
