osu file format v9

[General]
AudioFilename: Step.mp3
AudioLeadIn: 2000
PreviewTime: 49377
Countdown: 0
SampleSet: Soft
StackLeniency: 0.7
Mode: 0
LetterboxInBreaks: 0

[Editor]
Bookmarks: 20136,36477,100867
DistanceSpacing: 1
BeatDivisor: 4
GridSize: 8

[Metadata]
Title:Step
Artist:Kara
Creator:MoonFragrance
Version:Normal
Source:
Tags:djmax technika 3 sweetune dsp media

[Difficulty]
HPDrainRate:3
CircleSize:4
OverallDifficulty:3
ApproachRate:5
SliderMultiplier:1.2
SliderTickRate:2

[Events]
//Background and Video events
0,0,"DMT3_STEP.jpg"
Video,480,"step.avi"
//Break Periods
2,73007,79411
2,143251,153558
//Storyboard Layer 0 (Background)
//Storyboard Layer 1 (Fail)
//Storyboard Layer 2 (Pass)
//Storyboard Layer 3 (Foreground)
//Storyboard Sound Samples
//Background Colour Transformations
3,100,0,0,0

[TimingPoints]
612,487.80487804878,4,2,1,100,1,0
855,-100,4,2,2,100,0,0
8416,-100,4,2,1,100,0,0
8538,-100,4,2,2,100,0,0
12075,-100,4,2,1,100,0,0
12441,-100,4,2,2,100,0,0
18051,-100,4,2,1,100,0,0
29392,-100,4,2,2,100,0,0
33782,-100,4,2,1,100,0,0
49148,-100,4,1,1,100,0,0
49392,-100,4,1,1,100,0,1
65002,-100,4,2,1,100,0,0
65124,-100,4,2,2,100,0,0
68660,-100,4,2,1,100,0,0
69026,-100,4,2,2,100,0,0
72807,-100,4,2,1,100,0,0
84026,-100,4,2,2,100,0,0
88416,-100,4,2,1,100,0,0
95977,-100,4,1,1,100,0,0
96221,-100,4,1,1,100,0,1
127441,-100,4,1,1,100,0,0
127685,-100,4,2,2,100,0,0
131343,-100,4,1,1,100,0,0
131587,-100,4,2,2,100,0,0
135246,-100,4,1,1,100,0,0
135368,-100,4,2,2,100,0,0
141099,-100,4,2,1,50,0,0
154270,-100,4,2,2,50,0,0
158172,-100,4,2,1,100,0,0
158416,-100,4,1,1,100,0,0
158660,-100,4,1,1,100,0,1
197441,-100,4,2,1,100,0,0

[Colours]
Combo1 : 128,85,255
Combo2 : 143,255,32
Combo3 : 128,159,255
Combo4 : 255,0,64
Combo5 : 255,191,0

[HitObjects]
256,76,612,1,4
360,132,1099,1,12
360,252,1587,1,8
256,308,2075,1,12
152,252,2563,1,8
152,132,3051,1,12
256,76,3538,6,0,B|256:196,1,120,8|12
196,196,4270,2,0,B|128:208|128:312|196:328,2,180,2|12|2
316,196,6221,2,0,B|384:208|384:312|316:328,1,180,2|12
194,327,7441,1,8
194,327,7685,2,0,B|128:312|128:208|196:196,1,180,2|4
256,196,8660,5,10
316,196,8904,2,8,B|384:196|384:112,2,120,12|10|12
196,196,10368,2,0,B|128:196|128:112,3,120,10|12|10|12
224,48,12319,5,4
288,48,12563,1,10
348,48,12807,2,8,B|416:48|416:132,3,120,12|10|12|10
416,256,14758,2,8,B|416:336|348:336,2,120,12|10|12
316,188,16221,6,0,B|316:68,1,120,8|12
196,68,17197,2,0,B|196:188,1,120,8|12
256,288,18172,5,4
144,328,18660,1,8
32,288,19148,1,0
144,80,20124,1,0
208,80,20368,2,0,B|256:112|256:184,2,120,2|2|2
256,288,22075,5,0
368,328,22563,1,8
480,288,23051,1,0
368,80,24026,1,0
304,80,24270,2,0,B|256:112|256:184,2,120,2|2|2
368,288,25977,5,4
256,328,26465,1,8
144,288,26953,1,0
256,72,27929,1,0
256,136,28172,2,0,B|256:264,2,120,2|2|2
96,56,29880,6,0,B|56:112|96:168,1,120,8|12
200,112,30855,2,0,B|256:72|312:112,1,120,8|12
416,167,31831,2,8,B|456:112|416:56,2,120,8|12|8
311,111,33294,2,8,B|256:72|200:112,1,120,12|4
80,264,35002,5,2
168,344,35490,2,0,B|256:312|256:200,1,180,2|8
424,264,36953,1,2
344,344,37441,2,0,B|256:312|256:200,1,180,2|8
256,24,38904,5,2
256,88,39148,1,8
256,152,39392,2,0,B|256:280,1,120,2|2
256,336,40124,1,8
136,336,40611,2,0,B|64:320|64:248,1,120,2|8
64,131,41587,6,0,B|64:64|136:48,1,120,4|8
256,192,42807,5,2
352,264,43294,2,0,B|412:240|412:144|352:120,2,180,2|8|2
232,288,45246,2,2,B|152:256|152:128|232:96,2,240,2|2|0
296,288,47441,5,2
412,252,47929,1,8
412,132,48416,1,2
296,96,48904,1,8
176,96,49392,5,4
112,96,49636,1,0
48,96,49880,2,0,B|8:152|48:208,1,120,8|0
112,208,50611,1,2
256,312,51343,1,0
256,248,51587,2,0,B|256:128,2,120,2|2|2
336,96,53294,5,4
400,96,53538,1,0
464,96,53782,2,0,B|504:152|464:208,1,120,8|0
400,208,54514,1,2
256,312,55246,1,0
256,248,55490,2,0,B|256:128,1,120,2|2
224,16,56465,1,2
288,16,56709,1,8
352,120,57197,5,4
352,184,57441,1,2
352,248,57685,2,0,B|352:312|288:344,1,120,8|0
221,342,58416,2,0,B|160:312|160:248,1,120,2|2
208,208,59148,5,0
256,168,59392,2,0,B|256:48,2,120,2|2|2
304,208,60611,1,8
376,304,61099,6,0,B|440:304|480:248,1,120,4|8
478,133,62075,2,0,B|440:80|376:80,1,120,2|8
312,80,62807,1,2
200,80,63294,1,2
136,80,63538,2,0,B|72:80|34:133,1,120,8|2
34,250,64514,2,0,B|72:303|136:304,1,120,8|4
200,304,65246,5,10
264,304,65490,2,0,B|392:304,2,120,12|10|12
240,184,66953,2,0,B|112:184,3,120,10|12|10|12
144,64,68904,5,4
208,64,69148,1,10
272,64,69392,2,0,B|400:64,2,120,12|10|12
240,184,70855,2,8,B|112:184,3,120,10|12|10|12
144,304,72807,5,4
104,192,80611,6,0,B|64:136|104:80,2,120,4|8|0
168,192,81831,1,2
288,192,82319,1,2
352,192,82563,1,0
416,192,82807,2,0,B|455:247|416:303,2,120,2|2|2
256,104,84514,5,8
168,192,85002,1,12
256,280,85490,1,8
344,192,85977,1,12
256,104,86465,5,8
192,104,86709,1,2
128,104,86953,2,8,B|64:104|8:136,1,120,12|8
12,250,87929,2,8,B|64:280|128:280,1,120,12|4
424,288,89636,5,2
424,224,89880,1,8
424,160,90124,2,0,B|392:64|288:64,1,180,2|8
224,63,91099,2,0,B|120:64|88:160,1,180,2|8
88,224,92075,2,0,B|120:320|224:320,1,180,2|8
287,320,93051,2,0,B|392:320|424:224,1,180,2|8
424,160,94026,5,0
424,96,94270,1,2
316,48,94758,1,8
196,48,95246,1,0
88,96,95733,1,12
88,216,96221,5,4
88,280,96465,1,2
88,344,96709,2,0,B|144:384|200:344,1,120,8|0
256,312,97441,1,2
256,136,98172,1,0
256,72,98416,2,0,B|312:32|368:72,2,120,2|2|2
424,216,100124,5,4
424,280,100368,1,2
424,344,100611,2,0,B|368:384|312:344,1,120,8|0
256,312,101343,1,2
256,136,102075,1,0
256,72,102319,2,0,B|200:32|144:72,1,120,2|2
64,160,103294,1,2
64,224,103538,1,8
96,344,104026,5,4
160,344,104270,1,2
224,344,104514,2,0,B|288:344|344:312,1,120,8|0
392,280,105246,1,2
392,104,105977,1,0
339,69,106221,2,0,B|287:39|223:39,1,120,2|2
192,160,107197,1,2
192,224,107441,1,8
256,328,107929,5,4
360,264,108416,2,0,B|360:136,1,120,8|2
256,80,109392,1,8
256,144,109636,2,0,B|256:272,1,120,2|2
256,328,110368,1,8
152,264,110855,2,0,B|152:136,2,120,2|8|4
256,328,112319,6,0,B|312:368|368:328,2,120,8|2|8
160,256,113782,1,2
160,192,114026,1,0
160,128,114270,1,8
256,56,114758,2,0,B|312:16|368:56,2,120,2|8|4
256,120,115977,5,0
256,184,116221,2,0,B|256:304,1,120,8|0
200,336,116953,1,0
136,336,117197,2,0,B|64:336|64:260,2,120,8|0|8
256,304,118660,1,0
312,336,118904,1,0
376,336,119148,2,0,B|448:336|448:260,1,120,8|4
448,136,120124,6,0,B|447:60|375:60,1,120,8|2
256,60,121099,1,8
196,164,121587,1,0
196,228,121831,2,0,B|196:308,1,60,2|8
316,288,122563,1,0
316,228,122807,2,0,B|316:168,1,60,2|8
256,64,123538,5,4
192,64,123782,1,0
128,64,124026,2,0,B|56:64|40:136,1,120,8|0
40,192,124758,1,0
41,252,125002,2,0,B|56:320|128:320,2,120,8|0|8
144,192,126465,1,0
204,192,126709,2,0,B|388:192,1,180,2|4
384,72,127929,5,12
488,132,128416,1,8
488,252,128904,1,12
384,312,129392,1,8
384,192,129880,1,12
384,192,130124,2,10,B|356:148|284:148|256:192|256:192|228:236|156:236|128:192,1,300,2|4
128,72,131831,5,12
24,132,132319,1,8
24,252,132807,1,12
128,312,133294,1,8
128,192,133782,1,12
128,192,134026,2,10,B|156:148|228:148|256:192|256:192|284:236|356:236|384:192,1,300,2|4
384,72,135733,5,12
384,72,135977,2,10,B|356:28|284:28|256:72|256:72|228:116|156:116|128:72,1,300,2|10
128,192,137685,5,12
128,192,137929,2,10,B|156:236|228:236|256:192|256:192|284:148|356:148|384:192,1,300,2|8
384,312,139636,5,12
384,312,139880,2,10,B|355:267|283:267|255:311|255:311|227:355|155:355|127:311,1,300,2|8
128,192,141587,5,2
196,92,142075,1,0
316,92,142563,1,2
384,192,143051,1,4
256,192,154758,12,2,158172
112,296,158660,5,4
112,232,158904,1,2
112,168,159148,1,8
112,104,159392,2,0,B|112:40,2,60,2|0|2
224,48,160368,1,2
256,104,160612,1,0
256,168,160855,2,0,B|256:296,2,120,2|2|2
400,296,162563,5,4
400,232,162807,1,2
400,168,163051,1,8
400,104,163294,2,0,B|400:40,2,60,2|0|2
288,48,164270,1,2
256,104,164514,1,0
256,168,164758,2,0,B|256:296,2,120,2|2|2
256,104,165977,1,8
112,88,166465,5,4
112,152,166709,1,2
112,216,166953,1,8
112,280,167197,2,0,B|112:344,2,60,2|0|2
224,336,168172,1,2
256,280,168416,1,0
256,216,168660,2,0,B|256:88,2,120,2|2|2
256,280,169880,1,8
288,336,170124,1,2
352,336,170368,6,0,B|424:320|424:240,1,120,4|8
423,132,171343,2,0,B|424:64|352:48,1,120,2|8
320,96,172075,1,2
192,96,172563,1,2
158,48,172807,2,0,B|88:64|88:132,1,120,8|2
88,252,173782,2,0,B|88:320|158:335,1,120,8|4
224,336,174514,5,2
288,336,174758,1,8
352,336,175002,2,0,B|420:336,2,60,2|0|2
288,336,175733,2,0,B|256:304|256:224,1,120,8|2
160,144,176709,1,8
168,80,176953,1,0
223,47,177197,2,0,B|255:79|256:160,1,120,2|8
304,272,178172,5,0
288,336,178416,1,2
224,336,178660,1,8
160,336,178904,2,0,B|92:336,2,60,2|0|2
224,336,179636,2,0,B|256:304|256:224,1,120,8|2
352,144,180612,1,8
288,47,181099,2,0,B|256:79|256:160,1,120,2|8
208,272,182075,5,4
224,336,182319,1,2
288,336,182563,1,8
352,336,182807,2,0,B|420:336,2,60,2|0|2
312,220,183782,1,2
256,192,184026,1,0
256,128,184270,2,0,B|256:0,2,120,2|2|2
256,192,185490,1,8
200,220,185733,1,2
144,248,185977,5,4
196,356,186465,1,8
316,356,186953,1,2
368,248,187441,1,8
312,220,187685,2,0,B|256:184|200:220,1,120,2|2
144,248,188416,1,8
196,356,188904,1,2
316,356,189392,1,8
368,248,189880,5,4
368,184,190124,1,2
368,120,190368,2,0,B|368:56|312:16,2,120,8|2|8
312,140,191587,1,2
256,160,191831,2,0,B|256:280,3,120,2|8|2|8
144,248,193782,5,4
144,184,194026,1,2
144,120,194270,2,0,B|144:56|200:16,2,120,8|2|8
200,140,195490,1,2
256,160,195733,2,0,B|256:280,3,120,2|8|2|8
