osu file format v9

[General]
AudioFilename: Step.mp3
AudioLeadIn: 2000
PreviewTime: 49377
Countdown: 0
SampleSet: Soft
StackLeniency: 0.7
Mode: 0
LetterboxInBreaks: 0

[Editor]
Bookmarks: 36477,100867
DistanceSpacing: 1.2
BeatDivisor: 4
GridSize: 4

[Metadata]
Title:Step
Artist:Kara
Creator:MoonFragrance
Version:Maximum
Source:
Tags:djmax technika 3 sweetune dsp media

[Difficulty]
HPDrainRate:7
CircleSize:4
OverallDifficulty:8
ApproachRate:8
SliderMultiplier:2
SliderTickRate:2

[Events]
//Background and Video events
0,0,"DMT3_STEP.jpg"
Video,480,"step.avi"
//Break Periods
2,73007,79618
2,143251,154008
//Storyboard Layer 0 (Background)
//Storyboard Layer 1 (Fail)
//Storyboard Layer 2 (Pass)
//Storyboard Layer 3 (Foreground)
//Storyboard Sound Samples
//Background Colour Transformations
3,100,0,0,0

[TimingPoints]
612,487.80487804878,4,2,1,100,1,0
16221,-100,4,2,2,100,0,0
18051,-100,4,2,1,100,0,0
49270,-100,4,1,1,100,0,0
49392,-100,4,1,1,100,0,1
52441,-100,4,1,2,100,0,1
53172,-100,4,1,1,100,0,1
56465,-100,4,1,2,100,0,1
57075,-100,4,1,1,100,0,1
65002,-100,4,2,1,100,0,0
96099,-100,4,1,1,100,0,0
96221,-100,4,1,1,100,0,1
99270,-100,4,1,2,100,0,1
100002,-100,4,1,1,100,0,1
103172,-100,4,1,2,100,0,1
103904,-100,4,1,1,100,0,1
107075,-100,4,2,2,100,0,1
107685,-100,4,1,1,100,0,1
115002,-100,4,1,2,100,0,1
115611,-100,4,1,1,100,0,1
118782,-100,4,1,2,100,0,1
119514,-100,4,1,1,100,0,1
122685,-100,4,1,2,100,0,1
123416,-100,4,1,1,100,0,1
126587,-100,4,1,2,100,0,1
127319,-100,4,1,1,100,0,1
127441,-100,4,1,1,100,0,0
130002,-100,4,2,1,100,0,0
131221,-100,4,1,1,100,0,0
134148,-100,4,2,1,100,0,0
135124,-100,4,1,1,100,0,0
136099,-100,4,2,1,100,0,0
139270,-100,4,1,1,100,0,0
139880,-100,4,2,1,100,0,0
154270,-100,4,2,2,50,0,0
158172,-100,4,2,1,100,0,0
158416,-100,4,1,1,100,0,0
158660,-100,4,1,1,100,0,1
161709,-100,4,1,2,100,0,1
162441,-100,4,1,1,100,0,1
165611,-100,4,1,2,100,0,1
166343,-100,4,1,1,100,0,1
169514,-100,4,2,2,100,0,1
170124,-100,4,1,1,100,0,1
197441,-100,4,2,1,100,0,0

[Colours]
Combo1 : 128,85,255
Combo2 : 143,255,32
Combo3 : 128,159,255
Combo4 : 255,0,64
Combo5 : 255,191,0

[HitObjects]
208,148,612,1,4
112,148,855,2,0,B|64:148,1,50,2|0
152,60,1221,2,0,B|102:60,1,50,2|0
304,148,1587,5,0
400,148,1831,2,0,B|450:148,1,50,2|0
360,60,2197,2,0,B|410:60,1,50,2|0
256,236,2563,5,0
208,324,2807,2,0,B|160:292,1,50,2|0
304,324,3172,2,0,B|352:292,1,50,2|0
256,236,3538,6,0,B|256:124,2,100,0|2|8
168,288,4270,2,0,B|256:372|344:288,2,200,2|2|2
204,32,5733,1,2
308,32,5977,1,8
256,120,6221,2,0,B|256:328,2,200,2|2|2
168,360,7685,6,2,B|256:272|344:360,1,200,2|2
440,336,8416,5,4
440,232,8660,2,0,B|440:128,2,100,2|8|2
440,232,9270,1,0
344,256,9514,1,0
344,256,9636,2,0,B|344:128,1,100,2|8
256,112,10124,5,2
168,160,10368,2,0,B|168:260,2,100,0|2|8
72,128,11099,1,0
72,128,11221,2,0,B|72:228,1,100
72,228,11587,1,2
128,312,11831,1,8
208,256,12075,2,0,B|256:232|304:256,1,100,2|4
384,312,12563,5,2
440,232,12807,2,0,B|440:128,1,100,8|2
440,132,13172,1,0
344,104,13416,1,0
344,104,13538,2,0,B|344:224,1,100,2|8
256,248,14026,6,0,B|256:360,2,100,2|0|2
168,204,14758,2,0,B|168:104,1,100,8|2
168,104,15124,1,0
72,132,15368,1,0
72,132,15490,2,0,B|72:232,2,100,2|8|2
112,40,16221,5,8
208,32,16465,2,0,B|184:80,2,50,2|0|12
256,120,16953,1,2
304,32,17197,2,0,B|328:80,2,50,8|0|2
400,40,17685,1,12
440,128,17929,1,2
440,128,18172,6,0,B|478:220,1,100,4|0
336,128,18660,2,0,B|236:128,1,100,8|0
360,224,19148,2,0,B|400:320,2,100,0|0|8
256,224,19880,1,0
152,224,20124,2,0,B|112:320,2,100,0|0|8
256,224,20855,2,0,B|288:104|216:40,1,200,2|2
112,40,21587,1,8
72,128,21831,1,0
72,128,22075,6,0,B|33:220,1,100,0|0
176,128,22563,2,0,B|276:128,1,100,8|0
152,224,23051,2,0,B|112:320,2,100,0|0|8
256,224,23782,1,0
360,224,24026,2,0,B|400:320,2,100,0|0|8
256,224,24758,2,0,B|224:104|296:40,1,200,2|2
400,40,25490,1,8
456,120,25733,5,0
360,152,25977,2,0,B|368:200|418:228,1,100,4|0
256,252,26465,2,0,B|256:152,1,100,8|0
151,152,26953,2,0,B|144:200|93:228,2,100,0|0|8
208,72,27685,1,0
312,72,27929,1,2
360,152,28172,2,0,B|368:200|418:228,1,100,0|8
352,304,28660,2,0,B|256:256|160:304,1,200,2|2
160,200,29392,5,8
160,200,29636,1,2
72,248,29880,2,0,B|20:208|20:112|72:72,1,200,2|8
439,71,30855,2,0,B|492:112|492:208|440:248,1,200,2|8
368,320,31587,2,0,B|304:304|304:232|304:232|304:152,1,200,2|2
203,150,32319,2,0,B|203:231|203:231|203:303|139:319,2,200,8|2|8
464,256,33782,6,0,B|423:324|339:324|303:256,1,200,4|8
208,256,34514,2,0,B|172:324|88:324|48:256,1,200,2|2
48,152,35246,1,8
104,64,35490,6,0,B|144:160,1,100,2|0
208,80,35977,2,0,B|246:172,1,100,2|8
303,256,36465,2,0,B|339:324|423:324|464:256,1,200,2|0
464,152,37197,5,8
408,64,37441,2,0,B|368:160,1,100,2|0
304,80,37929,2,0,B|265:172,1,100,2|8
208,256,38416,2,0,B|172:324|88:324|48:256,1,200,2|0
48,152,39148,5,8
48,152,39392,2,0,B|92:62,1,100,2|0
152,152,39880,1,2
152,152,40124,2,0,B|196:62,1,100,8|2
256,152,40611,2,0,B|300:62,1,100,2|0
360,151,41099,2,0,B|404:62,1,100,10|0
464,239,41587,6,0,B|424:308|340:308|304:240,1,200,4|8
208,240,42319,2,0,B|171:308|87:308|47:239,1,200,2|2
48,136,43051,1,8
112,56,43294,6,0,B|152:152,1,100,2|0
216,64,43782,2,0,B|254:156,1,100,2|8
304,240,44270,2,0,B|340:308|424:308|464:239,1,200,2|2
464,144,45002,1,8
464,144,45246,2,0,B|424:75|340:75|304:144,1,200,2|2
256,232,45977,1,8
209,143,46221,2,0,B|173:75|89:75|49:144,1,200,2|2
0,232,46953,1,8
32,328,47197,5,0
136,328,47441,2,0,B|240:328,1,100,2|0
380,232,47929,2,0,B|280:232,1,100,10|0
136,128,48416,2,0,B|240:128,1,100,2|0
376,24,48904,2,8,B|276:24,1,100,14|0
136,24,49392,5,4
136,24,49636,2,0,B|43:62,1,100,0|8
168,120,50124,1,2
168,120,50368,2,0,B|75:158,2,100,0|2|8
256,168,51099,5,2
168,216,51343,1,0
168,216,51587,2,0,B|168:320,1,100,2|8
256,256,52075,2,0,B|256:360,1,100,2|0
344,216,52563,1,2
344,216,52685,1,2
344,216,52807,2,0,B|344:328,1,100,12|2
344,120,53294,5,4
344,120,53538,2,0,B|436:158,1,100,2|8
376,24,54026,1,2
376,24,54270,2,0,B|468:62,2,100,0|2|8
256,8,55002,5,2
168,56,55246,1,0
168,56,55490,2,0,B|168:160,1,100,2|8
256,96,55977,2,0,B|256:200,1,100,2|0
344,56,56465,1,2
344,56,56587,1,2
344,56,56709,2,0,B|344:168,1,100,12|2
400,240,57197,5,4
376,336,57441,1,2
304,272,57685,1,8
208,272,57929,1,2
136,336,58172,1,0
112,240,58416,2,0,B|112:136,1,100,2|8
208,104,58904,5,0
312,104,59148,1,0
400,140,59392,2,0,B|400:240,1,100,2|8
304,272,59880,2,0,B|256:248|208:272,1,100,2|0
112,240,60368,2,0,B|112:140,2,100,2|8|2
176,320,61099,6,0,B|196:256|316:256|336:320,3,200,4|8|0|8
352,224,62807,2,0,B|400:256|408:304,2,100,2|0|2
160,224,63538,2,0,B|112:256|104:304,2,100,8|2|0
256,280,64270,1,2
256,280,64514,2,0,B|256:72,1,200,8|4
256,80,65246,5,2
168,32,65490,2,0,B|120:64|120:128,1,100,8|2
120,116,65855,1,0
160,308,66099,1,0
160,308,66221,2,0,B|160:208,1,100,2|8
256,280,66709,2,0,B|256:180,1,100,2|0
256,80,67197,5,2
344,32,67441,2,0,B|392:64|392:128,1,100,8|2
392,116,67807,1,0
352,308,68051,1,0
352,308,68172,2,0,B|352:208,2,100,2|8|2
256,336,68904,5,4
160,304,69148,2,0,B|112:328|64:304,2,100,2|8|2
160,304,69758,1,0
352,304,70002,1,0
352,304,70124,2,0,B|400:328|448:304,2,100,2|8|2
352,200,70855,6,0,B|352:100,1,100,0|2
256,160,71343,2,0,B|256:60,1,100,8|2
256,60,71709,1,0
160,200,71953,1,0
160,200,72075,2,0,B|160:100,2,100,2|8|2
256,240,72807,5,4
256,48,80368,5,0
168,96,80611,2,0,B|64:96,2,100,4|0|8
256,144,81343,1,0
344,184,81587,2,0,B|448:184,2,100,0|0|8
256,232,82319,5,2
160,248,82563,1,0
160,248,82807,2,0,B|160:312|216:336,1,100,2|8
352,248,83294,2,0,B|352:312|296:336,2,100,2|0|2
256,232,84026,1,8
256,232,84270,1,0
160,248,84514,6,0,B|64:208|64:80,1,200,2|8
352,248,85490,2,0,B|448:208|448:80,1,200,2|8
352,112,86221,2,0,B|376:64|376:16,2,100,2|0|2
256,80,86953,1,8
160,112,87197,2,0,B|136:64|136:16,2,100,2|0|2
256,152,87929,2,0,B|256:256,1,100,8|2
344,208,88416,6,0,B|416:256|376:360|304:352,1,200,4|8
203,352,89148,2,0,B|136:360|96:256|168:208,1,200,2|2
256,256,89880,1,8
344,208,90124,1,2
344,104,90368,6,0,B|312:52|200:52|168:104,1,200,2|8
166,208,91099,2,0,B|96:256|136:360|203:352,1,200,2|2
308,352,91831,1,8
308,352,92075,2,0,B|376:360|416:256|345:208,1,200,2|2
256,256,92807,1,8
256,256,92929,1,0
256,256,93051,2,0,B|256:32,1,200,2|0
256,56,93782,1,8
160,80,94026,5,0
64,120,94270,2,0,B|64:224,1,100,2|0
184,336,94758,2,0,B|184:236,1,100,10|0
328,236,95246,2,0,B|328:336,1,100,2|0
448,220,95733,2,0,B|448:120,1,100,12|0
308,104,96221,5,4
308,104,96465,2,0,B|252:104|212:136,1,100,2|8
204,280,96953,1,2
204,280,97197,2,0,B|260:280|300:248,2,100,0|2|8
88,240,97929,5,0
196,188,98172,1,0
196,188,98416,2,0,B|172:140|196:92,1,100,2|8
315,91,98904,2,0,B|340:140|316:188,1,100,2|0
288,304,99392,2,0,B|288:352,1,50,2|2
216,304,99636,2,0,B|216:352,2,50,12|2|2
196,188,100124,5,4
196,188,100368,2,0,B|196:84,1,100,2|8
316,188,100855,1,2
316,188,101099,2,0,B|316:84,2,100,0|2|8
256,288,101831,5,2
144,328,102075,1,0
144,328,102319,2,0,B|144:224,1,100,2|8
256,288,102807,2,0,B|256:184,1,100,2|0
368,328,103294,1,2
368,328,103416,1,2
368,328,103538,2,0,B|368:224,1,100,12|2
320,120,104026,5,4
432,96,104270,1,2
320,120,104514,1,8
192,120,104758,1,2
80,96,105002,1,0
192,120,105246,1,2
256,224,105490,2,0,B|256:352,1,100,8|0
136,344,105977,5,0
136,344,106221,2,0,B|80:328|80:272,1,100,2|8
256,324,106709,2,0,B|256:224,1,100,2|0
376,344,107197,1,2
376,344,107319,1,8
376,344,107441,2,0,B|432:328|432:272,1,100,12|2
400,152,107929,6,0,B|304:132,1,100,4|0
112,152,108416,2,0,B|208:132,1,100,8|0
304,56,108904,2,0,B|256:40|256:40|208:56,1,100,2|0
256,168,109392,1,8
256,168,109636,2,0,B|256:272,2,100,0|2|0
144,200,110368,2,0,B|84:164|84:68|144:32,1,200,8|2
256,80,111099,1,0
367,31,111343,2,0,B|428:68|428:164|368:199,1,200,8|4
112,344,112319,5,10
112,344,112563,1,0
112,344,112807,2,0,B|216:320,1,100,2|0
400,344,113294,2,0,B|296:320,1,100,10|0
192,240,113782,1,2
192,240,114026,1,2
320,240,114270,1,8
320,240,114514,1,2
256,136,114758,2,0,B|256:24,1,100,2|2
256,36,115124,1,2
256,36,115246,1,12
256,36,115368,1,2
256,36,115490,1,2
160,64,115733,5,4
112,152,115977,1,0
112,152,116099,1,2
112,152,116221,2,0,B|112:200,2,50,8|0|2
352,64,116709,5,0
400,152,116953,1,0
400,152,117075,1,2
400,152,117197,2,0,B|400:200,2,50,8|0|2
208,160,117685,5,0
160,248,117929,1,0
160,248,118051,1,2
160,248,118172,2,0,B|160:296,2,50,8|0|2
304,160,118660,5,0
352,248,118904,1,2
352,248,119026,1,2
352,248,119148,2,0,B|352:296,2,50,12|2|2
256,232,119636,5,4
112,40,120124,6,0,B|216:64,1,100,8|0
400,40,120611,2,0,B|296:64,1,100,2|0
196,136,121099,1,8
316,136,121343,1,2
328,256,121587,1,0
328,256,121831,1,2
328,256,122075,2,8,B|328:368,1,100,8|0
184,256,122563,1,0
184,256,122807,1,2
184,256,122929,1,2
184,256,123051,2,8,B|184:356,1,100,8|2
88,232,123538,5,4
120,136,123782,1,0
120,136,123904,1,2
120,136,124026,2,0,B|120:72,2,50,8|0|2
176,216,124514,5,0
208,120,124758,1,0
208,120,124880,1,2
208,120,125002,2,0,B|208:56,2,50,8|0|2
336,216,125490,5,0
304,120,125733,1,0
304,120,125855,1,2
304,120,125977,2,0,B|304:56,2,50,8|0|2
424,232,126465,5,0
392,136,126709,1,2
392,136,126831,1,2
392,136,126953,2,0,B|392:72,2,50,12|2|2
352,232,127441,5,4
256,272,127685,1,2
160,232,127929,1,8
256,272,128172,1,2
256,192,128416,2,0,B|256:88,1,100
256,92,128782,1,2
256,92,128904,1,8
160,96,129148,5,0
208,8,129392,1,0
304,8,129636,1,0
352,96,129880,1,8
400,184,130124,1,0
400,184,130246,1,2
400,184,130368,2,0,B|456:200,1,50,0|2
400,248,130611,2,0,B|456:264,1,50,0|2
400,312,130855,2,0,B|456:328,2,50,8|2|2
296,312,131343,6,0,B|248:336|200:312,1,100,4|2
200,312,131709,1,0
184,216,131953,2,0,B|184:160,1,50,0|2
216,72,132319,2,0,B|264:48|312:72,1,100,0|2
312,72,132685,1,0
328,168,132929,2,0,B|328:224,3,50,0|2|2|0
256,288,133538,5,0
156,288,133782,1,8
112,200,134026,1,0
112,200,134148,1,2
112,200,134270,2,0,B|56:184,1,50,0|2
112,136,134514,2,0,B|56:120,1,50,0|2
112,72,134758,2,0,B|56:56,2,50,8|2|2
200,32,135246,5,0
256,168,135490,1,0
312,32,135733,1,8
400,72,135977,1,0
400,72,136099,1,2
400,72,136221,2,0,B|456:56,1,50,0|2
400,136,136465,2,0,B|456:120,1,50,0|2
400,200,136709,2,0,B|456:184,2,50,8|2|2
256,264,137197,5,2
256,240,137319,1,2
256,216,137441,1,0
256,192,137563,1,2
256,168,137685,1,8
184,104,137929,1,0
184,104,138051,1,2
184,104,138172,2,0,B|128:72,1,50,0|2
224,48,138416,2,0,B|192:8,1,50,0|2
288,48,138660,2,0,B|320:8,1,50,8|2
328,104,138904,2,0,B|384:72,2,50,2|2|0
256,168,139392,5,2
256,168,139514,1,0
256,272,139758,1,2
256,272,139880,1,2
256,272,140002,1,0
256,272,140124,2,0,B|256:336,6,50,2|0|2|0|10|2|2
160,40,141099,5,0
352,40,141587,1,0
72,192,142075,1,0
440,192,142563,1,2
256,344,143051,5,4
256,192,154758,12,2,158172
184,296,158660,5,4
184,296,158904,2,0,B|128:296|112:240,2,100,2|8|2
328,296,159636,1,0
328,296,159880,2,0,B|384:296|400:240,2,100,2|8|2
256,200,160612,5,0
368,144,160855,2,0,B|368:88|312:64,1,100,2|8
144,144,161343,2,0,B|144:88|200:64,1,100,2|0
256,200,161831,1,2
256,200,161953,1,2
256,200,162075,2,0,B|256:272,2,50,12|2|2
144,144,162563,6,0,B|40:144,2,100,4|2|8
256,104,163294,1,2
368,64,163538,2,0,B|472:64,2,100,0|2|8
256,24,164270,1,0
144,64,164514,2,0,B|40:64,2,100,0|2|8
256,104,165246,1,2
368,144,165490,2,0,B|472:144,1,100,0|2
468,144,165855,1,2
468,144,165977,1,12
468,144,166099,1,2
468,144,166221,1,2
496,256,166465,5,4
408,336,166709,1,2
320,256,166953,1,8
192,256,167197,1,2
104,336,167441,1,0
16,256,167685,2,0,B|16:144,1,100,2|8
100,72,168172,5,2
184,160,168416,1,0
184,160,168660,2,0,B|216:64,1,100,2|8
328,160,169148,2,0,B|296:64,1,100,2|0
256,176,169636,1,2
256,176,169758,1,8
256,176,169880,2,0,B|256:280,1,100,12|2
168,360,170368,6,0,B|144:312|168:264,1,100,4|0
343,263,170855,2,0,B|368:312|344:360,1,100,8|0
256,276,171343,2,0,B|256:176,1,100,2|0
192,72,171831,1,8
192,72,172075,2,0,B|144:72|120:136,2,100,2|0|2
320,72,172807,2,0,B|368:72|392:136,2,100,8|0|2
256,176,173538,2,0,B|256:276,1,100,2|8
136,32,174270,5,4
192,136,174514,1,2
192,136,174758,1,8
376,32,175002,1,2
320,136,175246,1,0
320,136,175490,1,2
256,240,175733,6,0,B|256:352,1,100,8|0
144,312,176221,1,2
368,312,176465,1,2
168,232,176709,1,8
336,232,176953,1,2
192,152,177197,2,0,B|192:48,1,100,2|0
320,152,177685,2,0,B|320:52,1,100,8|0
320,272,178172,5,4
440,248,178416,1,2
320,272,178660,1,8
192,272,178904,1,2
72,248,179148,1,0
192,272,179392,1,2
248,184,179636,6,0,B|248:84,1,100,10|0
344,152,180124,1,0
320,272,180368,1,2
320,272,180612,2,0,B|280:312|280:368,1,100,8|0
168,232,181099,1,0
192,112,181343,1,2
192,111,181587,2,0,B|232:72|231:22,1,100,8|0
72,88,182075,5,4
48,208,182319,1,2
168,232,182563,1,8
256,148,182807,1,2
344,232,183051,1,0
464,208,183294,1,2
440,88,183538,1,8
328,48,183782,5,0
328,48,184026,2,0,B|352:96|352:152,2,100,0|2|8
184,48,184758,2,0,B|160:96|160:152,2,100,2|0|2
256,144,185490,1,8
256,264,185733,1,2
192,368,185977,6,0,B|128:365|101:333,1,100,4|0
320,368,186465,2,0,B|384:366|411:333,1,100,8|0
176,264,186953,2,0,B|120:264|85:229,2,100,2|0|8
336,264,187685,2,0,B|392:264|427:229,2,100,2|0|2
192,168,188416,2,0,B|128:168|96:128,2,100,8|2|0
320,168,189148,2,0,B|384:168|416:128,1,100,2|8
64,328,189880,5,4
64,328,190124,2,0,B|64:216,1,100,2|8
152,176,190612,2,0,B|200:208,1,50,2|0
360,176,190977,2,0,B|312:208,1,50,0|2
256,280,191343,1,8
344,328,191587,1,2
448,328,191831,5,0
448,328,192075,2,0,B|448:228,1,100,2|8
360,176,192563,2,0,B|312:208,1,50,2|0
152,176,192929,2,0,B|200:208,1,50,0|2
256,280,193294,1,8
168,328,193538,1,2
64,328,193782,5,4
64,328,194026,2,0,B|64:228,1,100,2|8
152,176,194514,2,0,B|152:126,1,50,2|0
256,218,194880,2,0,B|256:168,1,50,0|2
256,320,195246,1,8
352,296,195490,1,2
448,328,195733,5,0
448,328,195977,2,0,B|448:228,1,100,2|8
360,176,196465,2,0,B|360:126,1,50,2|0
256,218,196831,2,0,B|256:168,1,50,0|2
256,320,197197,1,8
160,296,197441,1,2
