osu file format v9

[General]
AudioFilename: Step.mp3
AudioLeadIn: 2000
PreviewTime: 49377
Countdown: 0
SampleSet: Soft
StackLeniency: 0.7
Mode: 0
LetterboxInBreaks: 0

[Editor]
Bookmarks: 36477,100867
DistanceSpacing: 1.2
BeatDivisor: 4
GridSize: 8

[Metadata]
Title:Step
Artist:Kara
Creator:MoonFragrance
Version:Hard
Source:
Tags:djmax technika 3 sweetune dsp media

[Difficulty]
HPDrainRate:5
CircleSize:4
OverallDifficulty:5
ApproachRate:7
SliderMultiplier:1.6
SliderTickRate:2

[Events]
//Background and Video events
0,0,"DMT3_STEP.jpg"
Video,480,"step.avi"
//Break Periods
2,73007,79468
2,143251,153858
//Storyboard Layer 0 (Background)
//Storyboard Layer 1 (Fail)
//Storyboard Layer 2 (Pass)
//Storyboard Layer 3 (Foreground)
//Storyboard Sound Samples
//Background Colour Transformations
3,100,0,0,0

[TimingPoints]
612,487.80487804878,4,2,1,100,1,0
8538,-100,4,2,2,100,0,0
12075,-100,4,2,1,100,0,0
12441,-100,4,2,2,100,0,0
18051,-100,4,2,1,100,0,0
49148,-100,4,1,1,100,0,0
49392,-100,4,1,1,100,0,1
65002,-100,4,2,1,100,0,0
95977,-100,4,1,1,100,0,0
96221,-100,4,1,1,100,0,1
127441,-100,4,1,1,100,0,0
130002,-100,4,2,1,100,0,0
131221,-100,4,1,1,100,0,0
133904,-100,4,2,1,100,0,0
135124,-100,4,1,1,100,0,0
136099,-100,4,2,1,100,0,0
139270,-100,4,1,1,100,0,0
139880,-100,4,2,1,100,0,0
154270,-100,4,2,2,50,0,0
158172,-100,4,2,1,100,0,0
158416,-100,4,1,1,100,0,0
158660,-100,4,1,1,100,0,1
161709,-100,4,1,2,100,0,1
162441,-100,4,1,1,100,0,1
165611,-100,4,1,2,100,0,1
166343,-100,4,1,1,100,0,1
197441,-100,4,2,1,100,0,0

[Colours]
Combo1 : 128,85,255
Combo2 : 143,255,32
Combo3 : 128,159,255
Combo4 : 255,0,64
Combo5 : 255,191,0

[HitObjects]
256,64,612,1,4
176,64,855,2,0,B|124:84|124:172|176:192,1,160,2|2
256,192,1587,1,0
335,191,1831,2,0,B|388:212|388:300|336:320,1,160,2|2
256,320,2563,1,0
176,320,2807,2,0,B|124:300|124:212|176:191,1,160,2|2
256,192,3538,6,0,B|256:104,2,80,0|2|8
296,264,4270,2,0,B|316:316|404:316|424:263,2,160,2|2|2
256,192,5490,1,0
216,264,5733,2,0,B|195:316|107:316|87:263,2,160,2|2|2
256,192,6953,1,8
256,192,7197,2,0,B|256:96,1,80,2|0
176,104,7685,6,2,B|180:8|332:8|336:104,1,240,2|4
336,184,8660,5,10
336,184,8904,2,0,B|368:240|304:280|344:344,2,160,12|8|12
296,112,10124,1,2
216,112,10368,1,8
176,184,10612,1,2
176,184,10855,2,0,B|144:240|208:280|168:344,2,160,12|10|12
256,40,12319,5,4
296,112,12563,1,10
296,112,12807,2,0,B|316:164|404:164|424:111,2,160,12|10|12
256,40,14026,1,2
256,40,14270,1,8
216,112,14514,1,2
216,112,14758,2,0,B|196:164|108:164|88:111,2,160,12|8|12
320,232,16221,6,0,B|352:256|400:256,2,80,8|2|12
296,152,16953,1,2
216,152,17197,1,8
200,232,17441,2,0,B|168:256|120:256,2,80,2|12|2
140,176,18172,5,4
216,152,18416,2,0,B|216:64,1,80,0|8
296,72,18904,2,0,B|296:152,1,80
372,176,19392,1,0
256,296,19880,1,2
256,296,20124,1,0
256,296,20368,2,0,B|256:128,2,160,2|2|2
192,344,21587,6,0,B|152:352|112:336,2,80,8|0|0
256,296,22319,1,0
320,344,22563,2,0,B|360:352|400:336,2,80,8|0|0
256,296,23294,2,0,B|256:128,1,160,0|2
216,64,24026,1,0
296,64,24270,1,2
328,224,24758,2,0,B|256:288|184:224,2,160,2|2|2
328,144,25977,6,0,B|328:64,1,80,4|0
256,32,26465,2,0,B|256:112,1,80,8|0
184,144,26953,2,0,B|184:64,1,80,0|0
256,208,27685,1,2
256,208,27929,1,0
256,208,28172,2,0,B|256:368,2,160,2|2|2
256,128,29392,5,8
256,128,29636,1,0
192,80,29880,2,0,B|212:28|300:28|320:80,3,160,2|8|2|8
336,160,31587,2,0,B|336:320,1,160,2|2
336,320,32319,1,8
176,320,32807,2,0,B|176:160,1,160,2|8
256,24,33782,6,0,B|256:200,1,160,4|8
480,272,35002,1,2
416,320,35246,1,8
336,328,35490,2,0,B|308:272|336:216|336:216|364:160|336:96,1,240,2|8
32,272,36953,1,2
96,320,37197,1,8
176,328,37441,2,0,B|204:272|176:216|176:216|148:160|176:96,1,240,2|8
256,336,38904,5,0
256,336,39148,1,8
256,336,39392,2,0,B|256:176,1,160,2|2
216,104,40124,2,0,B|176:128|176:176,2,80,8|2|0
296,104,40855,2,0,B|336:128|336:176,2,80,2|8|2
256,176,41587,6,0,B|256:336,1,160,4|8
32,112,42807,1,2
96,64,43051,1,8
176,56,43294,2,0,B|204:112|176:168|176:168|148:224|176:288,1,240,2|8
208,360,44270,2,0,B|248:340|256:300|256:300|264:340|304:360,1,160,2|2
335,288,45002,1,8
335,288,45246,2,0,B|364:224|336:168|336:168|308:112|336:56,2,240,2|8|0
335,288,46953,1,8
256,304,47197,5,0
216,232,47441,2,0,B|216:72,1,160,2|8
296,232,48416,2,0,B|296:72,1,160,2|8
456,104,49392,5,4
456,104,49636,2,0,B|456:200,1,80,2|8
376,128,50124,1,2
376,128,50368,2,0,B|376:224,1,80,0|2
256,312,51099,5,2
256,232,51343,1,0
256,232,51587,2,0,B|256:56,2,160,2|2|2
56,104,53294,5,4
56,104,53538,2,0,B|56:200,1,80,2|8
136,128,54026,1,2
136,128,54270,2,0,B|136:224,1,80,0|2
256,312,55002,5,2
256,232,55246,1,0
256,232,55490,2,0,B|256:56,2,160,2|2|2
72,80,57197,5,4
152,80,57441,1,2
216,32,57685,1,8
296,32,57929,1,2
360,80,58172,1,0
440,80,58416,1,2
256,104,58904,5,2
256,184,59148,1,0
256,184,59392,2,0,B|256:352,2,160,2|2|2
216,112,60611,1,8
296,112,60855,1,2
328,40,61099,6,0,B|304:4|208:4|184:40,3,160,4|8|0|8
216,112,62807,2,0,B|216:280,1,160,2|2
296,272,63538,2,0,B|296:112,2,160,8|2|8
448,328,65002,5,0
376,296,65246,1,2
376,216,65490,2,0,B|376:48,2,160,8|2|8
304,256,66709,1,2
256,192,66953,1,0
208,256,67197,1,2
136,216,67441,2,0,B|136:48,2,160,8|2|8
64,328,68904,5,4
136,296,69148,1,2
136,216,69392,2,0,B|136:48,2,160,8|2|8
208,256,70611,1,2
256,192,70855,1,0
304,256,71099,1,2
376,216,71343,2,0,B|376:48,2,160,8|2|8
256,328,72807,5,4
216,72,80368,6,0,B|184:40|144:40,2,80,0|4|0
296,72,81099,2,0,B|328:40|368:40,2,80,8|0|0
336,144,81831,2,0,B|336:328,1,160,0|2
336,304,82563,1,0
336,304,82807,1,2
176,304,83294,2,0,B|176:144,1,160,2|2
96,160,84026,5,8
96,160,84270,1,0
96,160,84514,2,0,B|80:112|112:48|176:48,1,160,2|8
336,47,85490,2,0,B|400:48|432:112|416:160,1,160,2|8
336,160,86221,2,0,B|336:200|316:232|316:232|296:264|296:312,1,160,2|2
216,312,86953,2,0,B|215:262|195:230|195:230|175:198|175:158,2,160,8|2|8
64,360,88416,6,0,B|0:344|0:280|0:280|0:224,1,160,4|8
80,216,89148,2,0,B|80:48,1,160,2|2
160,40,89880,1,8
160,40,90124,2,0,B|196:120|316:120|352:40,1,240,2|8
432,56,91099,6,0,B|432:216,1,160,2|2
512,231,91831,1,8
512,231,92075,2,0,B|512:280|512:280|512:344|448:360,1,160,2|0
384,312,92807,2,0,B|359:259|279:259|255:311|255:311|231:367|151:367|127:311,1,320,8|8
192,264,94026,5,0
192,264,94270,2,0,B|192:80,1,160,2|8
320,264,95246,2,0,B|320:104,1,160,2|8
144,32,96221,5,4
144,32,96465,2,0,B|66:53,1,80,2|8
64,152,96953,1,2
64,152,97197,2,0,B|141:130,2,80,0|2|8
64,248,97929,5,0
160,224,98172,1,0
160,224,98416,2,0,B|160:320,1,80,2|8
256,336,98904,2,0,B|256:176,1,160,2|2
256,176,99636,1,8
368,32,100124,5,4
368,32,100368,2,0,B|445:53,1,80,2|8
448,152,100855,1,2
448,152,101099,2,0,B|370:130,2,80,0|2|8
448,248,101831,5,0
352,224,102075,1,0
352,224,102319,2,0,B|352:320,1,80,2|8
256,336,102807,2,0,B|256:176,1,160,2|2
256,176,103538,1,8
168,32,104026,5,4
168,32,104270,2,0,B|168:120,1,80,2|8
256,152,104758,2,0,B|256:72,1,80,2|0
344,32,105246,2,0,B|344:120,1,80,2|8
344,208,105733,5,2
256,248,105977,1,0
176,200,106221,2,0,B|128:200|104:232,1,80,2|8
184,304,106709,2,0,B|256:368|328:304,1,160,2|2
344,208,107441,2,0,B|392:208|416:240,1,80,8|2
496,184,107929,6,0,B|440:120|344:112,1,160,4|8
155,113,108904,2,0,B|72:120|16:184,1,160,2|8
72,264,109636,2,0,B|127:200|211:193,1,160,2|2
304,192,110368,2,0,B|387:198|443:262,3,160,8|2|8|4
304,336,112319,5,8
208,336,112563,1,0
116,312,112807,2,0,B|28:280|28:184,2,160,2|8|2
208,280,114026,1,2
256,200,114270,1,8
304,280,114514,1,2
396,312,114758,2,0,B|484:280|484:184,2,160,2|8|2
384,232,115977,6,0,B|384:176,1,40,0|2
304,208,116343,2,0,B|304:168,1,40,0|2
128,232,116953,6,0,B|128:176,1,40,0|2
208,208,117319,2,0,B|208:168,1,40,0|2
296,328,117929,6,0,B|296:288,1,40,0|2
216,328,118294,2,0,B|216:280,1,40,0|2
144,248,118660,6,0,B|168:208|216:208,1,80,0|2
368,248,119148,2,0,B|344:208|296:208,1,80,8|2
256,296,119636,1,4
184,120,120124,6,0,B|256:56|328:120,2,160,8|2|8
256,184,121343,1,0
328,248,121587,1,0
328,248,121831,1,2
328,248,122075,2,0,B|256:312|184:248,1,160,8|2
256,184,122807,1,0
328,120,123051,2,0,B|256:56|184:120,1,160,8|4
104,168,123782,6,0,B|104:208,1,40,0|2
184,232,124148,2,0,B|184:272,1,40,0|2
256,312,124514,5,0
328,272,124758,2,0,B|328:232,1,40,0|2
408,208,125124,2,0,B|408:168,1,40,0|2
328,144,125490,5,0
296,72,125733,2,0,B|296:24,1,40,0|2
216,72,126099,2,0,B|216:24,1,40,0|2
184,144,126465,5,0
184,224,126709,2,0,B|256:284|328:224,1,160,2|2
328,144,127441,5,0
400,176,127685,2,0,B|488:216,2,80,0|8|0
328,144,128416,2,0,B|256:110|256:110|184:144,1,160,0|8
112,176,129148,2,0,B|24:216,2,80,0|0|0
184,144,129880,1,8
144,72,130124,1,0
144,72,130246,1,2
144,72,130368,2,2,B|200:32|256:72|256:72|312:112|368:72,1,240
424,136,131343,6,0,B|424:224|336:256,1,160,4|8
256,232,132075,1,2
176,256,132319,2,0,B|88:224|88:136,2,160,0|8|0
256,232,133538,1,0
336,256,133782,1,8
336,176,134026,1,0
336,176,134148,1,2
336,176,134270,2,2,B|328:72|192:72|184:176,1,240
184,256,135246,6,0,B|104:280,2,80,4|0|8
256,232,135977,1,0
256,232,136099,1,2
256,232,136221,2,2,B|256:64,2,160,2|8|2
328,256,137441,6,0,B|408:280,2,80,2|8|2
256,232,138172,1,0
256,232,138294,1,2
256,232,138416,2,2,B|256:144,1,80,2|8
256,152,138904,1,2
320,104,139148,6,0,B|300:52|212:52|192:104,1,160,0|8
192,184,139880,1,0
192,184,140002,1,2
192,184,140124,2,2,B|212:236|300:236|320:184,2,160,2|8|2
256,40,141587,5,0
408,192,142075,1,0
256,344,142563,1,0
104,192,143051,1,4
256,192,154758,12,2,158172
72,136,158660,5,4
72,136,158904,2,0,B|72:56,1,80,2|8
160,96,159392,1,2
160,96,159636,2,0,B|160:8,2,80,0|2|8
160,192,160368,5,2
160,288,160612,1,0
160,288,160855,2,0,B|160:376,1,80,2|8
256,344,161343,2,0,B|256:264,1,80,2|0
352,288,161831,1,2
352,288,161953,1,2
352,288,162075,2,0,B|352:384,2,80,12|2|4
440,248,162807,6,0,B|440:328,1,80,2|8
352,288,163294,1,2
352,288,163538,2,0,B|352:376,2,80,0|2|8
352,192,164270,5,2
352,96,164514,1,0
352,96,164758,2,0,B|352:8,1,80,2|8
256,40,165246,2,0,B|256:120,1,80,2|0
160,96,165733,1,2
160,96,165855,1,2
160,96,165977,2,0,B|160:0,2,80,12|2|4
160,192,166709,5,2
208,272,166953,1,8
256,192,167197,1,2
304,272,167441,1,0
352,192,167685,2,0,B|380:156|352:120,1,80,2|8
256,96,168172,5,2
160,118,168416,1,0
160,118,168660,2,0,B|132:156|160:192,1,80,2|8
256,176,169148,2,0,B|256:336,1,160,2|2
160,352,169880,5,8
160,352,170124,1,0
160,352,170368,2,0,B|64:336|64:232,1,160,4|8
352,352,171343,2,0,B|448:336|448:232,1,160,2|8
352,104,172075,2,0,B|352:264,1,160,2|2
292,340,172807,2,0,B|256:324|256:324|220:340,1,80,8|0
160,264,173294,2,0,B|160:104,2,160,2|8|4
72,304,174514,6,0,B|72:216,1,80,2|8
72,224,175002,1,2
160,264,175246,2,0,B|160:176,1,80,0|2
184,88,175733,6,0,B|256:24|328:88,1,160,8|2
352,184,176465,2,0,B|352:264,2,80,2|8|2
328,88,177197,2,0,B|256:24|184:88,2,160,2|8|4
352,184,178416,6,0,B|352:264,1,80,2|8
352,264,178904,1,2
440,224,179148,2,0,B|440:304,1,80,0|2
440,304,179636,5,8
352,344,179880,1,0
264,304,180124,1,0
264,304,180368,1,2
264,304,180612,2,0,B|200:264|200:160,1,160,8|0
248,80,181343,1,2
248,80,181587,2,0,B|312:120|312:224,1,160,8|4
264,304,182319,6,0,B|176:304,1,80,2|8
184,304,182807,1,2
248,216,183051,2,0,B|336:216,1,80,0|2
328,216,183538,1,8
264,120,183782,5,2
264,120,184026,2,0,B|176:120,2,80,0|2|8
328,40,184758,2,0,B|280:0|232:0|184:40,1,160,2|2
128,120,185490,1,8
128,120,185733,1,0
112,216,185977,6,0,B|112:304|184:352,1,160,4|8
400,216,186953,2,0,B|400:304|328:352,1,160,2|8
304,256,187685,2,0,B|304:160,2,80,2|0|2
208,256,188416,2,0,B|208:160,2,80,8|2|0
256,344,189148,1,2
256,344,189392,1,8
48,328,189880,5,4
48,248,190124,2,0,B|48:160,1,80,2|8
128,192,190612,2,0,B|128:136,1,40,0|2
208,176,190977,2,0,B|208:120,1,40,0|2
464,328,191587,5,2
464,248,191831,1,0
464,248,192075,2,0,B|464:160,1,80,2|8
384,192,192563,2,0,B|384:136,1,40,0|2
304,176,192929,2,0,B|304:120,1,40,0|2
48,56,193782,5,4
48,136,194026,2,0,B|48:224,1,80,2|8
128,232,194514,1,0
128,232,194636,1,2
208,248,194880,1,0
208,248,195002,1,2
464,56,195490,5,2
464,136,195733,1,0
464,136,195977,2,0,B|464:224,1,80,2|8
384,232,196465,1,0
384,232,196587,1,2
304,248,196831,1,0
304,248,196953,1,2
